#VERSION:0.81;
#TITLE:MAKE IT SPECIAL (Reflection MIX);
#SUBTITLE:;
#ARTIST:Foozogz;
#TITLETRANSLIT:;
#SUBTITLETRANSLIT:;
#ARTISTTRANSLIT:;
#GENRE:Techno;
#ORIGIN:;
#CREDIT:;
#BANNER:MAKE IT SPECIAL (Reflection MIX).png;
#BACKGROUND:MAKE IT SPECIAL (Reflection MIX)-bg.png;
#PREVIEWVID:;
#JACKET:MAKE IT SPECIAL (Reflection MIX)-jacket.png;
#CDIMAGE:;
#DISCIMAGE:;
#LYRICSPATH:;
#CDTITLE:;
#MUSIC:MAKE IT SPECIAL (Reflection MIX).mp3;
#OFFSET:-0.573000;
#SAMPLESTART:27.240000;
#SAMPLELENGTH:15.000000;
#SELECTABLE:YES;
#BPMS:0.000=180.000,
80.000=90.000,
84.000=180.000,
269.000=90.000;
#STOPS:153.500=0.278,
153.667=0.278,
153.833=0.111,
160.500=0.250,
160.750=0.083,
182.500=0.278,
182.667=0.278,
182.833=0.111,
189.500=0.250,
189.750=0.083,
236.000=0.139,
236.333=0.139,
236.667=0.056;
#DELAYS:;
#WARPS:;
#TIMESIGNATURES:0.000=4=4;
#TICKCOUNTS:0.000=4;
#COMBOS:0.000=1;
#SPEEDS:0.000=1.000=0.000=0;
#SCROLLS:0.000=1.000;
#FAKES:;
#LABELS:0.000=Song Start;
#BGCHANGES:-4.000=cdtitle.png=1.000=0=0=0=StretchNoLoop====,
3.000=MAKE IT SPECIAL (Reflection MIX).avi=1.000=0=0=0=StretchNoLoop====,
99999=-nosongbg-=1.000=0=0=0 // don't automatically add -songbackground-
;
#KEYSOUNDS:;
#ATTACKS:
;

//---------------dance-single - ----------------
#NOTEDATA:;
#CHARTNAME:;
#STEPSTYPE:dance-single;
#DESCRIPTION:;
#CHARTSTYLE:;
#DIFFICULTY:Easy;
#METER:7;
#RADARVALUES:0.323816,0.377926,0.143250,0.210661,0.000000,227.000000,17.000000,25.000000,0.000000,0.000000,0.000000,0.000000,0.000000,0.323816,0.377926,0.143250,0.210661,0.000000,227.000000,17.000000,25.000000,0.000000,0.000000,0.000000,0.000000,0.000000;
#CREDIT:;
#NOTES:
0000
0000
0000
0000
,
0000
0000
0000
0000
,
0000
0000
0000
0000
,
0000
0000
0000
0000
,
1000
0000
0000
0000
,
0000
1000
0000
0000
1000
0000
0000
0000
,
0001
0000
0000
0000
,
0000
0001
0000
0000
0001
0000
0000
0000
,
0010
0000
0000
0000
,
0000
0010
0000
0000
0010
0000
0000
0000
,
0100
0000
0000
0000
,
0000
0100
0000
0000
0100
0000
0000
0000
,
1000
0000
0000
0000
,
1000
0100
1000
0100
,
1000
0001
1000
0001
,
0100
0001
0100
0001
,
0100
0010
0100
0010
,
1000
0001
1000
0001
,
0010
0001
1000
0100
,
0010
0001
1000
0100
,
0220
0000
0000
0330
,
0010
0001
0010
0001
,
0100
0100
0100
0000
,
0010
0100
0010
0100
,
0001
0000
0000
0001
0000
0000
0001
0000
,
0200
0000
0320
0000
,
2030
0000
0000
0000
,
3002
0000
0000
0013
,
0001
0100
0001
0100
,
0010
0010
0100
0010
,
1000
0000
0000
2000
0000
0000
0000
0000
,
3001
1000
0001
0010
,
0100
0100
0200
1300
,
0100
0100
1000
0001
,
2000
0000
3020
0000
,
0230
0000
0302
0000
,
1003
1000
0001
0001
,
0100
0001
0010
0100
,
0010
0000
0000
0100
1000
0000
0001
0000
,
1000
0010
0200
0000
,
0301
0100
0010
0100
,
0010
1010
0011
2010
,
3001
0000
1000
0000
0000
0100
0000
0000
,
1000
0000
0002
0000
0000
0103
0000
0000
,
0001
0010
0010
0100
,
0010
0000
0001
0000
0000
1000
0100
0000
,
0010
0100
0010
0002
,
0000
1003
0200
0000
,
0320
0000
0032
0000
,
2003
0000
3020
0000
,
0000
0000
0100
0100
,
0100
0130
0010
0000
,
1010
0000
1000
0001
,
1001
0000
0002
0010
,
0100
1000
0010
1000
,
0010
0103
0001
0000
,
0011
0000
0010
0100
,
0110
0000
0200
1000
,
0010
0001
1000
0001
,
0310
0010
0000
0110
,
0000
0100
1000
1001
,
0000
2000
0010
0100
,
0001
0010
0001
0100
,
3001
1000
0000
1001
,
0000
0001
0100
0101
,
0000
0200
0001
0010
,
1000
0010
1000
0001
,
0310
0000
0110
0000
0010
0000
1000
0001
,
1000
0000
0100
0000
0010
0000
0001
1000
,
0001
0000
0101
0000
0100
0000
0010
1000
,
0100
0000
1000
0000
0100
0000
0010
0001
,
0100
0000
0101
0000
0001
0000
0010
0100
,
1000
0000
0100
0000
1000
0000
0010
0100
,
0001
0000
1001
0000
1000
0000
0010
0100
,
0010
1000
0001
0110
;

//---------------dance-single - ----------------
#NOTEDATA:;
#CHARTNAME:;
#STEPSTYPE:dance-single;
#DESCRIPTION:;
#CHARTSTYLE:;
#DIFFICULTY:Challenge;
#METER:16;
#RADARVALUES:0.742731,0.755852,0.337058,0.345484,0.214874,536.000000,40.000000,41.000000,0.000000,0.000000,0.000000,0.000000,0.000000,0.742731,0.755852,0.337058,0.345484,0.214874,536.000000,40.000000,41.000000,0.000000,0.000000,0.000000,0.000000,0.000000;
#CREDIT:;
#NOTES:
// measure 0
0000
0000
0000
0000
,  // measure 1
0000
0000
0000
0000
,  // measure 2
0000
0000
0000
0000
,  // measure 3
0000
0000
0000
0000
,  // measure 4
0010
1000
0100
1000
0010
0100
0001
0010
,  // measure 5
0100
0010
0001
0100
0010
1000
0001
1000
,  // measure 6
0100
0010
0001
0100
0010
1000
0100
1000
,  // measure 7
0010
0100
0001
0010
0100
0010
0100
1000
,  // measure 8
0001
0100
0010
0001
0010
0100
0001
0010
,  // measure 9
0100
0001
0100
1000
0010
0100
0001
0100
,  // measure 10
0001
1000
0001
0010
0100
0010
0001
1000
,  // measure 11
0010
0100
0001
1000
0100
0010
0100
1000
,  // measure 12
0010
0000
0010
0100
0000
0100
0001
0000
,  // measure 13
0010
0010
0100
1000
,  // measure 14
1001
1001
0110
1010
,  // measure 15
1001
1001
0110
0011
,  // measure 16
0001
0010
0001
0010
0100
1000
0100
1000
,  // measure 17
0010
1000
0010
1000
0001
0100
0001
0100
,  // measure 18
0001
0010
0001
0010
0001
0010
0001
0010
0100
1000
0100
1000
0100
1000
0100
1000
,  // measure 19
0002
2003
3020
0230
,  // measure 20
0310
0000
0010
0000
0100
0000
0100
0000
0000
0000
0001
0000
0100
0000
0010
0000
1000
0000
0000
0000
0001
0000
1000
0001
1000
0000
0100
0000
0010
0000
0100
0000
,  // measure 21
0010
0001
0010
0001
0100
0010
1000
0001
,  // measure 22
0010
0100
0010
0001
0100
0010
0000
0010
,  // measure 23
1000
0001
2000
0000
3020
0000
0032
0000
,  // measure 24
0013
0100
0010
2000
0000
0000
3001
0000
,  // measure 25
1000
0100
0001
0100
1000
0000
0010
0000
,  // measure 26
0011
1010
1200
0301
,  // measure 27
0100
0010
0100
0010
0100
0000
0010
0000
,  // measure 28
0001
0010
0001
0100
0001
0010
0001
0100
,  // measure 29
0001
1000
0010
1000
0001
0010
0001
0000
,  // measure 30
0010
0000
0010
0100
0000
0100
1000
0100
,  // measure 31
1000
0001
1000
0001
0000
0101
0000
0000
,  // measure 32
1100
0101
0021
1030
,  // measure 33
0010
0100
0010
0100
2000
0000
3100
0000
,  // measure 34
1200
0310
0120
0031
,  // measure 35
0012
0103
0201
0310
,  // measure 36
0110
0000
0000
0000
0110
0000
0000
0000
0010
1000
0010
1000
0001
0000
0010
0000
,  // measure 37
0100
1000
0100
1000
0001
0100
0001
0100
,  // measure 38
0010
0000
0000
1000
0000
0000
0010
0000
0000
1000
1000
1000
0001
0000
0000
0010
0000
0000
0001
0000
0000
0010
0000
0000
,  // measure 39
0100
1000
0100
1000
0001
1000
0001
1000
,  // measure 40
0010
0000
0100
0100
0001
0000
0010
0000
1000
0000
0010
0000
0001
0000
0000
0000
,  // measure 41
0100
0101
1100
0021
,  // measure 42
1030
0000
1000
0100
0001
0100
1000
0010
,  // measure 43
0100
0000
0101
0000
0001
0010
1100
0000
,  // measure 44
1010
0000
0010
0100
0010
0100
0001
0010
,  // measure 45
0001
0000
0000
0010
0000
0000
1000
0000
0000
0010
0000
0000
1000
0000
0000
0010
0010
0010
0100
0000
0000
1000
0000
0000
,  // measure 46
0100
1000
0001
1000
0001
1000
0001
0100
,  // measure 47
0001
0000
0100
0000
0010
0000
0100
0100
0102
0000
0010
0000
0103
0000
0000
0000
,  // measure 48
0021
0100
0031
0000
1010
0000
0011
0000
,  // measure 49
1200
0000
0301
0000
0100
1000
0010
0100
,  // measure 50
0001
0010
0100
0010
0001
0010
0100
1000
,  // measure 51
0001
0000
0001
0000
1000
0001
1000
0001
1000
0000
0010
1000
0001
0010
0100
1000
,  // measure 52
0002
0000
0103
0000
0200
0000
0301
0000
0100
0000
0100
0000
0010
0000
0100
0010
,  // measure 53
1000
0000
0001
0000
1000
0001
0100
0001
2000
0000
0100
0000
0001
0000
0100
0000
,  // measure 54
0010
0001
0010
3100
1000
0010
0200
0000
,  // measure 55
0301
0000
0100
0000
0020
0000
0000
0000
1030
0000
1000
0000
0000
0010
0100
0000
,  // measure 56
0020
0000
1030
0000
2000
0000
3010
0000
1000
0000
0100
0000
0100
0000
0010
0001
,  // measure 57
0010
0001
0020
0000
0032
1000
0100
1000
,  // measure 58
0010
1000
0010
0103
0001
0010
0100
1000
,  // measure 59
1001
0000
0000
0000
1001
0000
0000
0000
1001
0000
0000
0000
1000
0000
0000
0000
0000
0000
0010
0000
0000
1000
0000
0000
0000
0000
0000
0010
0000
0000
1000
0000
0000
0010
0000
0000
0200
0000
0000
0000
0000
0000
0301
0000
0000
0000
0000
0000
,  // measure 60
0002
0000
0103
0000
0001
0000
0010
0000
0100
0000
0010
0001
0100
0000
0010
0000
,  // measure 61
1000
0010
0100
0010
2000
0000
0010
0000
0001
0000
0010
0000
0100
0000
0001
0000
,  // measure 62
0100
3010
1000
0010
0200
0000
0301
0100
,  // measure 63
0020
0000
0000
0000
1030
0001
1000
0001
1000
0000
0001
0000
0020
0000
0130
0000
,  // measure 64
0200
0000
0310
0000
0100
0000
1000
0000
0001
0000
0100
0001
0100
0010
0000
0000
,  // measure 65
0100
0010
1000
0100
0001
0100
1000
0010
,  // measure 66
0001
0000
0010
0000
0100
0000
0010
0100
0001
0000
0100
0000
0010
0100
0001
1000
,  // measure 67
0100
0010
0100
0010
0200
0000
1000
0000
0010
0000
0301
0000
0200
0000
0001
0000
,  // measure 68
0010
1300
2000
0010
0001
3100
1000
0010
,  // measure 69
0100
0001
0020
0001
0100
1030
0020
1000
,  // measure 70
0100
0031
0002
0100
1000
0013
0001
0100
,  // measure 71
0010
1000
1001
0001
0010
0100
0110
0010
,  // measure 72
0001
0100
0010
0100
0001
0010
0100
1000
,  // measure 73
0010
0100
0110
0010
1000
0001
1001
0001
,  // measure 74
0010
0100
0010
0001
0100
0001
1001
0000
;

//---------------dance-single - ----------------
#NOTEDATA:;
#CHARTNAME:;
#STEPSTYPE:dance-single;
#DESCRIPTION:;
#CHARTSTYLE:;
#DIFFICULTY:Medium;
#METER:10;
#RADARVALUES:0.504383,0.535395,0.219088,0.337058,0.037919,353.000000,26.000000,40.000000,0.000000,0.000000,0.000000,0.000000,0.000000,0.504383,0.535395,0.219088,0.337058,0.037919,353.000000,26.000000,40.000000,0.000000,0.000000,0.000000,0.000000,0.000000;
#CREDIT:;
#NOTES:
0000
0000
0000
0000
,
0000
0000
0000
0000
,
0000
0000
0000
0000
,
0000
0000
0000
0000
,
1000
0000
1000
0001
0000
0000
0000
0000
,
0010
0100
0000
0100
1000
0000
0000
0000
,
0010
0000
0010
1000
0000
0000
0000
0000
,
1000
0001
0100
0001
0100
0001
0010
0000
,
0100
0000
0100
0010
0000
0000
0000
0000
,
0001
0100
0000
0100
0010
0000
0000
0000
,
2000
0000
0000
0000
,
3002
0000
1003
0001
1000
0000
0001
0000
,
0010
0000
0001
0010
0000
0010
0100
0000
,
1000
1000
1000
1000
,
0001
0001
0001
0001
,
0010
0010
0010
0010
,
0100
0010
0100
0010
0100
0010
0100
0010
,
0001
0010
0001
0010
0001
0010
0001
0010
,
0100
1000
0010
0100
0001
1000
0100
0010
,
0001
1000
0010
0100
0010
1000
0001
0010
,
0100
0010
0100
0010
0000
0001
0010
0100
1000
0000
0001
1000
0000
0010
0000
1000
,
0001
0000
0100
0000
0010
0100
0010
0000
,
1000
0000
1000
0000
0001
0010
0000
0010
,
0200
2300
3002
0203
,
0310
0000
0010
0200
0000
0000
0301
0000
,
0100
0001
1000
0001
0100
0000
0010
0000
,
1000
1010
1002
0103
,
0001
0010
0100
0000
0010
0000
0001
0000
,
1001
1010
1001
0011
,
0010
0100
0010
0000
0001
0000
0010
0000
,
0100
0000
0010
0001
0000
0001
0000
0001
,
1000
0000
0010
1000
0000
2000
0000
0000
,
3001
0011
1001
1010
,
1000
1000
0001
0001
,
0020
0000
0230
0000
,
2300
0000
3002
0000
,
0203
0000
0000
0000
0310
0100
0010
0100
,
0010
0000
1000
0010
1000
0000
0001
0000
,
1000
0001
0000
0100
0010
0000
1000
0010
,
0000
1000
0000
0000
0002
0000
1003
0001
,
0010
0000
0100
1000
0001
1000
0100
0000
,
0010
0110
1100
0120
,
0031
0000
0010
0001
0100
0000
0010
0000
,
1000
1001
1100
1001
,
0101
0001
0010
0001
,
0100
0000
0010
0100
0000
0010
1000
0000
,
0001
0010
0000
0100
0000
0000
0020
0000
,
0031
0010
0001
0000
1000
0001
0010
0001
,
1000
0010
0110
0101
,
0120
1030
0010
0100
,
0010
0100
0001
1000
,
0001
1000
0001
1000
0020
0000
0000
0000
,
0130
0100
0010
0010
,
1000
0010
1000
0000
0001
1000
0010
0001
,
1000
0100
0001
1000
0200
0000
0320
0000
,
0000
0031
0010
0000
0200
0000
0000
0000
,
0310
0010
0100
0100
,
1000
0100
0010
0000
0100
1000
0010
0001
,
1000
0100
0001
0010
0100
1000
0010
0100
,
0010
0010
0010
0020
0000
0000
0000
0000
0000
0130
0000
0000
,
0100
0000
0010
0000
0010
0000
1000
0010
,
0100
0000
0001
0010
0001
0100
0010
0001
,
0010
1000
0200
0000
0320
0000
0000
1030
,
0010
0200
0000
0310
,
0010
0000
0100
0000
0100
0000
1000
0100
,
0001
0000
0100
0010
0001
0010
0001
1000
,
0010
0001
1000
0100
0001
0010
0100
1000
,
0010
0100
0002
0000
0000
0000
2003
0000
,
0000
0000
3100
1000
0010
0100
0001
0010
,
0100
1000
2002
0000
3003
0000
0220
0000
,
0330
0000
0010
1000
0100
0010
0100
0010
,
0001
0100
0220
0000
0330
0000
2002
0000
,
3003
0000
1000
0100
1000
0010
0001
0010
,
0100
0010
0220
0000
0330
0000
2002
0000
,
3003
0000
1000
0100
0001
1000
1010
0000
;

//---------------dance-single - ----------------
#NOTEDATA:;
#CHARTNAME:;
#STEPSTYPE:dance-single;
#DESCRIPTION:;
#CHARTSTYLE:;
#DIFFICULTY:Beginner;
#METER:2;
#RADARVALUES:0.077042,0.094482,0.000000,0.075838,0.000000,55.000000,0.000000,9.000000,0.000000,0.000000,0.000000,0.000000,0.000000,0.077042,0.094482,0.000000,0.075838,0.000000,55.000000,0.000000,9.000000,0.000000,0.000000,0.000000,0.000000,0.000000;
#CREDIT:;
#NOTES:
0000
0000
0000
0000
,
0000
0000
0000
0000
,
0000
0000
0000
0000
,
0000
0000
0000
0000
,
0000
0000
0000
0000
,
0000
0000
0000
0000
,
0000
0000
0000
0000
,
0000
0000
0000
0000
,
0000
0000
0000
0000
,
0000
0000
0000
0000
,
0001
0000
0000
0000
,
1000
0000
0000
0000
,
0100
0000
0000
0000
,
0100
0000
0000
0000
,
0100
0000
0000
0000
,
0100
0000
0000
0000
,
0010
0000
0000
0000
,
0010
0000
0000
0000
,
0010
0000
0000
0000
,
0010
0000
0000
0000
,
0002
0000
0000
0000
,
0003
0000
0000
0000
,
0001
0000
0000
0000
,
1000
0000
0000
0000
,
1000
0000
0000
0000
,
0010
0000
0000
0000
,
0010
0000
0000
0000
,
0100
0000
0000
0000
,
0100
0000
0000
0000
,
0001
0000
0000
0000
,
0001
0000
0000
0000
,
1000
0000
0000
0000
,
1000
0000
0000
0000
,
0100
0000
0000
0000
,
0100
0000
0000
0000
,
0010
0000
0000
0000
,
0010
0000
0000
0000
,
0002
0000
0000
0000
,
0000
0000
0000
0000
,
0000
0003
2000
0000
,
0000
3000
0000
0000
,
0000
0001
0000
0000
,
0000
0100
0000
0000
,
0000
0010
0000
0000
,
0000
2000
0000
0000
,
0000
0000
0000
0000
,
0000
0000
0000
3002
,
0000
0000
0003
0000
,
0000
0000
1000
0000
,
0000
0000
0100
0000
,
0000
0000
0010
0000
,
0000
0000
0100
0000
,
0000
0000
0100
0000
,
0000
0000
2000
0000
,
0000
0000
0000
0000
,
0000
0000
3010
0000
,
0000
0000
0010
0000
,
0000
0000
0002
0000
,
0000
0000
0000
0000
,
0000
0003
0000
0000
,
0000
0100
0000
0000
,
0000
2000
0000
0000
,
0000
0000
0000
0000
,
0000
3010
0000
0000
,
0000
0010
0000
0000
,
0000
0002
0000
0000
,
0000
0000
0000
0000
,
0000
0003
0000
1000
,
0000
0000
0000
0000
,
0000
0010
0000
0100
,
0000
0000
0000
0000
,
0000
0001
0000
0010
,
0000
0000
0000
0000
,
0000
0100
0000
1000
,
0000
0000
0000
0001
;

//---------------dance-single - ----------------
#NOTEDATA:;
#CHARTNAME:;
#STEPSTYPE:dance-single;
#DESCRIPTION:;
#CHARTSTYLE:;
#DIFFICULTY:Hard;
#METER:12;
#RADARVALUES:0.527255,0.661371,0.202235,0.109544,0.033706,401.000000,24.000000,13.000000,0.000000,0.000000,0.000000,0.000000,0.000000,0.527255,0.661371,0.202235,0.109544,0.033706,401.000000,24.000000,13.000000,0.000000,0.000000,0.000000,0.000000,0.000000;
#CREDIT:;
#NOTES:
// measure 0
0000
0000
0000
0000
,  // measure 1
0000
0000
0000
0000
,  // measure 2
0000
0000
0000
0000
,  // measure 3
0000
0000
0000
0000
,  // measure 4
0000
0000
0000
0000
,  // measure 5
0000
0000
0000
0000
,  // measure 6
0000
0000
0000
0000
,  // measure 7
0000
0000
0000
0000
,  // measure 8
1000
0000
0000
1010
0000
0000
0000
0000
,  // measure 9
0000
0010
0000
0000
0100
0001
0000
0000
,  // measure 10
0010
0000
0000
0110
0000
0000
0000
0000
,  // measure 11
0000
0100
0000
0000
1000
0001
0000
0000
,  // measure 12
0100
0000
0010
0100
0000
0010
0100
0000
,  // measure 13
0001
0010
0100
1000
,  // measure 14
0010
0100
0001
1000
,  // measure 15
0100
1000
0010
0100
,  // measure 16
0001
0000
0010
0100
0000
0010
0100
0000
,  // measure 17
1000
0010
0001
1000
,  // measure 18
0100
0001
0100
0001
0010
0001
0010
0001
,  // measure 19
2000
3200
0320
0032
,  // measure 20
1003
0100
0010
0001
0000
0001
0010
0100
1000
0000
0010
0000
0100
0001
1000
0001
,  // measure 21
1000
0100
0001
0100
1000
0010
0100
0010
,  // measure 22
1000
0001
0010
0001
1000
0010
0000
0010
,  // measure 23
0100
0001
0100
0000
0110
0000
1001
0000
,  // measure 24
0101
1010
1001
0100
,  // measure 25
0010
0000
1000
0100
1000
0000
0001
0100
,  // measure 26
0001
1000
0100
1000
,  // measure 27
0010
0000
0100
0001
0000
0001
1000
0000
,  // measure 28
1100
0001
0101
0100
,  // measure 29
0010
1000
0100
1000
0001
0100
0010
0100
,  // measure 30
0001
0010
0100
1000
0000
0001
0000
0100
,  // measure 31
0010
0100
0001
0000
0101
0000
1100
0000
,  // measure 32
0101
0000
1000
0100
0000
0100
1000
0000
,  // measure 33
0010
0000
0100
0001
0000
0001
1000
0000
,  // measure 34
0100
0000
0010
0100
0000
0100
1000
0000
,  // measure 35
0010
0000
0100
0001
0000
0001
0010
0000
,  // measure 36
0100
0000
0000
1000
0001
0100
0010
1000
,  // measure 37
0001
0010
0100
0010
0001
0010
0100
1000
,  // measure 38
0001
0100
0010
0200
0301
0010
0100
1000
,  // measure 39
0001
1000
0100
0010
0001
1000
0010
0100
,  // measure 40
0001
0020
0130
1000
0010
1000
0001
0000
,  // measure 41
0100
0110
1001
0110
,  // measure 42
0110
0000
0010
1000
0100
0000
1000
0000
,  // measure 43
0001
0101
0010
1100
,  // measure 44
0010
0000
0100
0001
0100
0010
0100
0001
,  // measure 45
1000
0100
1000
0010
0100
0002
1003
0010
,  // measure 46
0100
0001
0100
0010
0100
0001
1000
0100
,  // measure 47
0010
0100
1000
0020
0130
0001
0100
0010
,  // measure 48
1000
0001
0010
0000
1100
0000
1001
0000
,  // measure 49
0101
0000
0110
0000
0010
1000
0001
1000
,  // measure 50
0010
0100
0001
0000
0012
0000
0000
0000
,  // measure 51
1003
0000
0010
0010
0010
1000
0100
0000
,  // measure 52
0010
0001
0100
0000
0010
0100
0001
1000
,  // measure 53
0100
1000
0001
0000
0010
0100
1000
0000
,  // measure 54
0010
0100
1000
0000
0100
0001
0010
0100
,  // measure 55
1000
0001
1000
0100
0010
0001
0100
0000
,  // measure 56
0010
1000
0001
0000
0001
0010
0100
0000
,  // measure 57
0100
1000
0001
0000
0001
0100
0010
0100
,  // measure 58
0001
1000
0100
1000
0001
0100
0010
0100
,  // measure 59
0001
1000
0001
1000
0000
0000
0010
0000
0000
0110
0000
0000
,  // measure 60
0100
0000
0001
0100
1000
0001
0010
1000
,  // measure 61
0001
0010
0100
1000
0001
0100
0010
0100
,  // measure 62
0001
1000
0100
0010
0001
1000
0010
0100
,  // measure 63
0001
0010
0100
1000
0001
0000
0001
0100
,  // measure 64
0010
0000
0010
1000
0100
0010
0001
0100
,  // measure 65
0010
1000
0100
1000
0001
0100
0010
0100
,  // measure 66
0001
1000
0100
0000
0010
0000
0001
1000
,  // measure 67
0010
0100
0001
0010
0100
1000
0001
0100
,  // measure 68
0010
1000
0001
0100
1000
0100
0010
1000
,  // measure 69
0001
0010
0100
1000
0001
0100
0010
1000
,  // measure 70
0001
0010
0100
1000
0001
0010
0100
0010
,  // measure 71
0001
1000
0020
0000
0000
0000
0230
0000
,  // measure 72
0000
0000
0301
0010
0100
1000
0001
0010
,  // measure 73
0100
1000
0020
0000
0000
0000
0230
0000
,  // measure 74
0000
0000
0310
1000
0001
0100
0010
0000
;
