#TITLE:Luna (NIGHTMARE Mode);
#SUBTITLE:;
#ARTIST:Eurobeat Brony;
#TITLETRANSLIT:;
#SUBTITLETRANSLIT:;
#ARTISTTRANSLIT:;
#GENRE:Euro-Rock;
#CREDIT:;
#BANNER:Luna (NIGHTMARE MODE).png;
#BACKGROUND:Luna (NIGHTMARE MODE)-bg.png;
#LYRICSPATH:;
#CDTITLE:;
#MUSIC:Luna (NIGHTMARE Mode).mp3;
#OFFSET:-0.060;
#SAMPLESTART:56.040;
#SAMPLELENGTH:15.000;
#SELECTABLE:YES;
#BPMS:0.000=145.000
,232.000=72.500
,234.000=36.250
,236.000=217.500
;
#STOPS:
;
#BGCHANGES:;
#KEYSOUNDS:;
#ATTACKS:;

//---------------dance-single - ----------------
#NOTES:
     dance-single:
     :
     Hard:
     12:
     0.625,0.590,0.348,0.696,0.077,412.000,43.000,86.000,0.000,0.000,0.000,0.625,0.590,0.348,0.696,0.077,412.000,43.000,86.000,0.000,0.000,0.000: // measure 0
0000
0000
0000
0000
,  // measure 1
0000
0000
0000
0000
,  // measure 2
0000
0000
0000
0000
,  // measure 3
0000
0000
0000
0000
,  // measure 4
1000
0100
0010
0000
0001
0100
0010
1000
,  // measure 5
0010
0100
0002
0000
1003
0000
1001
0000
,  // measure 6
1000
0100
0010
0000
0001
0010
0100
1000
,  // measure 7
0001
0000
0100
0010
0000
0100
0010
0000
1000
0000
0100
0000
0010
0000
0001
0000
,  // measure 8
2000
3200
0000
0302
0000
0203
0000
2300
,  // measure 9
0000
3010
0010
0020
0000
0031
0001
0001
,  // measure 10
0020
2030
0000
3200
0000
0302
0000
0203
,  // measure 11
0000
1300
1000
2000
0000
3001
0001
0001
,  // measure 12
0200
0320
0000
0032
0000
0023
0000
2030
,  // measure 13
0000
3100
0100
0200
0000
0301
0001
0100
,  // measure 14
0020
0000
0031
0002
0000
0203
0000
2300
,  // measure 15
0000
3100
0100
0200
0000
0010
0310
0000
,  // measure 16
1000
0000
0010
0100
0000
0010
0100
0000
0001
0000
0010
0000
0100
0000
1000
0000
,  // measure 17
0002
0203
0000
0320
0000
2030
0000
0001
,  // measure 18
3001
1100
0101
1001
,  // measure 19
0002
0000
0010
0010
0000
0100
0103
0000
,  // measure 20
0020
1000
0000
0100
0000
0001
0030
1000
,  // measure 21
0001
0000
1001
0000
1000
0010
0000
0200
,  // measure 22
0000
0302
0000
0023
0000
0100
0130
0000
,  // measure 23
2000
0000
0010
0010
0000
0100
0000
3001
,  // measure 24
1000
0000
0010
0100
0000
0010
0100
0000
0001
0000
0010
0000
0100
0000
1000
0000
,  // measure 25
0002
0000
0103
0020
0000
2030
0000
0001
,  // measure 26
3001
1100
0101
1001
,  // measure 27
0002
0000
0010
0010
0000
0100
0103
0000
,  // measure 28
0020
0000
1000
1000
0000
0001
0030
0100
,  // measure 29
0001
0000
1001
0000
1000
0010
0000
0200
,  // measure 30
0000
0302
0000
0023
0000
0100
0130
0000
,  // measure 31
2000
0000
0010
0010
0000
0100
0000
3001
,  // measure 32
1000
0010
0001
0010
0200
0000
0301
0000
,  // measure 33
1000
0000
0010
0100
0000
0010
0100
0000
0001
0000
0010
0000
0100
0000
2000
0000
,  // measure 34
0000
3200
0000
0320
0000
0031
0000
0011
,  // measure 35
0000
0101
0000
1001
1000
0000
0010
1000
,  // measure 36
0002
0023
0000
0230
0000
1300
0000
1100
,  // measure 37
0000
1010
0000
1001
0001
0000
0100
0010
,  // measure 38
1000
0200
0000
0302
0000
0103
0000
0101
,  // measure 39
0000
1100
0000
1001
0001
0000
1000
0001
,  // measure 40
2000
3020
0000
0032
0000
0013
0000
1010
,  // measure 41
0000
0101
0000
0011
0000
1100
0000
1001
,  // measure 42
2000
0000
0000
0000
0010
0000
0000
0000
3100
0000
0000
0000
1000
0001
1000
0000
,  // measure 43
0100
0000
0110
0000
0010
0001
0100
0020
,  // measure 44
0000
2030
0000
3002
0000
0100
0100
0203
,  // measure 45
0000
0000
0010
0000
0010
0000
0320
0000
0000
0000
1030
0000
0001
1000
0001
1000
,  // measure 46
0001
0000
0100
0000
0010
1000
0010
0000
1000
0000
0100
0000
0010
0001
0010
0000
,  // measure 47
0100
2000
0000
3002
0000
0103
0010
0010
,  // measure 48
0100
0000
0000
0001
0000
0000
0010
0000
0000
0100
0000
0000
1000
0001
1000
0001
,  // measure 49
1000
0000
0010
0100
0000
0010
0100
0000
0001
0000
0010
0000
0100
0000
1000
0000
,  // measure 50
0002
0023
0000
2030
0000
3020
0000
0032
,  // measure 51
0000
0103
0100
0200
0000
1300
1000
1000
,  // measure 52
0200
0302
0000
0023
0000
2030
0000
3020
,  // measure 53
0000
0031
0001
0002
0000
1003
1000
1000
,  // measure 54
0020
0230
0000
2300
0000
3200
0000
0302
,  // measure 55
0000
0013
0010
0020
0000
1030
1000
0010
,  // measure 56
0002
0203
0000
2300
0000
3100
0000
0101
,  // measure 57
0000
1010
0000
0011
0000
1100
0000
2002
,  // measure 58
0000
0000
3003
0000
,  // measure 59
1000
0000
1000
0100
0000
0100
0010
0000
,  // measure 60
0010
0001
0000
0001
0100
0000
0100
0010
,  // measure 61
0000
0010
1000
0001
1000
0100
0000
0100
,  // measure 62
0010
0000
0010
0001
0000
0001
0100
0000
,  // measure 63
0100
0010
0000
0010
1000
0000
1000
0001
,  // measure 64
0000
0001
0100
0010
0100
0001
0000
0001
,  // measure 65
1000
0100
1000
0001
0000
0001
0100
0000
,  // measure 66
0100
0010
1000
0010
0100
0001
0100
0010
,  // measure 67
0000
1000
0001
0000
0101
0000
1100
0000
,  // measure 68
0001
0010
0001
1000
0000
1000
0010
0000
,  // measure 69
0010
0100
0001
0100
0010
1000
0010
0100
,  // measure 70
0000
0001
1000
0000
1010
0000
0011
0000
,  // measure 71
0001
0010
0100
1001
0000
0000
1000
0010
,  // measure 72
0100
1001
0000
0000
0001
0010
1000
0001
,  // measure 73
0100
1000
1100
0000
0101
0000
1001
0000
,  // measure 74
1000
0100
0010
1001
0000
0000
0001
0100
,  // measure 75
0010
1001
0000
0000
1000
0100
0001
1000
,  // measure 76
0010
0001
0011
0000
1010
0000
1001
0000
;

//---------------dance-single - ----------------
#NOTES:
     dance-single:
     :
     Challenge:
     18:
     0.969,0.901,0.243,0.445,1.000,753.000,30.000,55.000,0.000,0.000,0.000,0.969,0.901,0.243,0.445,1.000,753.000,30.000,55.000,0.000,0.000,0.000: // measure 0
0000
0000
0000
0000
,  // measure 1
0000
0000
0000
0000
,  // measure 2
0000
0000
0000
0000
,  // measure 3
0000
0000
0000
0000
,  // measure 4
1000
0000
0100
0010
0000
0100
0010
0000
0100
0010
0000
0100
0010
0000
0001
0000
,  // measure 5
1000
0000
0010
0100
0000
0010
0100
0000
0010
0100
0000
0010
0100
0000
0001
0000
,  // measure 6
1000
0000
0100
0010
0000
0100
0010
0000
0100
0010
0000
0100
0010
0000
0001
0000
,  // measure 7
1001
0000
0010
0100
0000
0010
0100
0000
0001
0100
0010
1000
0001
0010
0100
1000
,  // measure 8
0001
0000
0100
0001
0000
1000
0001
0000
0010
0001
0000
1000
0001
1000
0001
1000
,  // measure 9
0100
0000
1000
0010
0000
1000
0001
0000
1000
0100
0000
1000
0001
1000
0001
0010
,  // measure 10
0100
0000
1000
0001
0000
0010
0001
0000
1000
0001
0000
1000
0010
1000
0001
0100
,  // measure 11
0001
0000
0010
0100
0000
0010
0100
0000
1000
0000
0010
0100
0000
0010
0100
0000
,  // measure 12
1001
0000
0010
1000
0000
0001
1000
0000
0100
1000
0000
0001
1000
0001
1000
0001
,  // measure 13
0010
0000
0001
0100
0000
0001
1000
0000
0001
0010
0000
0001
1000
0001
1000
0100
,  // measure 14
0010
0000
0001
1000
0000
0100
1000
0000
0001
1000
0000
0001
0100
0001
1000
0010
,  // measure 15
1000
0000
0100
0010
0000
0100
0010
0000
0001
0000
0100
0010
0000
0100
0010
0000
,  // measure 16
1001
0000
0010
0100
0000
0010
0100
0000
0001
0100
0010
1000
0001
0010
0100
1000
,  // measure 17
0001
0000
1000
0100
1000
0000
0001
0000
0100
0010
0100
0010
2000
0000
3010
0000
,  // measure 18
1000
0000
0001
0010
0001
0000
1000
0000
0010
0100
0010
0100
0002
0000
1003
0000
,  // measure 19
0001
0000
0100
0001
0100
0000
0010
0000
1000
0100
1000
0100
0020
0000
0031
0000
,  // measure 20
1000
0000
0010
1000
0010
0000
0100
0000
0001
0010
0001
0010
0200
0000
1300
0000
,  // measure 21
1001
0000
0001
0100
0010
0000
0100
0000
0001
0010
0100
0010
0002
0000
0103
0000
,  // measure 22
0001
0000
1000
0010
0100
0000
0010
0000
1000
0100
0010
0100
2000
0000
3001
0000
,  // measure 23
1000
0000
0010
0100
0001
0000
1000
0000
0001
0010
0100
1000
0002
0000
1003
0000
,  // measure 24
0001
0000
0100
0010
0000
0100
0010
0000
1000
0010
0100
0001
1000
0100
0010
0001
,  // measure 25
1000
0000
0001
0010
0001
0000
0001
1000
0001
0000
0100
0001
0000
1000
0001
0000
,  // measure 26
1000
0000
1000
0010
1000
0000
1000
0001
1000
0000
0100
1000
0000
0001
1000
0000
,  // measure 27
0010
0000
0010
0100
0010
0000
0010
0001
0010
0000
0100
0010
0000
1000
0010
0000
,  // measure 28
0100
0000
0100
0010
0100
0000
0100
0001
0100
0000
0100
0010
0000
0100
1000
0000
,  // measure 29
1001
0000
1000
0010
0100
0000
0100
0001
0010
0000
0010
0100
0000
0100
1000
0000
,  // measure 30
0001
0000
0001
0100
0010
0000
0010
1000
0100
0000
0100
0010
0000
0010
0001
0000
,  // measure 31
1000
0000
0100
0001
0100
0000
1000
0100
1000
0000
0010
1000
0000
0010
0001
0000
,  // measure 32
0010
1000
0010
0000
0100
0001
0100
0000
2200
0000
3300
0000
0202
0000
0303
0000
,  // measure 33
1001
0000
0010
0100
0000
0010
0100
0000
0001
0100
0010
1000
0001
0010
0100
1000
,  // measure 34
0002
0203
2300
3100
0020
2030
3200
0302
,  // measure 35
0203
0320
0032
0103
0010
1000
0002
1003
,  // measure 36
0002
0023
2030
3010
0002
0103
2000
3200
,  // measure 37
0320
2030
3002
0023
0130
2000
3001
0010
,  // measure 38
0002
0103
2000
3100
0020
2030
3002
0203
,  // measure 39
2300
3200
0320
1030
0001
0010
0200
1300
,  // measure 40
0020
0031
0020
0130
0002
0023
0230
1300
,  // measure 41
1001
0000
0010
0100
0000
0010
0100
0000
0001
0100
0010
1000
0001
0010
0100
1000
,  // measure 42
0002
0000
0000
0000
0100
0000
0000
0000
0103
0000
0000
0000
0010
1000
0200
0000
,  // measure 43
0010
0300
0110
0000
1001
0001
0100
0010
,  // measure 44
0000
1010
0000
0102
0000
0103
0100
0200
,  // measure 45
0000
0000
0310
0000
0010
0000
0020
0000
0000
0000
1030
0001
1000
0100
1000
0001
,  // measure 46
1000
0010
0100
0010
1000
0100
0010
0100
1000
0001
0010
0001
1000
0010
1000
0001
,  // measure 47
0100
0101
0000
2100
0000
0000
0001
3001
,  // measure 48
1000
0010
1000
0001
0010
0001
1000
0100
1000
0001
0100
0001
1000
0010
0100
0001
,  // measure 49
1000
0000
0010
0100
0000
0010
0100
0000
0001
0100
0010
1000
0001
0010
0100
1000
,  // measure 50
0001
0000
0100
0001
0000
1000
0001
0000
0010
0001
0000
1000
0001
1000
0001
1000
,  // measure 51
0100
0000
1000
0010
0000
1000
0001
0000
1000
0100
0000
1000
0001
1000
0001
0010
,  // measure 52
0100
0000
1000
0001
0000
0010
0001
0000
1000
0001
0000
1000
0010
1000
0001
0100
,  // measure 53
0001
0000
0010
0100
0000
0010
0100
0000
1000
0000
0010
0100
0000
0010
0100
0000
,  // measure 54
1001
0000
0010
1000
0000
0001
1000
0000
0100
1000
0000
0001
1000
0001
1000
0001
,  // measure 55
0010
0000
0001
0100
0000
0001
1000
0000
0001
0010
0000
0001
1000
0001
1000
0100
,  // measure 56
0010
0000
0001
1000
0000
0100
1000
0000
0001
1000
0000
0001
0100
0001
1000
0010
,  // measure 57
1000
0000
0100
0010
0000
0100
0010
0000
0001
0000
0100
0010
0000
0100
0010
0000
,  // measure 58
2000
0000
3000
0000
,  // measure 59
1000
0100
0010
0011
0001
0100
0010
1000
,  // measure 60
0001
0101
0001
1000
0100
1000
0010
1010
,  // measure 61
0010
0100
0001
0101
1000
1100
1000
0100
,  // measure 62
0010
0001
0100
0101
0100
0010
1000
0001
,  // measure 63
0010
0110
0100
1000
0001
0010
0001
0101
,  // measure 64
0100
0010
1000
1100
0001
0101
0100
0010
,  // measure 65
1000
0010
1000
0010
1000
0000
0010
0000
0100
0000
0001
0000
0010
0001
0010
0001
,  // measure 66
0010
0000
0100
0000
1000
0000
0001
0000
0100
0010
0100
0010
0100
0000
0010
0000
,  // measure 67
1000
0000
0001
0000
1000
0100
0010
0100
1000
0000
0001
0100
0010
0100
0001
0000
,  // measure 68
1000
0010
1000
0010
1000
0000
0010
0000
0100
0000
0001
0000
0010
0001
0010
0001
,  // measure 69
0010
0000
0100
0000
1000
0000
0001
0000
0100
0010
0100
0010
0100
0000
0001
0000
,  // measure 70
1000
0000
0100
0000
0010
0001
0100
0001
0010
0000
0100
1000
0010
1000
0100
0000
,  // measure 71
1000
0010
0100
0001
0100
0010
1000
0000
0000
0000
0000
0000
0001
0010
0100
1000
,  // measure 72
0100
0010
0001
0000
0000
0000
0000
0000
1000
0010
0100
0001
0100
0010
1000
0001
,  // measure 73
1000
0100
0010
0001
0010
0000
0100
0000
1100
0000
0001
0000
0101
0000
1000
0000
,  // measure 74
0001
0100
1000
0100
0010
1000
0001
0000
0000
0000
0000
0000
1000
0100
0001
0100
,  // measure 75
0010
0001
1000
0000
0000
0000
0000
0000
0001
0100
1000
0100
0010
1000
0001
0010
,  // measure 76
1000
0010
0100
1000
0001
0000
0100
0000
1010
0000
0100
0000
0011
0000
0000
0000
;

//---------------dance-single - ----------------
#NOTES:
     dance-single:
     :
     Beginner:
     5:
     0.154,0.186,0.032,0.000,0.000,129.000,4.000,0.000,0.000,0.000,0.000,0.154,0.186,0.032,0.000,0.000,129.000,4.000,0.000,0.000,0.000,0.000: // measure 0
0000
0000
0000
0000
,  // measure 1
0000
0000
0000
0000
,  // measure 2
0000
0000
0000
0000
,  // measure 3
0000
0000
0000
0000
,  // measure 4
1000
0000
1000
0000
,  // measure 5
0100
0000
0100
0000
,  // measure 6
0010
0000
0010
0000
,  // measure 7
1001
0000
0000
0000
,  // measure 8
0001
0000
0001
0000
,  // measure 9
0001
0000
0001
0000
,  // measure 10
1000
0000
1000
0000
,  // measure 11
1000
0000
1000
0000
,  // measure 12
0100
0000
0100
0000
,  // measure 13
0100
0000
0100
0000
,  // measure 14
0010
0000
0010
0000
,  // measure 15
0010
0000
0010
0000
,  // measure 16
1001
0000
0000
0000
,  // measure 17
1000
0000
0000
0000
,  // measure 18
0010
0000
0000
0000
,  // measure 19
0100
0000
0000
0000
,  // measure 20
0001
0000
0001
0000
,  // measure 21
0001
0000
0000
0000
,  // measure 22
0010
0000
0000
0000
,  // measure 23
0100
0000
0100
0000
,  // measure 24
0100
0000
0000
0000
,  // measure 25
1000
0000
0000
0000
,  // measure 26
0001
0000
0000
0000
,  // measure 27
0100
0000
0000
0000
,  // measure 28
0010
0000
0010
0000
,  // measure 29
0010
0000
0000
0000
,  // measure 30
1000
0000
0000
0000
,  // measure 31
0001
0000
0001
0000
,  // measure 32
0001
0000
0000
0000
,  // measure 33
1001
0000
0000
0000
,  // measure 34
1000
0000
1000
0000
,  // measure 35
1000
0000
1000
0000
,  // measure 36
0010
0000
0010
0000
,  // measure 37
0010
0000
0010
0000
,  // measure 38
0100
0000
0100
0000
,  // measure 39
0100
0000
0100
0000
,  // measure 40
0001
0000
0001
0000
,  // measure 41
0001
0000
0001
0000
,  // measure 42
1000
0000
0000
0000
,  // measure 43
0010
0000
0000
0000
,  // measure 44
0100
0000
0000
0000
,  // measure 45
0001
0000
0001
0000
,  // measure 46
0001
0000
0000
0000
,  // measure 47
0010
0000
0000
0000
,  // measure 48
0100
0000
0100
0000
,  // measure 49
1000
0000
1000
0000
,  // measure 50
0001
0000
0001
0000
,  // measure 51
0100
0000
0100
0000
,  // measure 52
0010
0000
0010
0000
,  // measure 53
1000
0000
1000
0000
,  // measure 54
0100
0000
0100
0000
,  // measure 55
0010
0000
0010
0000
,  // measure 56
0001
0000
0001
0000
,  // measure 57
1000
0000
1000
0000
,  // measure 58
1001
0000
0000
0000
,  // measure 59
0001
0000
0000
0100
,  // measure 60
0000
0000
0010
0000
,  // measure 61
0000
1000
0000
0000
,  // measure 62
0100
0000
0000
0010
,  // measure 63
0000
0000
0001
0000
,  // measure 64
0000
0100
0000
0000
,  // measure 65
0010
0000
0000
0010
0000
0000
0010
0000
,  // measure 66
0000
0010
0000
0000
0010
0000
0000
0010
,  // measure 67
0000
0010
0000
0000
,  // measure 68
0100
0000
0000
0100
0000
0000
0100
0000
,  // measure 69
0000
0100
0000
0000
0100
0000
0000
0100
,  // measure 70
0000
0100
0000
0000
,  // measure 71
0010
0000
0000
0010
0000
0000
1000
0000
,  // measure 72
0000
1000
0000
0000
0100
0000
0000
0100
,  // measure 73
0000
0010
0010
0010
,  // measure 74
0001
0000
0000
0001
0000
0000
0100
0000
,  // measure 75
0000
0100
0000
0000
0010
0000
0000
0010
,  // measure 76
0000
1000
1000
1000
;

//---------------dance-single - ----------------
#NOTES:
     dance-single:
     :
     Easy:
     8:
     0.370,0.373,0.332,0.138,0.000,262.000,41.000,17.000,0.000,0.000,0.000,0.370,0.373,0.332,0.138,0.000,262.000,41.000,17.000,0.000,0.000,0.000: // measure 0
0000
0000
0000
0000
,  // measure 1
0000
0000
0000
0000
,  // measure 2
0000
0000
0000
0000
,  // measure 3
0000
0000
0000
0000
,  // measure 4
1000
0100
0010
0001
,  // measure 5
1000
0010
0100
0001
,  // measure 6
1000
0100
0001
0100
,  // measure 7
2002
0000
0000
3003
,  // measure 8
1000
0010
0100
0001
,  // measure 9
1000
0010
0100
0101
,  // measure 10
0001
0010
0100
1000
,  // measure 11
0001
0010
0100
1100
,  // measure 12
1000
0010
0001
0010
,  // measure 13
0100
0001
1000
1001
,  // measure 14
0001
0100
1000
0100
,  // measure 15
0010
1000
0001
1001
,  // measure 16
0220
0000
0000
0330
,  // measure 17
0010
1000
0100
1000
,  // measure 18
0001
0010
0001
0100
,  // measure 19
0010
1000
0010
0100
,  // measure 20
1000
0100
0010
1001
,  // measure 21
0100
0001
0010
0001
,  // measure 22
1000
0100
1000
0010
,  // measure 23
0100
0001
0100
0010
,  // measure 24
0001
0010
0100
1001
,  // measure 25
1000
0100
0001
0100
,  // measure 26
0010
0001
1000
1001
,  // measure 27
1000
0010
0001
0010
,  // measure 28
0100
0001
1000
1001
,  // measure 29
0110
0010
1000
0100
,  // measure 30
0001
0100
0010
0011
,  // measure 31
0001
0100
1000
0100
,  // measure 32
0010
1000
0001
1001
,  // measure 33
0220
0000
0000
0330
,  // measure 34
0010
1000
0100
1000
,  // measure 35
0010
1000
0001
1001
,  // measure 36
0001
0010
0001
0100
,  // measure 37
0001
1000
0001
1001
,  // measure 38
1000
0010
0001
0010
,  // measure 39
0100
0001
1000
1001
,  // measure 40
0001
0100
1000
0100
,  // measure 41
0110
0110
1001
1001
,  // measure 42
2000
3000
0020
0030
,  // measure 43
0200
0300
0002
0003
,  // measure 44
2000
3000
0200
0300
,  // measure 45
0020
0030
0001
0001
,  // measure 46
1000
0010
0001
0010
,  // measure 47
0100
0101
2002
3003
,  // measure 48
1000
0100
0010
0001
,  // measure 49
1100
0011
0101
1010
,  // measure 50
1001
0100
0010
1000
,  // measure 51
0001
0100
0010
1010
,  // measure 52
1000
0100
0010
0001
,  // measure 53
1000
0100
0010
0011
,  // measure 54
0001
0100
1000
0100
,  // measure 55
0010
1000
0001
1001
,  // measure 56
1000
0010
0001
0010
,  // measure 57
0100
0001
1000
1001
,  // measure 58
0220
0000
0330
0000
,  // measure 59
0010
0000
0000
1000
0000
0000
0100
0000
,  // measure 60
0000
1000
0000
0000
0010
0000
0000
0100
,  // measure 61
0000
0000
0001
0000
0000
0101
0000
0000
,  // measure 62
0001
0000
0000
0010
0000
0000
0100
0000
,  // measure 63
0000
1000
0000
0000
0001
0000
0000
0100
,  // measure 64
0000
0000
0010
0000
0000
1010
0000
0000
,  // measure 65
1000
0000
1000
0001
0000
0000
0100
0000
,  // measure 66
0000
1010
0000
0000
1000
0000
1000
0100
,  // measure 67
0000
0000
0010
0000
0000
0011
0000
0000
,  // measure 68
0001
0000
0001
0100
0000
0000
0010
0000
,  // measure 69
0000
1010
0000
0000
1000
0000
1000
0010
,  // measure 70
0000
0000
0100
0000
0000
0101
0000
0000
,  // measure 71
0001
0000
0001
1000
0000
0000
1000
0000
,  // measure 72
1000
0001
0000
0000
0001
0000
0001
0100
,  // measure 73
0000
0100
0010
0000
1000
0000
1001
0000
,  // measure 74
1000
0000
1000
0001
0000
0000
0001
0000
,  // measure 75
0001
1000
0000
0000
1000
0000
1000
0010
,  // measure 76
0000
0010
0100
0000
0001
0000
1001
0000
;

//---------------dance-single - ----------------
#NOTES:
     dance-single:
     :
     Medium:
     10:
     0.462,0.435,0.235,0.146,0.000,353.000,29.000,18.000,0.000,0.000,0.000,0.462,0.435,0.235,0.146,0.000,353.000,29.000,18.000,0.000,0.000,0.000: // measure 0
0000
0000
0000
0000
,  // measure 1
0000
0000
0000
0000
,  // measure 2
0000
0000
0000
0000
,  // measure 3
0000
0000
0000
0000
,  // measure 4
1000
0000
0100
0000
0010
0001
0010
0001
,  // measure 5
0100
0000
0010
0000
1000
0010
1000
0010
,  // measure 6
0100
0000
0001
0000
0010
0100
0010
0100
,  // measure 7
2002
0000
0000
3003
,  // measure 8
1000
0010
0000
0100
0000
0001
0000
0100
,  // measure 9
0000
0010
1000
0001
0000
0100
0100
0000
,  // measure 10
0001
0010
0000
0100
0000
1000
0000
0100
,  // measure 11
0000
0010
0001
1000
0000
0100
0100
0000
,  // measure 12
1000
0010
0000
0001
0000
0010
0000
0100
,  // measure 13
0000
0001
1000
0001
0000
0100
0100
0000
,  // measure 14
0001
0000
0010
1000
0000
0010
0000
0100
,  // measure 15
0000
1000
0001
1000
0000
0010
0010
0000
,  // measure 16
2002
0000
0000
3003
,  // measure 17
1000
0010
1000
0000
0010
0100
0010
0000
,  // measure 18
0100
0001
0100
0000
0001
0000
0011
0000
,  // measure 19
0010
0100
0010
0000
0100
1000
0100
0000
,  // measure 20
1000
0001
1000
0000
0001
0000
0101
0000
,  // measure 21
0100
0010
0100
0000
0010
1000
0010
0000
,  // measure 22
1000
0001
1000
0000
0001
0000
0101
0000
,  // measure 23
0001
0010
0001
0000
1000
0100
1000
0000
,  // measure 24
0011
1100
0101
1010
,  // measure 25
1000
0100
0010
0000
0100
0010
0001
0000
,  // measure 26
0010
0001
0100
0000
0001
0000
1001
0000
,  // measure 27
0001
0100
0010
0000
0100
0010
1000
0000
,  // measure 28
0010
1000
0100
0000
1000
0000
1001
0000
,  // measure 29
0001
0010
0100
0000
0010
0100
1000
0000
,  // measure 30
0100
1000
0001
0000
0100
0000
1001
0000
,  // measure 31
0001
0010
1000
0000
0001
0100
1000
0000
,  // measure 32
0001
1000
0001
1000
0020
0000
0130
0000
,  // measure 33
2002
0000
0000
3003
,  // measure 34
1000
0010
1000
0000
0001
0010
0001
0010
,  // measure 35
0100
1000
0001
1001
,  // measure 36
0001
0100
0001
0000
1000
0010
1000
0010
,  // measure 37
0100
0000
0001
1000
0000
1000
0001
0000
,  // measure 38
1000
0010
1000
0000
0001
0100
0001
0100
,  // measure 39
0010
1000
0001
1001
,  // measure 40
1000
0100
0010
0000
0001
0010
0100
1000
,  // measure 41
2002
0000
0000
3003
,  // measure 42
2000
0001
0100
3010
,  // measure 43
0002
0100
0010
1003
,  // measure 44
0020
0100
1000
0031
,  // measure 45
0200
1000
0001
0310
,  // measure 46
0001
0100
0010
0000
1000
0010
0100
0000
,  // measure 47
0101
1100
2001
3100
,  // measure 48
1000
0010
0100
0001
1000
0100
0010
0001
,  // measure 49
2002
0000
0000
3003
,  // measure 50
1000
0010
0000
0100
0000
0001
0000
0100
,  // measure 51
0000
0010
1000
0001
0000
0100
0100
0000
,  // measure 52
0001
0010
0000
0100
0000
1000
0000
0100
,  // measure 53
0000
0010
0001
1000
0000
0100
0100
0000
,  // measure 54
1000
0010
0000
0001
0000
0010
0000
0100
,  // measure 55
0000
0001
1000
0001
0000
0100
0100
0000
,  // measure 56
0001
0000
0010
1000
0000
0010
0000
0100
,  // measure 57
0000
1000
0001
1000
0000
0010
0010
0000
,  // measure 58
2002
0000
0000
0000
0000
0000
0000
0000
0000
0000
0000
0000
0000
0000
0000
0000
0000
0000
0000
0000
0000
0000
0000
0000
0000
0000
0000
0000
0000
0000
0000
0000
0000
0000
0000
0000
0000
0000
0000
0000
0000
0000
0000
0000
0000
0000
0000
0000
0000
0000
0000
0000
0000
0000
0000
0000
0000
0000
0000
0000
0000
0000
0000
0000
0000
0000
0000
0000
0000
0000
0000
0000
0000
0000
0000
0000
0000
0000
0000
0000
0000
0000
0000
0000
0000
0000
0000
0000
0000
0000
0000
0000
0000
0000
0000
0000
0000
3003
0000
0000
0000
0000
0000
0000
0000
0000
0000
0000
0000
0000
0000
0000
0000
0000
0000
0000
0000
0000
0000
0000
0000
0000
0000
0000
0000
0000
0000
0000
0000
0000
0000
0000
0000
0000
0000
0000
0000
0000
0000
0000
0000
0000
0000
0000
0000
0000
0000
0000
0000
0000
0000
0000
0000
0000
0000
0000
0000
0000
0000
0000
0000
0000
0000
0000
0000
0000
0000
0000
0000
0000
0000
0000
0000
0000
0000
0000
0000
0000
0000
0000
0000
0000
0000
0000
0000
0000
0000
0000
0000
0000
0000
0000
,  // measure 59
1000
0000
1000
0100
0000
0100
0010
0000
,  // measure 60
0010
0001
0000
0001
0100
0000
0100
0010
,  // measure 61
0000
0010
1000
0000
0000
1001
0000
0000
,  // measure 62
1000
0000
1000
0100
0000
0100
0010
0000
,  // measure 63
0010
0001
0000
0001
0100
0000
0100
0010
,  // measure 64
0000
0010
1000
0000
0000
1001
0000
0000
,  // measure 65
1000
0010
1000
0010
0000
0000
0100
0000
,  // measure 66
0000
0101
0000
0000
0001
0010
0001
0010
,  // measure 67
0000
0000
0100
0000
0000
1100
0000
0000
,  // measure 68
1000
0010
0100
0001
0000
0000
1000
0000
,  // measure 69
0000
1001
0000
0000
0001
0010
0100
1000
,  // measure 70
0000
0000
0001
0000
0000
1001
0000
0000
,  // measure 71
1000
0010
0100
0001
0000
0000
1000
0100
,  // measure 72
0010
0001
0000
0000
1000
0010
0100
0001
,  // measure 73
0100
0010
1000
0000
0001
0000
1001
0000
,  // measure 74
0001
0010
0100
1000
0000
0000
0001
0100
,  // measure 75
0010
1000
0000
0000
0001
0010
0100
1000
,  // measure 76
0100
0010
0001
0000
1000
0000
1001
0000
;
