#TITLE:Lightning Dust -DanceDanceRevolution mix-;
#SUBTITLE:;
#ARTIST:fractilx;
#TITLETRANSLIT:;
#SUBTITLETRANSLIT:;
#ARTISTTRANSLIT:;
#GENRE:Trance;
#CREDIT:;
#BANNER:Lightning Dust -DanceDanceRevolution mix-.png;
#BACKGROUND:Lightning Dust -DanceDanceRevolution mix--bg.png;
#LYRICSPATH:;
#CDTITLE:;
#MUSIC:Lightning Dust -DanceDanceRevolution mix-.mp3;
#OFFSET:0.000;
#SAMPLESTART:63.980;
#SAMPLELENGTH:15.000;
#SELECTABLE:YES;
#BPMS:0.000=135.000
;
#STOPS:
;
#BGCHANGES:;
#KEYSOUNDS:;
#ATTACKS:;

//---------------dance-single - ----------------
#NOTES:
     dance-single:
     :
     Easy:
     5:
     0.214,0.210,0.079,0.018,0.000,160.000,9.000,2.000,0.000,0.000,0.000,0.214,0.210,0.079,0.018,0.000,160.000,9.000,2.000,0.000,0.000,0.000:
0000
0000
0000
0000
,
0000
0000
0000
0000
,
0000
0000
0000
0000
,
0000
0000
0000
0000
,
0100
1000
0100
0000
,
1000
0100
0000
0100
,
0010
0100
0010
0000
,
0100
0010
0000
0010
,
0001
0000
0001
0000
,
1000
0000
1000
0000
,
0010
0000
0010
0000
,
0100
0000
0100
0000
,
0001
0100
0001
0000
,
0100
0001
0000
0001
,
1000
0001
1000
0000
,
0001
1000
0000
1000
,
0100
0000
0100
0000
,
0010
0000
0010
0000
,
0001
0000
0001
0000
,
1000
0000
1000
0000
,
0000
0010
0010
0000
,
0010
0010
1000
0001
,
0000
0100
0100
0000
,
0100
0100
0001
1000
,
0000
0100
0100
0000
,
0100
0100
1000
0001
,
0000
0010
0010
0000
,
0010
0010
0001
1000
,
0100
1000
0100
0000
,
1000
0100
0000
0100
,
0010
0100
0010
0000
,
0001
0010
0100
1000
,
0010
0000
1000
0000
,
0001
0000
0010
0000
,
0000
0100
0100
0000
,
1000
0100
0010
0001
,
0100
0001
0100
0000
,
0001
1000
0000
0001
,
1000
0010
1000
0000
,
0010
0100
0001
1000
,
0100
0000
0100
0010
,
0100
1000
0010
0100
,
0000
0001
0001
0000
,
1000
0010
0100
0001
,
0000
1000
0100
0000
,
0010
0100
0000
1000
,
0100
0001
0100
0000
,
1000
0010
0100
0001
,
1000
0000
1000
0001
,
0010
0100
0010
0000
,
0000
0100
0010
0000
,
0001
0010
0100
1000
,
1001
0001
0100
0000
,
1001
0001
0010
0000
,
0110
0100
1000
0000
,
0110
0100
0001
0000
,
0101
0100
1000
0000
,
0101
0100
0010
0000
,
0110
0010
0001
0000
,
0220
0000
0000
0330
,
1001
0000
0000
0000
;

//---------------dance-single - ----------------
#NOTES:
     dance-single:
     :
     Beginner:
     2:
     0.089,0.105,0.018,0.140,0.000,53.000,2.000,16.000,0.000,0.000,0.000,0.089,0.105,0.018,0.140,0.000,53.000,2.000,16.000,0.000,0.000,0.000:
0000
0000
0000
0000
,
0000
0000
0000
0000
,
0000
0000
0000
0000
,
0000
0000
0000
0000
,
0010
0000
0000
0000
,
0010
0000
0000
0000
,
1000
0000
0000
0000
,
1000
0000
0000
0000
,
0002
0000
0000
0000
,
0023
0000
0000
0000
,
0230
0000
0000
0000
,
2300
0000
0000
0000
,
3001
0000
0000
0000
,
0001
0000
0000
0000
,
0100
0000
0000
0000
,
0100
0000
0000
0000
,
0002
0000
0000
0000
,
0203
0000
0000
0000
,
0320
0000
0000
0000
,
2030
0000
0000
0000
,
3000
0000
0001
0000
,
0000
0000
0001
0000
0000
0000
0000
0001
,
0000
0000
1000
0000
,
0000
1000
0000
1000
,
0000
0000
0100
0000
,
0000
0000
0100
0000
0000
0000
0000
0100
,
0000
0000
0010
0000
,
0000
0010
0000
0010
,
0002
0000
0000
0000
,
0000
0000
0000
0000
,
0203
0000
0000
0000
,
0000
0000
0000
0000
,
0320
0000
0000
0000
,
0000
0000
0000
0000
,
2030
0000
0000
0000
,
0001
0000
0000
0000
,
3001
0000
0000
0000
,
1000
0000
0000
0000
,
0002
0000
0000
0000
,
0003
0000
0000
0000
,
0010
0000
0000
0000
,
0100
0000
0000
0000
,
0020
0000
0000
0000
,
0030
0000
0000
0000
,
0001
0000
0000
0000
,
0100
0000
0000
0000
,
0002
0000
0000
0000
,
0003
0000
0000
0000
,
1000
0000
0000
0000
,
0010
0000
0000
0000
,
2000
0000
0000
0000
,
3000
0000
0000
0000
,
1001
0000
0000
0000
,
1000
0000
0000
0000
,
0100
0000
0000
0000
,
0001
0000
0000
0000
,
0000
0000
0000
0000
,
1000
0000
0000
0000
,
0010
0000
0000
0000
,
0001
0000
0000
0000
,
1001
0000
0000
0000
;

//---------------dance-single - ----------------
#NOTES:
     dance-single:
     :
     Medium:
     6:
     0.348,0.368,0.018,0.070,0.000,268.000,2.000,8.000,0.000,0.000,0.000,0.348,0.368,0.018,0.070,0.000,268.000,2.000,8.000,0.000,0.000,0.000:
0000
0000
0000
0000
,
0000
0000
0000
0000
,
0000
0000
0000
0000
,
0000
0000
0000
0000
,
0000
1000
0100
1000
0010
0100
0000
0100
,
0001
0010
0001
0100
0000
0001
0010
0001
,
0000
0010
0100
0010
0001
0100
0001
1000
,
0000
0100
0000
0010
0000
0100
1000
0001
,
0100
0000
0010
0100
0000
0010
0000
1000
,
0000
1000
0000
0001
0000
0000
0011
0000
,
0010
0000
0100
0010
0000
0001
0000
1000
,
0000
0010
0000
0010
,
0000
0100
0001
0100
0010
1000
0000
0100
,
0010
0001
0010
0100
0000
0010
0001
0010
,
0000
0001
0100
0010
0100
0001
1000
0001
,
0000
0010
0000
0100
0000
0010
0001
0100
,
0010
0000
0100
0010
0000
1000
0000
0001
,
0000
0001
0000
1000
0000
0000
0100
0000
,
0010
0000
0100
0010
0000
0001
0000
1000
,
0000
0010
0000
0010
,
0000
0100
0100
0000
0001
0000
0000
0100
,
0100
0000
1000
0000
0000
0100
0100
0010
,
0000
0010
0010
0000
1000
0000
0000
0010
,
0010
0001
0020
0130
,
0000
0100
0100
0000
1000
0000
0000
0100
,
0100
0000
0001
0000
0000
0100
0100
0010
,
0000
0010
0010
0000
0001
0000
0000
0010
,
0010
1000
0020
0130
,
0000
0010
1000
0001
0010
0001
0000
0010
,
0001
1000
0100
1000
0000
0100
0010
0100
,
0000
0010
0010
0000
0001
0000
0000
0010
,
0010
1000
0020
0130
,
0010
0000
0100
0010
0000
0100
0000
1000
,
0000
1000
0000
0001
0000
0100
0100
0010
,
0100
0001
0100
0000
0001
1000
0001
0000
,
1000
0010
1000
0010
0100
0001
0100
0000
,
0001
0100
0010
0100
0001
1000
0000
1000
,
0100
0010
0100
1000
0000
1000
0010
0001
,
0000
0010
0010
0000
1000
0000
0000
0010
,
0010
0001
0020
0130
,
0010
0000
1000
0010
0000
1000
0000
0001
,
0000
0010
0000
0100
0000
0010
0010
0100
,
0000
0100
0100
0000
1000
0000
0000
0100
,
0100
0001
0200
0310
,
0100
1000
0010
1000
0100
0010
0000
0100
,
0010
0001
0100
0001
0000
0010
0100
0010
,
0000
0010
0010
0000
0001
0000
0000
0010
,
0010
1000
0020
0130
,
0010
0000
0001
0010
0000
0001
0000
1000
,
0000
1000
0000
0001
0000
0100
0001
0100
,
0000
0010
0010
0000
1000
0000
0000
0010
,
0010
0001
0020
0130
,
0110
0010
0010
0010
,
1000
1000
1000
1000
,
0001
0001
0001
0001
,
0010
0010
0010
0010
,
0100
0100
0100
0100
,
1000
1000
1000
1000
,
0001
0001
0001
0001
,
0200
0000
0000
0000
,
0310
0000
0000
0000
;

//---------------dance-single - ----------------
#NOTES:
     dance-single:
     :
     Hard:
     10:
     0.524,0.579,0.570,0.395,0.035,308.000,65.000,45.000,0.000,0.000,0.000,0.524,0.579,0.570,0.395,0.035,308.000,65.000,45.000,0.000,0.000,0.000: // measure 0
0000
0000
0000
0000
,  // measure 1
0000
0000
0000
0000
,  // measure 2
0000
0000
0000
0000
,  // measure 3
0000
0000
0000
0000
,  // measure 4
1000
0100
0010
0001
0100
0001
0000
0100
,  // measure 5
0001
0010
0100
0010
0000
0100
1000
0100
,  // measure 6
0000
1000
0001
0100
0010
1000
0001
1001
,  // measure 7
0000
1000
0000
1100
0000
0100
0010
0100
,  // measure 8
0010
0000
0001
0010
0000
0011
0000
1001
,  // measure 9
0000
1010
0000
0110
0000
0100
0001
0000
,  // measure 10
0010
0000
0100
0010
0000
0011
0000
0101
,  // measure 11
0000
0100
0010
0000
0010
1000
0010
0000
,  // measure 12
1000
0001
0010
0100
0001
0100
0000
1000
,  // measure 13
0010
0100
1000
0100
0000
0100
0001
0010
,  // measure 14
0000
0100
0010
0001
0100
0010
1000
1001
,  // measure 15
0000
0011
0000
1010
0000
0010
0100
1000
,  // measure 16
0001
0000
0100
0101
0000
1100
0000
0011
,  // measure 17
0000
1010
0000
1001
0000
1000
0010
0000
,  // measure 18
0100
0000
0010
1000
0000
1001
0000
0110
,  // measure 19
0000
0010
0001
0000
0100
0001
0100
0000
,  // measure 20
0010
0200
0310
0000
0110
0000
0010
2000
,  // measure 21
3010
0000
1010
0000
1000
0002
1003
0002
,  // measure 22
0000
0013
0001
0000
0011
0000
0010
0200
,  // measure 23
0310
0110
0200
2300
,  // measure 24
0000
3001
1000
0000
1001
0000
0001
0200
,  // measure 25
0301
0000
0101
0000
0100
0020
0130
0020
,  // measure 26
0000
1030
0010
0000
1010
0000
1000
0002
,  // measure 27
1003
1001
0002
0023
,  // measure 28
0000
0130
0020
0130
2000
3001
1000
0200
,  // measure 29
0310
0100
2000
3001
1000
0010
0100
0020
,  // measure 30
0000
0130
0010
0000
0110
0000
0010
2000
,  // measure 31
3010
1010
2000
3002
,  // measure 32
0013
0002
0013
0100
0020
0031
0010
0200
,  // measure 33
1300
0100
1100
1000
0000
0002
1003
0002
,  // measure 34
0000
0103
0001
0000
1001
0000
1000
0100
,  // measure 35
1000
0100
1000
0100
1000
0100
1000
0100
0010
0001
0010
0001
0010
0001
0010
0001
,  // measure 36
0100
0001
0010
0100
0010
0001
0000
0100
,  // measure 37
0010
1000
0100
0001
0000
0200
1300
0200
,  // measure 38
0000
0310
0100
0000
0110
0000
0010
0001
,  // measure 39
0010
0210
2300
3002
,  // measure 40
0103
0000
0001
0010
0010
0100
0000
0110
,  // measure 41
0000
0010
0100
1000
0000
1000
0001
0200
,  // measure 42
0000
0310
0100
0000
0110
0000
0010
2000
,  // measure 43
3010
1010
2000
3002
,  // measure 44
0013
0001
0100
0010
0001
1000
0000
0100
,  // measure 45
0010
1000
0001
0010
0000
0100
0010
0200
,  // measure 46
0000
1300
0100
0000
0110
0000
0010
0001
,  // measure 47
0100
0110
0020
2030
,  // measure 48
3001
0000
1001
1000
0010
0100
0000
0110
,  // measure 49
0000
1010
0000
1001
0000
0001
0010
0002
,  // measure 50
0000
0103
0001
0000
1001
0000
1000
0100
,  // measure 51
2000
3200
0320
0032
,  // measure 52
0103
0011
1010
1001
,  // measure 53
0001
0101
1100
1010
,  // measure 54
0010
0110
0011
1100
,  // measure 55
0100
0110
1010
0101
,  // measure 56
0001
1100
0101
1010
,  // measure 57
0010
0110
1100
0101
,  // measure 58
0100
0110
0011
1010
,  // measure 59
0220
0000
0000
0000
0000
0000
0000
0330
,  // measure 60
1001
0000
0000
0000
;
