#VERSION:0.81;
#TITLE:Lesson Learnt;
#SUBTITLE:;
#ARTIST:StormWolf;
#TITLETRANSLIT:;
#SUBTITLETRANSLIT:;
#ARTISTTRANSLIT:;
#GENRE:Eurobeat;
#ORIGIN:;
#CREDIT:;
#BANNER:Lesson Learnt.png;
#BACKGROUND:Lesson Learnt-bg.png;
#PREVIEWVID:;
#JACKET:Lesson Learnt-jacket.png;
#CDIMAGE:;
#DISCIMAGE:;
#LYRICSPATH:;
#CDTITLE:;
#MUSIC:Lesson Learnt.mp3;
#OFFSET:-0.063141;
#SAMPLESTART:35.139999;
#SAMPLELENGTH:15.000000;
#SELECTABLE:YES;
#BPMS:0.000=164.000,
352.000=82.000,
364.000=41.000,
366.000=164.000;
#STOPS:;
#DELAYS:;
#WARPS:;
#TIMESIGNATURES:0.000=4=4;
#TICKCOUNTS:0.000=4;
#COMBOS:0.000=1;
#SPEEDS:0.000=1.000=0.000=0;
#SCROLLS:0.000=1.000;
#FAKES:;
#LABELS:0.000=Song Start;
#BGCHANGES:;
#KEYSOUNDS:;
#ATTACKS:
;

//---------------dance-single - ----------------
#NOTEDATA:;
#CHARTNAME:;
#STEPSTYPE:dance-single;
#DESCRIPTION:;
#CHARTSTYLE:;
#DIFFICULTY:Medium;
#METER:11;
#RADARVALUES:0.627506,0.507952,0.208177,0.090210,0.152663,590.000000,30.000000,13.000000,0.000000,0.000000,0.000000,0.000000,0.000000,0.627506,0.507952,0.208177,0.090210,0.152663,590.000000,30.000000,13.000000,0.000000,0.000000,0.000000,0.000000,0.000000;
#CREDIT:;
#NOTES:
0000
0000
0000
0000
0010
1000
0001
0010
,
0100
0100
1000
0100
0010
0001
0100
0000
,
0001
0000
1000
0001
1000
0000
0100
0010
,
0100
1000
0010
0100
0010
0100
0001
0010
,
0100
0000
1000
0100
1000
0010
0100
0010
,
0001
0000
0000
0010
0000
0000
1000
0000
0100
0000
0000
0010
0000
0000
0001
0000
,
2000
0000
0000
3020
0000
0000
1030
0000
,
1010
0000
0000
2000
0000
0000
3001
0000
,
0010
0000
0100
0010
0100
1000
0010
0100
,
0001
0000
0100
0001
1000
0100
0010
0001
,
0100
0000
0010
0100
0010
0000
1000
0010
,
1000
1000
0001
0010
0001
0100
0010
1000
,
0100
0010
0000
0010
0000
0110
0000
0100
,
1000
0001
0000
0001
0000
1001
0000
1000
,
0010
0100
0010
0100
0010
0100
0010
1000
,
0001
0000
0000
0000
0011
0000
0000
0010
0000
0000
0100
0000
1000
0000
0010
0000
,
0100
0000
0000
0100
0000
0000
0010
0000
1000
0000
0001
0000
0100
0000
0001
0000
,
1000
0100
0010
0100
0010
0100
1000
0001
,
1000
0000
0000
0001
0010
0100
1000
0010
,
1000
1000
0100
0010
0100
1000
0010
0100
,
0001
0000
0010
0001
0100
0010
1000
0001
,
0010
0000
0000
0010
0000
0000
0100
0000
1000
0000
0010
0000
0100
0000
0000
0101
,
0000
0000
0001
0010
0100
1000
0001
0010
,
0000
0100
0000
0000
0100
0000
0000
0110
0000
0000
0010
0000
0001
0000
0100
0000
,
0010
0000
1000
0010
1000
0001
0010
0001
,
0100
0001
0100
0001
1000
0100
1000
0100
,
0110
0000
0000
0010
0001
0100
0010
1000
,
0001
1000
0100
0010
0100
1000
0001
0100
,
0010
0000
1000
0010
1000
0100
0010
0001
,
0100
0000
0000
0100
0000
0000
0010
0000
1000
0000
0001
0000
0010
0000
0000
0110
,
0000
0000
0100
1000
0100
0001
0100
1000
,
0010
0000
0000
0010
0000
0000
0011
0000
0000
0000
0010
0000
1000
0000
0100
0000
,
0010
0000
0001
0010
0001
0010
0100
0010
,
0100
1000
0010
1000
0010
0100
0010
0100
,
0001
0000
1000
0001
0010
0000
0001
1000
,
0010
0100
0010
0100
0001
0100
0001
0010
,
0100
0000
1000
0100
0010
0100
1000
0100
,
1000
0000
0000
0001
0000
0000
0100
0000
0010
0000
0000
0100
0000
0000
0010
0000
,
1000
0001
0000
0000
1000
0001
0000
0000
1000
0001
0000
0000
1000
0001
0000
0000
,
0010
0100
1000
0010
0100
0001
0010
0100
,
0010
0000
0001
0010
0001
0010
0100
0010
,
0100
0010
0100
1000
0001
0100
0010
1000
,
0001
0000
1000
0001
0010
0000
0001
1000
,
0100
1000
0010
0100
0001
0010
0100
1000
,
0001
0000
1000
0010
1000
0010
0100
0010
,
0100
0000
0000
0001
0000
0000
1000
0000
0010
0000
0000
1000
0000
0000
0001
0000
,
1000
0001
0000
0000
1000
0001
0000
0000
1000
0001
0000
0000
1000
0001
0000
0000
,
0010
0100
0000
0000
0010
0000
0100
0000
1000
0000
0010
0000
0100
0000
0001
0000
,
0100
0000
0001
0010
0100
1000
0010
0100
,
0010
0010
0100
0001
1000
0100
1000
0010
,
0110
0000
0000
0100
0001
0100
0010
1000
,
0001
1000
0100
1000
0001
0010
0001
0100
,
0010
0000
1000
0010
0100
0001
1000
0100
,
0010
0000
0000
0010
0000
0000
0001
0000
0010
0000
0100
0000
1000
0000
0000
1001
,
0000
0000
1000
0100
0001
0100
1000
0100
,
0000
0010
0000
0000
0010
0000
0000
0011
0000
0000
0010
0000
0100
0000
1000
0000
,
0001
0000
0100
0001
0100
0010
1000
0100
,
0001
0001
0100
1000
0010
0001
1000
0100
,
0101
0000
0000
0001
0100
0010
1000
0001
,
0010
0100
0010
0100
1000
0010
0100
0001
,
1000
0000
0001
0010
0001
0100
0010
1000
,
0001
0000
0000
1000
0000
0000
0100
0000
0010
0000
0100
0000
1000
0000
0000
1010
,
0000
0000
0010
1000
0010
0001
0010
0100
,
0010
0000
0000
0010
0000
0000
1010
0000
0000
0000
1000
0000
0001
0000
0010
0000
,
0100
0000
1000
0100
1000
0010
0100
0001
,
0100
0000
0101
0000
0001
1000
0010
0100
,
0110
0000
0000
0010
1000
0100
0001
1000
,
0010
0100
1000
0100
0010
0001
0100
0001
,
0101
0000
0100
0010
0100
0010
1000
0001
,
1000
0000
0000
0100
0000
0000
0010
0000
0001
0000
0100
0000
0010
0000
0000
0110
,
0000
0000
0010
1000
0100
0001
0100
1000
,
0010
0000
0000
1000
0000
0000
0001
0000
0000
0000
0010
0000
0100
0000
1000
0000
,
0001
0000
1000
0010
0001
0010
1000
0100
,
0001
0000
0110
0000
0100
0010
0001
1000
,
0001
0000
1000
0100
0001
0100
1000
0010
,
0001
0010
1000
0100
0010
0001
0100
0010
,
0100
0000
0010
1000
0001
0100
0010
1000
,
0001
0000
0000
0010
0000
0000
0001
0000
0100
0000
0010
0000
1000
0000
0000
1010
,
0000
0000
1000
0100
0001
0100
1000
0010
,
0001
0000
0000
0001
0000
0000
0011
0000
0000
0000
0010
0000
1000
0000
0100
0000
,
0010
0000
0000
0010
0110
0000
0000
0000
,
0100
0000
0000
0100
1100
0000
0000
0100
,
1000
0000
0000
1000
1001
0000
0000
0000
,
0001
0000
0000
0000
0000
0000
0001
0000
0101
0000
0000
0100
0000
0000
0100
0000
,
0010
0000
0000
0010
0110
0000
0000
0000
,
0100
0000
0000
0100
0101
0000
0000
0100
,
0001
0000
0000
0001
1001
0000
0000
0000
,
1000
0000
0000
0000
0000
0000
1000
0000
1010
0000
0000
0010
0000
0000
0010
0000
,
0200
0000
0000
0000
0302
0003
0002
0000
,
2003
0000
0000
0000
3200
0320
0032
2003
,
3020
0000
0000
0130
0010
1000
0001
0010
0100
0000
0010
0000
0100
1000
0010
0100
,
0002
0000
0003
0000
;

//---------------dance-single - ----------------
#NOTEDATA:;
#CHARTNAME:;
#STEPSTYPE:dance-single;
#DESCRIPTION:;
#CHARTSTYLE:;
#DIFFICULTY:Hard;
#METER:16;
#RADARVALUES:0.834691,0.761929,0.249813,0.215116,0.610653,775.000000,36.000000,31.000000,0.000000,0.000000,0.000000,0.000000,0.000000,0.834691,0.761929,0.249813,0.215116,0.610653,775.000000,36.000000,31.000000,0.000000,0.000000,0.000000,0.000000,0.000000;
#CREDIT:;
#NOTES:
1010
0000
0010
1000
0001
0010
0100
0010
,
0001
0000
0000
0000
0100
0000
0010
0000
1000
0000
0001
0000
0010
0100
0010
0001
,
0100
0000
0010
1000
0010
0000
0100
0001
,
1000
0000
0100
0000
0010
0000
1000
0000
0010
0000
0001
0000
0100
0001
0100
0010
,
1000
0000
0000
0000
0001
0000
1000
0000
0100
0000
1000
0000
0001
0100
0001
0100
,
0010
0000
0000
1010
0000
0000
1001
0000
0001
0000
0000
0011
0000
0000
0110
0000
,
0200
0000
0000
1000
0000
0000
0010
0000
,
0302
0000
0000
0203
0000
0000
1300
0000
,
1001
0000
0010
0100
0010
0001
1000
0010
,
0100
0001
0010
0100
1000
0001
0100
1001
,
0010
0100
0001
0010
0100
1000
0001
0100
,
0010
1000
0001
0010
0100
1000
0001
0101
,
0100
0000
0100
0010
0100
0001
0010
0100
,
1000
0000
1000
0010
0100
0001
1000
0100
,
0010
0001
0010
0001
1000
0010
1000
0010
,
0200
0000
0000
0000
0000
0000
0000
0000
0000
0000
0000
0000
0301
0100
0010
0100
,
0002
0000
0000
0010
0003
0000
0100
0000
1000
0010
1000
0010
0100
0001
0100
0001
,
0010
0000
0001
0000
0100
0000
0010
0000
1000
0100
0010
0001
0010
0100
1000
0000
,
0020
0000
0130
0001
1000
0100
0010
0001
,
1000
0010
1000
0000
0001
0100
0001
0000
1000
0100
1000
0000
0001
0010
0001
0000
,
0200
0000
0310
1000
0100
0001
0100
0010
,
0011
0000
0000
0101
0000
0000
0110
0000
1000
0000
0100
0000
0010
0000
0001
1000
,
0000
0000
0010
0000
0100
0001
0100
0001
1000
0100
1000
0100
1000
0000
0010
0000
,
0100
0001
0000
0100
0010
0000
1000
0100
0000
0010
0100
0000
1000
0000
0010
0000
,
0200
0000
0000
0001
0300
0000
0010
0000
0100
1000
0100
1000
0001
0010
0001
0010
,
0001
0000
0100
0000
0010
0000
1000
0000
0001
0010
0100
1000
0010
0100
0001
0000
,
0020
0000
0130
1000
0010
0001
1000
0100
,
0001
1000
0001
0000
0010
0001
0010
0000
0100
1000
0100
0000
1000
0001
1000
0001
,
0200
0000
0310
0100
0001
0010
0100
1000
,
1010
0000
0000
1001
0000
0000
0101
0000
0001
0000
0010
0000
0100
0000
1000
0010
,
0000
0000
0100
0001
0000
0100
0001
0000
1000
0000
0100
0000
1000
0010
1000
0010
,
1000
0001
0000
1000
0100
0000
1000
0010
0000
0100
0001
0000
0010
0000
0100
1000
,
0200
0000
0000
0000
0310
0000
0001
0000
1000
0000
0010
0000
0100
0001
0100
0001
,
1000
0000
0100
0000
0010
0000
0001
0000
1000
0000
0010
0000
0100
0001
0100
0001
,
0020
0000
0000
0000
0130
0000
1000
0000
0010
0000
0001
0000
1000
0100
1000
0100
,
0001
0000
0010
0000
0100
0000
1000
0000
0010
0000
0100
0000
0001
1000
0001
1000
,
0002
0000
0000
0000
0013
0000
0100
0000
1000
0000
0010
0000
0100
0001
0100
0001
,
1000
0000
0100
0010
0000
0000
0001
0000
1000
0000
0010
0100
0000
0000
1000
0000
,
0100
0100
0001
0001
0010
0010
0100
0100
,
1000
0100
1000
0000
0001
0100
0001
0000
1000
0100
1000
0000
0001
0100
0001
0000
,
2000
0000
0000
0000
3010
0000
0100
0000
0001
0000
0010
0000
0100
1000
0100
1000
,
0001
0000
0100
0000
0010
0000
1000
0000
0001
0000
0010
0000
0001
1000
0001
1000
,
0002
0000
0000
0000
0103
0000
0010
0000
1000
0000
0100
0000
1000
0010
1000
0010
,
0100
0000
0001
0000
0010
0000
0100
0000
1000
0000
0001
0000
0100
0010
0100
0010
,
0200
0000
0000
0000
0301
0000
0010
0000
0100
0000
1000
0000
0001
0100
0001
0100
,
0001
0000
1000
0100
0000
0000
1000
0000
0010
0000
0100
0001
0000
0000
0010
0000
,
0100
0100
1000
1000
0001
0001
0010
0010
,
0100
1000
0100
0000
0010
0001
0010
0000
0100
1000
0100
0000
0010
0001
0010
0001
,
0020
0000
0000
0100
0030
0000
1000
0000
0010
1000
0010
1000
0001
0010
0001
0010
,
0001
0000
0100
0000
0010
0000
1000
0000
0001
0010
0100
1000
0100
0010
0001
0000
,
0100
0000
0010
1000
0001
0100
1000
0100
,
0001
0010
0001
0000
1000
0100
1000
0000
0001
0100
0001
0000
1000
0010
1000
0000
,
0020
0000
0130
0001
0010
1000
0001
0100
,
1100
0000
0000
1010
0000
0000
1001
0000
0001
0000
0100
0000
0010
0000
1000
0200
,
0000
0000
0000
0000
1300
0010
1000
0000
0001
0100
0001
0000
0010
0001
0010
0000
,
0100
1000
0000
0001
1000
0000
0010
0100
0000
0100
0010
0000
1000
0001
1000
0000
,
0002
0000
0000
0010
0003
0000
0100
0000
0001
0100
0001
0100
1000
0100
1000
0100
,
1000
0000
0010
0000
0100
0000
0001
0000
0010
0001
0010
0001
1000
0100
1000
0100
,
2000
0000
3010
0100
0001
0010
1000
0010
,
0001
0100
0001
0000
1000
0010
1000
0000
0010
0100
0010
0000
1000
0001
1000
0000
,
0002
0000
0013
0100
1000
0001
0100
0010
,
1010
0000
0000
0101
0000
0000
1001
0000
0100
0000
0010
0000
0001
0000
1000
0010
,
0000
0100
0001
0000
1000
0100
1000
0100
0000
0010
0001
0000
1000
0010
1000
0010
,
0100
0001
0000
1000
0100
0000
0010
0001
0000
1000
0010
0000
0100
0001
0100
0001
,
1000
0010
0100
0001
0010
0100
1000
0100
,
0010
0001
1000
0010
0100
0001
0010
0100
,
1100
1000
0001
0100
1000
0100
0001
0010
,
1000
0010
0100
1000
0001
0100
0010
1000
,
1001
0000
0001
0010
0100
1000
0001
0100
,
0010
0000
0000
1000
0000
0000
0001
0000
0010
0000
0100
0000
1000
0000
0010
0200
,
0000
0000
0300
0000
0001
0010
0001
0010
0100
1000
0100
1000
0001
0100
0010
1000
,
0001
0010
0000
0001
0010
0000
0100
1000
0000
0100
1000
0000
0001
0100
0010
0100
,
0001
0000
0100
0010
0100
0001
0010
1000
,
0010
0100
1000
0010
0100
0001
0010
0100
,
0110
0000
0010
0001
0100
1000
0100
0001
,
0010
1000
0010
0100
1000
0010
0100
0001
,
1001
0000
1000
0100
0010
0001
0100
0010
,
1000
0000
0000
0010
0000
0000
0100
0000
0001
0000
0010
0000
0100
0000
1000
0020
,
0000
0000
0030
0000
0100
0001
0100
0001
0100
1000
0100
1000
0001
0010
0001
0010
,
1000
0100
0000
0010
0001
0000
0100
0010
0000
1000
0001
0000
0010
0100
0010
0100
,
0010
0000
0000
0001
0101
0000
0100
0000
,
0010
0000
0000
0010
1010
0000
1000
0100
,
1100
0000
0000
0100
0110
0000
0010
0000
,
0011
0000
0000
0000
0000
0000
1000
0100
1000
0000
0000
1001
0000
0000
0101
0000
,
0100
0000
0000
0100
0110
0000
0010
0000
,
1000
0000
0000
0001
0011
0000
0010
0100
,
0010
0000
0000
0001
0101
0000
0100
0010
,
1000
0000
0000
0000
0000
0000
0001
0010
0001
0000
0000
0101
0000
0000
1010
0000
,
2000
0000
3020
0032
,
2003
0000
0000
0000
3100
0001
0010
0100
,
2000
0000
3000
0001
0010
0100
1000
0010
0200
0000
0310
1000
0010
0001
0010
1000
,
0002
0000
0003
0000
;

//---------------dance-single - ----------------
#NOTEDATA:;
#CHARTNAME:;
#STEPSTYPE:dance-single;
#DESCRIPTION:;
#CHARTSTYLE:;
#DIFFICULTY:Easy;
#METER:6;
#RADARVALUES:0.342005,0.349217,0.090210,0.131846,0.000000,313.000000,13.000000,19.000000,0.000000,0.000000,0.000000,0.000000,0.000000,0.342005,0.349217,0.090210,0.131846,0.000000,313.000000,13.000000,19.000000,0.000000,0.000000,0.000000,0.000000,0.000000;
#CREDIT:;
#NOTES:
0000
0000
1000
1000
,
0001
0000
0010
0000
,
0100
0000
1000
0000
,
0010
1000
0001
0010
,
0100
0000
0100
0100
,
0010
0000
0001
0000
,
1000
0000
0000
0001
0000
0000
0000
0000
,
0010
0000
0000
0100
0000
0000
0000
0000
,
0010
0010
0010
0010
,
0001
0001
0001
0001
,
1000
1000
1000
1000
,
0100
0100
0100
0100
,
1000
0001
1000
0001
,
0010
0100
0010
0100
,
1000
0100
0010
0001
,
1000
0010
0100
0001
,
0020
0000
0100
0130
,
0010
0001
0100
0001
,
0020
0000
0100
0130
,
0010
0001
1000
0010
,
0200
0000
0010
0310
,
0100
0001
0010
0001
,
1000
1000
0001
0001
,
1000
0010
0001
0010
,
0200
0000
0010
0310
,
0100
0001
1000
0100
,
2000
0000
0001
3001
,
1000
0010
0100
0010
,
2000
0000
0001
3001
,
1000
0100
0010
0001
,
1000
1000
0001
0001
,
1000
0010
0100
0001
,
0010
0000
0010
0100
,
0010
0100
1000
0001
,
0100
0000
0100
0010
,
0100
0010
0100
0001
,
1000
0000
1000
0001
,
1000
0100
0010
0001
,
1000
1000
0001
0001
,
1000
0010
0001
0010
,
0100
0000
0100
0010
,
0100
0001
1000
0100
,
0010
0000
0010
0100
,
0010
0001
1000
0100
,
0010
0000
0010
0010
,
0001
0010
0100
1000
,
0001
0001
1000
1000
,
0001
0100
1000
0100
,
0002
0000
1000
1003
,
0001
0010
0100
0010
,
0002
0000
1000
1003
,
0001
0010
0100
1000
,
0020
0000
0100
0130
,
0010
1000
0001
0010
,
0100
0100
0010
0010
,
0100
1000
0001
1000
,
0200
0000
1000
1300
,
0100
0010
0001
0100
,
0002
0000
0100
0103
,
0001
0010
0001
0100
,
0020
0000
1000
1030
,
0010
1000
0001
0010
,
0100
0100
0010
0010
,
0100
1000
0001
1000
,
0100
0000
0010
0010
,
0001
0100
0010
1000
,
0001
0000
0010
0010
,
0100
1000
0010
0100
,
0001
0000
1000
1000
,
0001
1000
0001
0010
,
0100
0110
0010
0001
,
1000
1000
0010
0010
,
0100
0000
0010
0010
,
1000
0001
0010
0001
,
0100
0000
0010
0010
,
0100
0001
1000
0100
,
0010
0000
0100
0100
,
0010
0001
0010
0100
,
1000
1001
0001
0100
,
0010
0010
1000
1000
,
0001
0000
1001
0000
,
1000
0000
1100
0000
,
0100
0000
0110
0000
,
0010
0000
0011
0011
,
0001
0000
0101
0000
,
0100
0000
1010
0000
,
1000
0000
1100
0000
,
0100
0000
0011
0011
,
0002
0000
2003
0000
,
3020
0000
0230
0301
,
0002
0000
1003
0000
0001
0010
0100
1000
,
2002
0000
3003
0000
;

//---------------dance-single - ----------------
#NOTEDATA:;
#CHARTNAME:;
#STEPSTYPE:dance-single;
#DESCRIPTION:;
#CHARTSTYLE:;
#DIFFICULTY:Beginner;
#METER:4;
#RADARVALUES:0.151672,0.157868,0.055514,0.020818,0.000000,142.000000,8.000000,3.000000,0.000000,0.000000,0.000000,0.000000,0.000000,0.151672,0.157868,0.055514,0.020818,0.000000,142.000000,8.000000,3.000000,0.000000,0.000000,0.000000,0.000000,0.000000;
#CREDIT:;
#NOTES:
0000
0000
0000
0000
,
0000
0000
0000
0000
,
0000
0000
0000
0000
,
0000
0000
0000
0000
,
0000
0000
0000
0000
,
0000
0000
0000
0000
,
0000
0000
0000
0000
,
0000
0000
0000
0000
,
0010
0000
0000
0000
,
0010
0000
0000
0010
,
1000
0000
0000
0000
,
1000
0000
0000
1000
,
0001
0000
0001
0000
,
0001
0000
0001
0001
,
0010
0000
0010
0000
,
0010
0000
0000
0010
,
0100
0000
0000
0100
,
1000
0000
0000
1000
,
0001
0000
0000
0001
,
0100
0000
0000
0100
,
0010
0000
0000
0010
,
1000
0000
0000
1000
,
0001
0000
0000
0001
,
0010
0000
0000
0010
,
0100
0000
0000
0100
,
1000
0000
0000
1000
,
0001
0000
0000
0001
,
0100
0000
0000
0100
,
1000
0000
0000
1000
,
0010
0000
0000
0010
,
0001
0000
0000
0001
,
0100
0000
0000
0000
,
0110
0000
0000
0000
,
1001
0000
0000
0000
,
0110
0000
0000
0000
,
1001
0000
0000
0000
,
0010
0000
0000
0000
,
0100
0000
0000
0000
,
0010
0000
0001
0000
,
0100
0000
1000
0000
,
1001
0000
0000
0000
,
0110
0000
0000
0000
,
1001
0000
0000
0000
,
0110
0000
0000
0000
,
0100
0000
0000
0000
,
0010
0000
0000
0000
,
0010
0000
1000
0000
,
0100
0000
0001
0000
,
0010
0000
0000
0010
,
0100
0000
0000
0100
,
1000
0000
0000
1000
,
0001
0000
0000
0001
,
0100
0000
0000
0100
,
0010
0000
0000
0010
,
1000
0000
0000
1000
,
0001
0000
0000
0000
,
0010
0000
0000
0010
,
0100
0000
0000
0100
,
1000
0000
0000
1000
,
0010
0000
0000
0010
,
0100
0000
0000
0100
,
0001
0000
0000
0001
,
0010
0000
0000
0010
,
0100
0000
0000
0000
,
1000
0000
0000
1000
,
0001
0000
0001
0000
,
0010
0000
0000
0010
,
0100
0000
0100
0000
,
1000
0000
0000
1000
,
0100
0000
0100
0000
,
0010
0000
0000
0010
,
0001
0000
0001
0000
,
0100
0000
0000
0100
,
0010
0000
0010
0000
,
1000
0000
0000
1000
,
0001
0000
0001
0000
,
0100
0000
0000
0100
,
1000
0000
1000
0000
,
0001
0000
0001
0000
,
0010
0000
0010
0000
,
0100
0000
0000
0000
,
0100
0000
0000
0000
,
0010
0000
0000
0000
,
0010
0000
0010
0000
,
1000
0000
0000
0000
,
1000
0000
0000
0000
,
0001
0000
0000
0000
,
0001
0000
0001
0000
,
0200
0000
0000
0000
,
0320
0000
0000
0000
,
2030
0000
0000
0000
,
3001
0000
0000
0000
;

//---------------dance-single - ----------------
#NOTEDATA:;
#CHARTNAME:;
#STEPSTYPE:dance-single;
#DESCRIPTION:;
#CHARTSTYLE:;
#DIFFICULTY:Challenge;
#METER:19;
#RADARVALUES:1.000000,1.000000,1.000000,0.832709,0.909040,883.000000,145.000000,120.000000,0.000000,0.000000,0.000000,0.000000,0.000000,1.000000,1.000000,1.000000,0.832709,0.909040,883.000000,145.000000,120.000000,0.000000,0.000000,0.000000,0.000000,0.000000;
#CREDIT:;
#NOTES:
1002
0000
1000
0023
0100
0100
2030
0100
,
3200
0000
0010
0000
0001
0000
2300
0000
0010
0000
0001
0000
3002
0010
0100
0010
,
2003
0000
0100
3002
1000
0000
0203
0001
,
2300
0000
0100
0000
0001
0000
3020
0000
1000
0000
0001
0000
0230
0001
0310
0001
,
2000
0000
0000
0000
0010
0000
3020
0000
0100
0000
1000
0000
0130
0001
0100
1000
,
0110
0000
0000
1010
0000
0000
2001
0000
3001
0000
0000
0011
0000
0000
1010
0000
,
1002
0000
0000
2000
0003
0000
0001
0000
,
3002
0000
0023
0000
0230
0000
1300
1000
,
1100
0000
1000
0000
1000
0010
1000
0010
0001
0000
0001
0000
1000
0000
0100
0000
,
0010
0001
0010
0000
1000
0100
0010
0000
0010
1000
0100
0000
0001
0000
0110
0000
,
1010
0000
0010
0000
0100
1000
0001
0100
0010
0000
1000
0000
0001
0000
0100
0000
,
1000
0010
0100
0000
0001
1000
0100
0000
0100
0001
0010
0100
1000
0000
0002
0000
,
1003
0100
0010
0000
1000
0100
0010
0000
1000
0010
0001
0000
1000
0010
0001
0010
,
0100
1000
0001
0000
0100
1000
0001
0000
0100
1000
0001
0010
1000
0010
0001
0000
,
1001
0000
0100
0010
0001
0000
0010
0100
1000
0000
0100
0010
0001
0010
0100
1000
,
0100
0000
0001
0000
0000
0000
1000
0000
0001
0000
0000
0000
0100
0000
0010
0000
1000
0000
0000
0000
0101
0000
0000
0000
0110
0000
0000
0000
1000
0001
1000
0001
,
2000
0000
0000
3200
0000
0000
0310
1000
0001
0100
0001
0010
1000
0010
0001
0100
,
0020
0000
0100
0000
2030
0000
0010
0000
3001
0010
1000
0100
1010
0000
0012
0000
,
2003
3100
1000
0001
0100
1100
0100
0011
,
0100
1000
0001
0100
0001
0010
1000
0001
0100
1000
0100
0010
1000
0001
1000
0010
,
0202
0303
0001
0101
1000
1010
2000
3002
,
1003
0100
0000
0100
1000
0000
0001
0000
0001
0000
1000
0010
0100
0000
0020
0200
,
0000
0000
0000
0000
0330
0000
0000
0001
1000
0000
0010
0000
1000
0000
0010
0000
0100
0000
0001
0000
0100
0000
0001
0000
0010
0000
0100
0000
1000
0000
0010
0000
,
0001
0010
0000
0010
0100
0000
1000
0001
0000
0100
1000
0000
0100
0001
0010
1000
,
0220
0000
0330
0000
0110
0000
0101
0000
0010
1000
0100
1000
0010
0100
0001
0010
,
0200
0000
2300
0000
3020
0000
0230
0000
0301
0010
0100
0010
1000
0000
0002
0000
,
2003
0000
0000
0000
3200
0000
0310
0000
0001
0010
0100
0000
0001
0100
1000
0000
,
1000
0100
0010
0100
0010
0001
0010
0100
0010
1000
0010
0001
0100
1000
0100
0010
,
0002
0000
0013
1010
0100
0011
1010
0010
,
0100
0010
0000
0100
0010
0000
0001
0000
0100
0000
1000
0001
0010
0000
0200
0020
,
0000
0000
0000
0000
0330
0000
0000
0010
1000
0000
0100
0000
1000
0000
0100
0000
0010
0000
0100
0000
0010
0000
0100
0000
0001
0000
0100
0000
0001
0000
0010
0000
,
0100
0000
1000
0000
0000
0000
0010
0000
1000
0000
0000
0000
0001
0000
0100
0000
0000
0000
0001
0000
0010
0000
0000
0000
1000
0000
0000
0000
0100
0001
0100
0001
,
0200
0000
0310
0000
0110
0000
0010
0000
2000
0000
3010
0000
0001
0010
0100
1000
,
0100
0000
0110
0000
0010
0000
0011
0000
0001
0000
1000
0000
0100
1000
0010
1000
,
0002
0000
0000
0000
0103
0000
0010
0000
2010
0000
3200
0000
0310
0001
0010
0001
,
0100
0000
0100
0000
1000
0000
1000
0000
0001
0000
0001
0100
0010
1000
0010
0100
,
0012
0000
0000
0000
1003
0000
0100
0000
0001
0000
0100
0000
1000
0100
1000
0100
,
0011
0000
0000
0110
0000
0000
1010
0000
1100
0000
0000
0101
0000
0000
0011
0000
,
2002
0000
3003
0000
2002
0000
3003
0000
1000
0100
0010
0000
0100
0010
0001
0000
,
1000
0100
1000
0100
0001
0010
0001
0010
0100
1000
0100
1000
0010
0001
0010
0001
,
1100
0000
1100
0000
1100
0000
0100
0000
0110
0000
0010
0000
0010
0100
0001
0100
,
0010
0000
1010
0000
0010
0000
0011
0000
0101
0000
0100
0000
0100
0010
0001
0010
,
2000
0000
0100
0000
3010
0000
0010
0000
0011
0000
0000
0000
0100
1000
0010
0100
,
0001
0000
0011
0000
0010
0000
0110
0000
0100
0000
0101
0000
0001
1000
0001
1000
,
0201
0000
0000
0000
1300
0000
1000
0000
1000
0000
0010
0000
0100
1000
0001
1000
,
0110
0000
0000
1001
0000
0000
1100
0000
0101
0000
0000
1010
0000
0000
0011
0000
,
0220
0000
0330
0000
0220
0000
0330
0000
1000
1000
0100
0000
0001
0001
0010
0000
,
1000
0100
0010
0001
0010
1000
0001
0100
0010
0100
1000
0010
0001
1000
0001
0010
,
2002
3003
0000
1001
0000
0000
1001
0100
0010
1000
0001
0010
0001
0100
1000
0010
,
0002
0000
0023
0000
0230
0000
2300
0000
3100
0010
0100
1000
0011
0000
0101
0000
,
2002
3003
2001
3001
0020
0230
0320
0230
,
1300
0010
0001
0010
1000
0100
0010
1000
0001
0100
1000
0010
0001
0010
0100
1000
,
0102
0000
0103
0100
0110
0110
0101
0001
,
1001
0010
0000
0100
1000
0000
0010
0000
0001
0000
1000
0000
0010
0000
0200
0020
,
0000
0000
0000
0000
0330
0000
0000
0001
0010
0000
1000
0000
0100
0000
0010
0000
1000
0000
0001
0000
0010
0000
0001
0000
0100
0000
0001
0000
1000
0000
0010
0000
,
0100
1000
0000
1000
0100
0000
0100
0010
0000
0010
0001
0000
1000
0000
1000
0001
,
0220
0000
0330
1001
0000
0000
1001
0010
0100
0001
1000
0100
1000
0010
0001
0100
,
2000
0000
3200
0000
0320
0000
0032
0000
0013
0100
0010
0001
1100
0000
1010
0000
,
2002
3003
1002
1003
0200
0320
0230
0320
,
0031
0100
1000
0100
0001
0010
0100
0001
1000
0010
0001
0100
1000
0100
0010
0001
,
2010
0000
3010
0010
0110
0110
1010
1000
,
1001
0100
0000
0010
0001
0000
0100
0000
1000
0000
0001
0000
0100
0000
0020
0200
,
0000
0000
0000
0000
0330
0000
0000
1000
0100
0000
0001
0000
0010
0000
0100
0000
0001
0000
1000
0000
0100
0000
1000
0000
0010
0000
1000
0000
0001
0000
0100
0000
,
0010
0000
0001
0000
0000
0000
0100
0000
1000
0000
0000
0000
0001
0000
0010
0000
0000
0000
0010
0000
1000
0000
0000
0000
0001
0000
0000
0000
0001
0010
0100
1000
,
0020
0000
0130
1000
0000
0000
0020
0000
0130
0000
0011
0000
2200
0000
3300
0000
,
1001
0000
0000
1000
0100
0000
1010
0000
0000
0000
0010
0000
0110
1000
0100
0000
,
0101
0000
0000
0100
0011
0000
1100
0000
1000
0000
0100
0000
0010
0000
1000
0000
,
1001
0000
0000
0000
0001
1000
0110
0000
0010
0000
0010
0000
1001
0000
1000
0001
,
0110
0000
0000
0100
1000
0000
0010
0000
0100
0000
0011
0000
1100
0000
0000
0000
,
0101
0000
0000
0100
1000
0000
0110
0000
0000
0000
0010
0000
1010
0100
1000
0000
,
1001
0000
0000
0000
0100
0000
0000
0000
0001
0010
0100
1000
0100
0000
0000
0000
1000
0000
0000
0000
0100
0000
0000
0000
1100
0000
0000
0000
0010
0000
0000
0000
,
0101
0000
0001
1000
0001
0000
1010
0000
0100
0000
0010
0000
0100
0010
1001
0000
,
0101
0000
0010
0001
0000
0000
0100
0000
0010
0000
1100
0000
0011
0000
0000
0000
,
1001
0000
0000
0001
0010
0000
0101
0000
0000
0000
0100
0000
0110
0001
0010
0000
,
1010
0000
0000
0010
1100
0000
0011
0000
0001
0000
0010
0000
0100
0000
0001
0000
,
1001
0000
0000
0000
1000
0001
0101
0000
1000
0000
0100
0000
1001
0000
0001
0100
,
0110
0000
0001
0010
0000
0000
1010
0000
0001
0000
1100
0000
0011
0000
0000
0000
,
1010
0000
0000
0010
0001
0000
1010
0000
0000
0000
0100
0000
0101
0010
0001
0000
,
1001
0000
0000
0000
0000
0000
0100
0000
1000
0100
0010
0001
0010
0000
0000
0000
0001
0000
0000
0000
1000
0000
0000
0000
1001
0000
0000
0000
0100
0000
0000
0000
,
1010
0001
1000
0000
1000
0000
0001
0100
0010
0000
0100
0000
1000
0100
1000
0010
,
0002
0000
1000
0000
0000
0000
0023
0000
0130
0000
1000
0000
0000
0000
0010
0001
,
0101
0000
0000
0000
1001
0000
0200
0000
1300
0000
0010
0000
0100
0000
0100
0010
,
0200
0000
0001
0000
0000
0000
0320
0000
1030
0000
0001
0000
0010
0000
0100
1000
,
1100
0000
0010
0000
0101
0000
1000
0100
0001
0000
0000
1010
0000
0000
0101
0000
,
2000
0000
0010
0000
0000
0000
3020
0000
0031
0000
0100
0000
0010
0000
0100
0010
,
1001
0000
0000
0000
1100
0000
0002
0000
1003
0000
0010
0000
0001
0000
1000
0100
,
0002
0000
1000
0000
0000
0000
0023
0000
0130
0000
1000
0000
0010
0000
0010
1000
,
0101
0000
0010
0000
1001
0000
0100
0001
1000
0000
0000
0110
0000
0000
1001
0000
,
0202
0000
0000
0303
2020
0030
0200
3300
,
0022
0000
0000
0033
0010
1000
0010
0110
,
0202
0000
0303
0010
0001
0100
0010
1000
0200
0000
0320
0000
1030
0100
0001
0010
,
2002
0000
3003
0000
;
