#TITLE:King Sombra EVOLVED (ver. B);
#SUBTITLE:;
#ARTIST:Delta Brony;
#TITLETRANSLIT:;
#SUBTITLETRANSLIT:;
#ARTISTTRANSLIT:;
#GENRE:Eurobeat;
#CREDIT:;
#BANNER:King Sombra EVOLVED (ver. B).png;
#BACKGROUND:King Sombra EVOLVED (ver. B)-bg.png;
#LYRICSPATH:;
#CDTITLE:;
#MUSIC:King Sombra EVOLVED (ver. B).mp3;
#OFFSET:-7.622368;
#SAMPLESTART:15.066000;
#SAMPLELENGTH:12.000000;
#SELECTABLE:YES;
#DISPLAYBPM:80.000000:320.000000;
#BPMS:0.000000=160.000000
,148.000000=320.000000
,212.000000=80.000000
,228.000000=160.000000
;
#STOPS:
;
#BGCHANGES:;
#KEYSOUNDS:;
#ATTACKS:;

//---------------dance-single - Blank----------------
#NOTES:
     dance-single:
     Blank:
     Hard:
     16:
     0.817356,1.000000,0.228521,0.050782,0.778665,643.000000,27.000000,6.000000,0.000000,0.000000,0.000000,0.817356,1.000000,0.228521,0.050782,0.778665,643.000000,27.000000,6.000000,0.000000,0.000000,0.000000:
0010
0000
0100
0001
0000
0100
0001
0000
1000
0000
0100
1000
0000
0100
1000
0000
,
0010
0000
0100
0010
0000
0100
0010
0000
1000
0000
0001
1000
0000
0001
1000
0000
,
0001
0000
0010
0100
0000
1000
0001
0000
0100
0000
0010
1000
0000
0001
0010
0000
,
0100
0000
1000
0010
0000
0100
0001
0000
1000
0000
0100
0000
0010
0000
0001
0000
,
2002
0000
3000
0003
,
1000
0000
0010
0100
0000
0001
0100
0001
0100
0000
0001
0000
0010
0000
0100
0000
,
1000
0000
0001
0100
0000
0010
0100
0010
0100
0000
0001
0000
0010
0000
0100
0000
,
1000
0000
0001
1000
0000
0010
1000
0010
1000
0000
0010
0000
0100
0000
0010
0000
,
1000
0000
0100
0010
0000
0001
0010
0001
0010
0000
0001
0000
0100
0000
0010
0000
,
0100
0000
0001
0010
0000
0100
0010
0001
1000
0000
0010
0000
0100
0000
0001
0000
,
0100
0000
0010
1000
0000
0100
0010
0001
1000
0000
0010
0000
0100
0000
0001
0000
,
0100
0000
1000
0100
0000
0010
1000
0001
0010
0000
0100
0000
1000
0000
0001
0000
,
0100
0000
0010
1000
0000
0001
1000
0001
1000
0000
1001
0000
0001
0010
0001
0010
,
0100
0000
1000
0001
1000
0000
0001
0000
0101
0000
0000
0110
0000
0000
1010
0000
,
1000
0000
0001
0010
0001
0000
0010
0000
0110
0000
0000
1100
0000
0000
1001
0000
,
0001
0000
0100
0010
0100
0000
0001
0000
0100
0000
0010
0100
0000
0000
1001
0000
,
1000
0001
1000
0100
0010
0001
1000
0010
,
0100
0000
0001
0000
1000
0010
1000
0000
1010
0000
0000
1001
0000
0000
0101
0000
,
0001
0000
0010
0000
0100
1000
0100
0000
0110
0000
0000
0011
0000
0000
1001
0000
,
0010
0000
0100
0000
0001
1000
0001
0000
0100
0000
0010
1000
0000
0010
1000
0000
,
0001
0000
0010
0000
0100
0000
1000
0000
0001
0000
0100
0000
0010
1000
0010
1000
,
0010
0000
0000
1000
0100
0001
0000
0001
,
0100
1000
0000
0010
0000
0100
0001
0100
,
0010
0000
0000
0000
0000
0000
1000
0001
1000
0000
0001
0000
0000
0000
0100
0000
,
0010
0000
1000
0000
0100
0000
0010
0100
0010
0000
0100
0001
0100
0000
1000
0000
,
0001
0000
0000
0100
0010
0100
0000
0001
,
0010
0000
0100
0000
0000
0000
1000
0000
0000
0000
0010
0100
0010
0000
1000
0001
,
1000
0000
0000
0000
0000
0000
0010
0100
0010
0000
1000
0000
0000
0000
0001
0000
,
0010
0000
0100
0000
1000
0000
0001
0100
0001
0000
1000
0100
1000
0000
0010
0100
,
0001
0000
0010
0000
0001
0000
0100
0000
0010
0000
0100
0001
0100
0000
0001
0010
,
0001
0000
1000
0000
0100
0000
1000
0000
0010
0000
0100
1000
0100
0000
0001
0010
,
0001
0000
0010
0000
0100
0000
0010
0000
0001
0000
1000
0010
1000
0000
0001
1000
,
0001
0000
0010
0000
0100
0000
1000
0000
0010
0000
0100
0010
0100
0000
0001
0100
,
0001
0000
1000
0000
0100
0000
0010
0000
0001
0000
1000
0010
1000
0000
0001
0010
,
0001
0000
0100
0000
0010
0000
1000
0000
0001
0000
0010
0100
0010
0000
0100
1000
,
0100
0000
1000
0000
0010
0000
0100
0000
1000
0000
0100
0010
0100
0000
0001
1000
,
0001
0000
0010
0000
0100
0000
1000
0000
1000
0000
0001
0100
0001
0000
1000
0010
,
1000
0100
0010
0001
,
1000
0000
0010
0100
0010
0000
1000
0001
,
1000
0001
0010
0100
,
1000
0000
0001
0100
0001
0000
1000
0100
,
1000
0001
0010
0100
,
1000
0000
0010
0100
0010
0000
1000
0001
,
1000
0001
0010
0100
,
1000
0000
0001
0010
0001
0000
1000
0010
,
1000
0010
0100
0001
,
0010
0000
0100
0000
1000
0001
1000
0001
,
0100
0010
1000
0100
,
0010
0000
0001
0000
1000
0010
1000
0010
,
0100
0001
0010
0100
,
1000
0000
0001
0100
0001
0000
1000
0010
,
1000
0010
1000
0000
0001
0010
0001
0000
,
1000
0100
1000
0100
0010
0001
0010
0001
,
1000
0010
0100
0001
0000
0001
0100
0000
0010
1000
0100
1000
0000
1000
0001
0000
,
0100
0010
1000
0001
0000
0001
0010
0000
0100
1000
0010
0100
0000
0100
0010
0000
,
1000
0100
0010
0001
0000
0001
0100
0000
1000
0100
0001
0010
0000
0010
0100
0000
,
1000
0000
0010
0000
0100
0000
0001
0000
0000
0000
0001
0000
0010
0000
0000
0000
0100
1000
0100
1000
0001
0010
0001
0010
1000
0010
1000
0010
0001
0100
0001
0100
,
0010
1000
0010
0000
0100
0001
0100
0001
1000
0000
0000
0100
0000
0000
0110
0000
,
0000
0000
0010
0000
0001
0100
0001
0100
0010
0000
0000
1000
0000
0000
1001
0000
,
0000
0000
0001
0010
0001
1000
0100
1000
0010
0000
0000
0100
0000
0000
0101
0000
,
0011
0000
0000
1100
0000
0000
2002
0000
0000
0000
0000
0000
3003
0000
0000
0000
,
0001
0100
0001
0100
0010
1000
0010
1000
0001
0000
0000
0001
0000
0000
0101
0000
,
0000
0000
0010
0100
0010
1000
0010
1000
0001
0000
0000
0010
0000
0000
1100
0000
,
0000
0000
1000
0010
0100
0001
0010
0100
1000
0000
0001
0000
0000
0000
1001
0000
,
0110
0000
0000
0101
0000
0000
2020
0000
0000
0000
0000
0000
3030
0000
0000
0000
,
1000
0010
1000
0010
1000
0010
1000
0000
0001
0010
0001
0010
0001
0010
0001
0000
,
1000
0100
1000
0100
1000
0100
1000
0000
0001
0100
0001
0100
0001
0100
0001
0000
,
0100
0010
0100
0010
0100
0010
0100
0000
0001
1000
0001
1000
0001
1000
0001
0000
,
0001
0010
0100
1000
0001
0010
0100
0000
1000
0010
0100
0001
1000
0010
0100
0000
,
0001
0010
0100
1000
0001
1000
0010
0000
0100
0001
0100
0010
1000
0001
0010
0000
,
0100
1000
0001
1000
0100
0010
0001
0000
1000
0010
0100
0010
1000
0001
0010
0000
,
0100
1000
0001
0100
0010
0100
0001
0000
1000
0100
0010
0001
1000
0010
0100
0000
,
0001
0000
0100
0000
0010
0000
1000
0000
0001
0010
0001
0010
0100
1000
0100
1000
,
0001
0000
0000
0000
;

//---------------dance-single - Blank----------------
#NOTES:
     dance-single:
     Blank:
     Medium:
     10:
     0.454624,0.501054,0.118492,0.084637,0.118492,352.000000,14.000000,10.000000,0.000000,0.000000,0.000000,0.454624,0.501054,0.118492,0.084637,0.118492,352.000000,14.000000,10.000000,0.000000,0.000000,0.000000:
0010
0000
1000
0100
1000
0001
0100
0000
,
0010
0000
1000
0100
0001
0100
1000
0000
,
0010
0000
0100
0001
0010
1000
0001
0000
,
0100
1000
0010
0100
0001
1000
0100
0000
,
0220
0000
0300
0030
,
0001
0000
0100
0010
0100
0010
0000
0010
,
1000
0000
0001
0010
0001
0010
0000
0010
,
0100
0000
1000
0001
1000
0001
0000
0001
,
0100
0000
0010
0000
1000
0100
1000
0001
,
0100
0000
0010
0100
0001
0100
0000
0100
,
0010
0000
1000
0100
1000
0001
0000
0001
,
0010
0000
0100
1000
0001
1000
0000
1000
,
0010
0000
0100
0001
0100
0010
0000
0010
,
1000
0000
0000
0000
0001
0000
0000
0000
1000
0000
0000
0100
0000
0000
0010
0000
,
0001
0000
0000
0000
0100
0000
0000
0000
0010
0000
0000
1000
0000
0000
0100
0000
,
1000
0000
0000
0000
0001
0000
0000
0000
0100
0000
0000
0010
0000
0000
0100
0000
,
0001
0000
0010
0000
0100
1000
0001
1000
,
0100
0000
0000
0000
0010
0000
0000
0000
0001
0000
0000
0100
0000
0000
0010
0000
,
0100
0000
0000
0000
0001
0000
0000
0000
0010
0000
0000
0100
0000
0000
1000
0000
,
0001
0000
0000
0000
0100
0000
0000
0000
0010
0000
0000
1000
0000
0000
0100
0000
,
1000
0000
0010
0000
0100
0001
1000
0000
,
1000
0000
0100
0000
,
0010
0000
0001
0000
,
1000
0000
0010
0000
,
0100
0000
1000
0000
,
0100
0001
0101
0100
,
0010
1000
1001
0001
,
0010
1000
1010
0100
,
1000
0010
0110
1001
,
1000
0000
0100
1000
0000
0010
0000
0100
,
0001
0000
0010
0100
0000
1001
0000
0000
,
0010
0000
0100
0001
0000
0100
0000
0010
,
1000
0000
0001
0010
0000
0110
0000
0000
,
0100
0000
1000
0001
0000
1000
0000
0010
,
0100
0000
0001
1000
0000
1100
0000
0000
,
0010
0000
0100
0001
0000
0010
0000
0100
,
1000
0000
0001
0010
0000
0011
0000
0000
,
0100
0000
1000
0010
,
0000
0100
0000
0001
,
0100
0000
1000
0100
,
0000
0220
0000
0330
,
0010
0000
1000
0100
,
0000
1000
0000
0001
,
0010
0000
0100
1000
,
0000
2002
0000
3003
,
0001
0100
0010
0100
,
0001
1000
0100
1000
,
0001
0100
1000
0100
,
0001
0010
0100
1000
,
0010
1000
0001
0010
,
0100
1000
0010
0100
,
0001
0100
0001
0000
1000
0100
1000
0000
,
0001
0000
1000
0000
0001
1000
0001
1000
,
0010
0000
1000
0000
0000
0010
1000
0000
0001
0000
0010
0000
0000
0001
0010
0000
,
0100
0000
1000
0000
0000
0100
1000
0000
0001
0000
0100
0000
0000
0001
0100
0000
,
1000
0000
0100
0000
0000
0010
1000
0000
0001
0000
0010
0000
0000
0100
0001
0000
,
1000
0000
0010
0000
0000
0001
0100
0000
0010
0000
1000
0000
0001
1000
0001
0000
,
1000
0100
0001
0100
1000
0000
0001
0000
,
1000
0010
0001
0010
1000
0000
0001
0000
,
1000
0100
0010
0100
1000
0000
0001
0000
,
0100
0010
0100
0001
0010
0000
0100
0000
,
1000
0001
1000
0100
0010
0000
0001
0000
,
0100
0010
0100
0001
1000
0000
0100
0000
,
0010
0001
1000
0001
0010
0000
0100
0000
,
1000
0001
1000
1001
,
0001
0000
0000
0100
0000
0000
0010
0000
0000
0100
0000
0000
0001
0000
1000
0000
,
0100
0000
0000
1000
0000
0000
0010
0000
0000
0100
0000
0000
1000
0000
0100
0000
,
0001
0000
0000
0010
0000
0000
0100
0000
0000
1000
0000
0000
0001
0000
1000
0000
,
0100
0000
0000
0010
0000
0000
0001
0000
0000
0100
0000
0000
0010
0000
0000
0000
,
0001
0000
0000
0100
0000
0000
0010
0000
0000
1000
0000
0000
0001
0000
0010
0000
,
0100
0000
0000
1000
0000
0000
0001
0000
0000
0100
0000
0000
1000
0000
0100
0000
,
0010
0000
0000
1000
0000
0000
0001
0000
0000
0010
0000
0000
0100
0000
1000
0000
,
0002
0000
2000
3003
,
0220
0000
0000
0000
,
0330
0000
0000
0000
;

//---------------dance-single - Blank----------------
#NOTES:
     dance-single:
     Blank:
     Easy:
     7:
     0.305904,0.375790,0.016927,0.118492,0.000000,237.000000,2.000000,14.000000,0.000000,0.000000,0.000000,0.305904,0.375790,0.016927,0.118492,0.000000,237.000000,2.000000,14.000000,0.000000,0.000000,0.000000:
0010
0100
0001
1000
,
0100
1000
0010
0100
,
0001
0010
0100
1000
,
0020
0000
0030
0000
,
2002
0000
3003
0000
,
0010
0000
0100
0000
0010
0100
0000
0000
,
0001
0000
1000
0000
0001
1000
0000
0000
,
0100
0000
0010
0000
0100
0010
0000
0000
,
0001
0000
0100
0000
0010
1000
0000
0000
,
0001
0000
0010
0000
0001
0010
0000
0000
,
0100
0000
0001
0000
0100
0001
0000
0000
,
1000
0000
0010
0000
1000
0010
0000
0000
,
0100
0000
1000
0000
0100
1000
0000
0000
,
0010
0100
0001
0001
,
0010
0100
1000
1000
,
0001
0100
0010
0010
,
0100
1000
0010
0001
,
0100
0010
0100
0100
,
0001
1000
0001
0001
,
0010
1000
0010
0010
,
1000
0100
0001
0010
,
0020
0000
0031
0000
,
2000
0000
3100
0000
,
2000
0000
3010
0000
,
0200
0000
0301
0000
,
0020
0000
1030
0000
,
0002
0000
0103
0000
,
0020
0000
0031
0000
,
2000
0000
3010
0010
,
0001
0000
0000
0010
0000
0010
0000
0000
,
0100
0000
0000
1000
0000
1000
0000
0000
,
0001
0000
0000
0100
0000
0100
0000
0000
,
0010
0000
0000
1000
0000
1000
0000
0000
,
0001
0000
0000
0010
0000
0010
0000
0000
,
0100
0000
0000
0001
0000
0001
0000
0000
,
1000
0000
0000
0010
0000
0010
0000
0000
,
0100
0000
0000
1000
0000
1000
0000
0000
,
0001
0000
0000
0100
,
0000
0100
0000
0000
,
0010
0000
0000
1000
,
0000
1000
0000
0000
,
0001
0000
0000
0010
,
0000
0010
0000
0000
,
0100
0000
0000
1000
,
0000
1000
0000
0000
,
0001
0000
0100
0000
,
0010
0000
1000
0000
,
0001
0000
0010
0000
,
0100
0000
1000
0000
,
0001
0000
0100
0000
,
1000
0000
0100
0000
,
0010
0000
1000
0000
,
0001
0000
0010
0000
,
0100
0100
0000
1000
0001
0001
0000
0100
,
0010
0010
0000
1000
0001
0001
0000
0010
,
1000
1000
0000
0001
0100
0100
0000
0010
,
0001
0001
0000
1000
0010
0010
0000
0100
,
0001
0010
0100
1000
,
0010
0000
0100
0000
1000
0000
0100
0001
,
0100
0010
1000
0001
,
0010
0000
0100
0000
1000
0000
0010
0100
,
0010
1000
0100
0010
,
0001
0000
0010
0000
0100
0000
1000
0100
,
1000
0001
0100
1000
,
0001
0010
1000
0001
,
0100
0001
0100
0100
,
0010
1000
0010
0010
,
1000
0001
1000
1000
,
0001
0000
0010
0000
0001
0010
0001
0000
,
0010
0100
0010
0010
,
0100
1000
0100
0100
,
1000
0010
1000
1000
,
2002
0000
3003
0000
,
0200
0000
0000
0000
,
0300
0000
0000
0000
;

//---------------dance-single - Blank----------------
#NOTES:
     dance-single:
     Blank:
     Beginner:
     4:
     0.153557,0.185356,0.033855,0.033855,0.000000,119.000000,4.000000,4.000000,0.000000,0.000000,0.000000,0.153557,0.185356,0.033855,0.033855,0.000000,119.000000,4.000000,4.000000,0.000000,0.000000,0.000000:
0010
0000
0010
0000
,
0010
0000
0010
0000
,
0100
0000
0100
0000
,
0100
0000
0000
0000
,
0220
0000
0330
0000
,
0010
0000
0100
0000
,
0010
0000
0010
0000
,
0001
0000
1000
0000
,
0001
0000
0001
0000
,
1000
0000
0010
0000
,
1000
0000
1000
0000
,
0001
0000
0100
0000
,
0001
0000
0001
0000
,
1000
0000
0001
0000
,
1000
0000
1000
0000
,
0001
0000
1000
0000
,
0001
0000
0001
0000
,
0010
0000
0100
0000
,
0010
0000
0010
0000
,
0100
0000
0010
0000
,
0200
0000
0300
0000
,
0110
0000
0000
0000
,
0001
0000
0000
0000
,
1000
0000
0100
0000
,
0010
0000
0000
0000
,
0001
0000
0000
0000
,
0010
0000
0000
0000
,
0100
0000
1000
0000
,
0001
0000
0000
0000
,
1000
0000
0001
0000
,
1000
0000
0001
0000
,
0010
0000
0100
0000
,
0010
0000
0100
0000
,
1000
0000
0001
0000
,
1000
0000
0001
0000
,
0100
0000
0010
0000
,
0100
0000
0010
0000
,
1000
0000
0000
0000
,
0100
0000
0000
0000
,
0010
0000
0000
0000
,
0001
0000
0000
0000
,
1000
0000
0000
0000
,
0010
0000
0000
0000
,
0100
0000
0000
0000
,
0001
0000
0000
0000
,
0010
0000
0000
0000
,
0100
0000
0000
0000
,
1000
0000
0000
0000
,
0001
0000
0000
0000
,
0100
0000
0000
0000
,
0010
0000
0000
0000
,
1000
0000
0000
0000
,
0001
0000
0000
0000
,
1000
0000
0010
0000
,
0100
0000
0001
0000
,
0010
0000
0100
0000
,
1000
0000
0001
0000
,
1001
0000
0000
0000
,
0010
0000
0010
0000
,
0100
0000
0000
0000
,
0001
0000
0001
0000
,
1001
0000
0000
0000
,
0100
0000
0100
0000
,
1000
0000
0000
0000
,
0010
0000
0010
0000
,
0100
0000
0010
0000
,
0100
0100
0100
0000
,
0001
0000
1000
0000
,
0001
0001
0001
0000
,
1000
0000
0100
0000
,
1000
1000
1000
0000
,
0010
0000
0100
0000
,
0020
0000
0000
0000
,
0030
0000
0000
0000
;
