#TITLE:I've Got To Find A Way (Remix);
#SUBTITLE:;
#ARTIST:MRPPony;
#TITLETRANSLIT:;
#SUBTITLETRANSLIT:;
#ARTISTTRANSLIT:;
#GENRE:Trance House;
#CREDIT:;
#BANNER:I've Got To Find A Way (MRPPony Remix).png;
#BACKGROUND:I've Got To Find A Way (MRPPony Remix)-bg.png;
#LYRICSPATH:;
#CDTITLE:;
#MUSIC:I've Got To Find A Way (MRPPony Remix).mp3;
#OFFSET:1.266000;
#SAMPLESTART:96.532997;
#SAMPLELENGTH:15.000000;
#LASTBEATHINT:0.576333;
#SELECTABLE:YES;
#BPMS:0.000000=130.000000
;
#STOPS:
;
#BGCHANGES:;
#KEYSOUNDS:;
#ATTACKS:;

//---------------dance-single - ----------------
#NOTES:
     dance-single:
     :
     Beginner:
     4:
     0.148250,0.236566,0.013655,0.136546,0.000000,152.000000,150.000000,2.000000,20.000000,0.000000,0.000000,0.148250,0.236566,0.013655,0.136546,0.000000,152.000000,150.000000,2.000000,20.000000,0.000000,0.000000:
0000
0000
0000
0000
,
0000
0000
0000
0000
,
0000
0000
0000
0000
,
0000
0000
0000
0000
,
0000
0000
0000
0000
,
0010
0000
0010
0000
,
1000
0000
0000
0000
,
0001
0000
0001
0000
,
0010
0000
0000
0000
,
0100
0000
0100
0000
,
1000
0000
0000
0000
,
0001
0000
0001
0000
,
0100
0000
0000
0000
,
0010
0000
0010
0000
,
1000
0000
0000
0000
,
0001
0000
0001
0000
,
0010
0000
0000
0000
,
0100
0000
0100
0000
,
1000
0000
0000
0000
,
0001
0000
0001
0000
,
0100
0000
0000
0000
,
0020
0000
0000
0000
,
1000
0000
1000
0000
,
2030
0000
0000
0000
,
0001
0000
0001
0000
,
3002
0000
0000
0000
,
0100
0000
0100
0000
,
0203
0000
0000
0000
,
0010
0000
0010
0000
,
0310
0000
0010
0000
,
1000
0000
0001
0000
,
0010
0000
0010
0000
,
0001
0000
1000
0000
,
0100
0000
0100
0000
,
1000
0000
0001
0000
,
0100
0000
0100
0000
,
0001
1000
0001
1000
,
0010
0000
0010
0000
,
0100
0000
0100
0000
,
0001
0000
0010
0000
,
0100
0000
1000
0000
,
0010
0000
0010
0000
,
0100
0000
0100
0000
,
0001
0000
0100
0000
,
0010
0000
1000
0000
,
1001
0000
0001
0000
,
0100
0000
1000
0000
,
0100
0000
0001
0000
,
0100
0000
0010
0000
,
0110
0000
0010
0000
,
1000
0000
0010
0000
,
0100
0000
0010
0000
,
0001
0000
0010
0000
,
2000
0000
3020
0000
,
0230
0000
0301
0000
,
0001
0001
0001
0001
,
1000
1000
1000
1000
,
0002
0000
0023
0000
,
0230
0000
1300
0000
,
1000
1000
1000
1000
,
0001
0001
0001
0001
,
2000
0000
3200
0000
,
0320
0000
0031
0000
,
0001
0001
0001
0001
,
1000
1000
1000
1000
,
0002
0000
0203
0000
,
0320
0000
1030
0000
,
1000
1000
1000
1000
,
0001
0001
0001
0001
,
1000
0000
1000
0000
,
0001
0000
0001
0001
,
0002
0000
0013
0000
,
0001
0000
1000
1000
,
2000
0000
3010
0000
,
1000
0000
0001
0000
,
0020
0000
0000
0000
,
0230
0000
0000
0000
,
0300
0000
0000
0000
;

//---------------dance-single - ----------------
#NOTES:
     dance-single:
     :
     Easy:
     6:
     0.280894,0.315421,0.116064,0.225301,0.000000,288.000000,271.000000,17.000000,33.000000,0.000000,0.000000,0.280894,0.315421,0.116064,0.225301,0.000000,288.000000,271.000000,17.000000,33.000000,0.000000,0.000000:
0000
0000
0000
1000
,
0010
0100
0010
0100
,
0001
0010
0100
1000
,
0010
0100
0010
0100
,
0001
0001
1000
1000
,
0100
1000
0010
0100
,
0001
0001
0001
0000
,
0100
0001
0010
0100
,
1000
1000
1000
0000
,
0010
1000
0001
0010
,
0100
0100
0100
0000
,
0010
0001
1000
0010
,
0100
0100
0100
0001
,
0010
1000
0001
0100
,
1000
0001
1000
0000
,
0010
1000
0001
0100
,
1000
0001
0010
0000
,
0100
0010
1000
0100
,
0001
0100
1000
0000
,
0010
0100
0001
0010
,
1000
0010
0001
0100
,
0020
0000
2030
0000
,
3002
0000
0013
0010
,
0200
0000
2300
0000
,
3002
0000
0103
0100
,
0020
0000
2030
0000
,
3200
0000
0310
0010
,
0002
0000
0203
0000
,
0320
0000
1030
1000
,
0001
0001
0010
0001
,
1000
1000
0010
1000
,
0100
0100
0010
0100
,
0010
0010
0100
0010
,
0100
1000
0010
0001
,
1000
0100
0001
0010
,
0100
1000
0010
0100
,
0001
0010
0100
1000
,
1001
0001
0100
0001
,
1001
1000
0100
1000
,
1100
0100
0010
0001
,
0101
0100
0010
1000
,
0110
1000
0001
1000
,
0110
0001
1000
0001
,
0101
0100
0010
0100
,
0110
0010
1000
0010
,
1001
0001
0100
1000
,
1001
1000
0100
0001
,
1001
0001
0010
1000
,
1001
1000
0010
0001
,
0110
0001
0100
1000
,
0110
1000
0100
0001
,
0110
0001
0010
1000
,
0110
1000
0010
0001
,
0020
0000
2030
0000
,
3200
0000
0000
0000
0320
0000
0000
0130
,
0010
0001
0100
0010
,
1000
0100
0010
0001
,
0200
0000
0320
0000
,
2030
0000
0000
0000
3002
0000
0000
0013
,
0001
0000
0010
0000
0100
0000
1000
0010
,
1000
0100
0010
0001
,
2002
3000
0023
0000
,
0230
0000
0000
0000
2300
0000
0000
3100
,
1000
0010
1000
0100
,
0010
1000
0010
0100
,
2000
0000
3020
0000
,
0032
0000
0000
0000
0023
0000
0000
0130
,
0010
0000
1000
0000
0001
0000
0010
0001
,
0010
0001
1000
0010
,
0100
0010
0100
0010
,
1000
1000
0001
0001
,
0020
0100
1000
0100
,
0001
0001
0100
0031
,
0002
1000
0100
1000
,
0100
0100
0010
0013
,
0200
0000
0000
0000
,
0320
0000
0000
0000
,
0030
0000
0000
0000
;

//---------------dance-single - ----------------
#NOTES:
     dance-single:
     :
     Medium:
     9:
     0.454502,0.446846,0.279919,0.157028,0.221887,466.000000,425.000000,41.000000,23.000000,0.000000,0.000000,0.454502,0.446846,0.279919,0.157028,0.221887,466.000000,425.000000,41.000000,23.000000,0.000000,0.000000:
0000
0000
0000
1000
,
0010
0000
0100
0000
0010
0100
0010
0000
,
0100
0000
0001
0000
0100
0001
0100
0000
,
0001
0000
1000
0000
0001
1000
0001
1000
,
0010
0000
0100
0000
0001
0000
0010
0000
0100
0000
0000
1000
0000
0000
0100
0000
,
0010
0000
0001
0010
0000
0110
0000
1100
,
0000
1001
0000
1001
0000
0001
0100
0010
,
1000
0000
0010
0100
0000
0110
0000
0101
,
0000
0002
1003
0001
0000
1000
0100
0010
,
0001
0100
0100
0001
0100
0010
1000
0010
,
0000
0200
0310
0100
0000
0010
1000
0001
,
0010
0000
0100
1000
0100
1000
0000
1010
,
0000
0020
0130
0010
0000
0000
0100
0000
,
0101
0000
0001
0010
0000
0110
0000
1100
,
0000
1001
0000
1001
0000
0001
0100
0010
,
1000
0000
0010
0100
0000
0110
0000
1010
,
0000
0020
0130
0010
0000
0100
0001
0010
,
0100
0010
0010
0001
1000
0010
0000
1010
,
0000
2000
3001
1000
0000
0001
0010
0001
,
0100
0000
0010
1000
0001
0010
0000
0110
,
0000
0200
1300
0100
0000
0010
0110
0000
,
0100
0000
1000
0000
0100
1000
0100
0000
,
1000
0000
0001
0000
1000
0001
1000
0000
,
0001
0000
0100
0000
0001
0100
0001
0100
,
0010
0000
1000
0000
0010
1000
0010
0000
,
1000
0000
0001
0000
1000
0001
0010
0000
,
0001
0000
1000
0000
0001
1000
0010
0000
,
0100
0000
0000
0100
0000
0000
0100
0000
0000
0100
0000
0000
0010
0000
1000
0000
,
0010
0000
0000
0010
0000
0000
0010
0000
0000
0010
0000
0000
0100
0000
0001
0000
,
1000
0000
0000
0100
0000
0000
0010
0000
0000
0100
0000
0000
1000
0000
0000
0000
,
0001
0000
0000
0010
0000
0000
0100
0000
0000
0010
0000
0000
0001
0000
0000
0000
,
1000
0000
0000
0001
0000
0000
0010
0000
0000
0001
0000
0000
1000
0000
0010
0000
,
0100
0000
0000
0001
0000
0000
0010
0000
0000
0100
0000
0000
1000
0000
0000
0000
,
0001
0000
0000
0100
0000
0000
1000
0000
0000
0100
0000
0000
0001
0000
0000
0000
,
0010
0000
0000
1000
0000
0000
0010
0000
0000
0001
0000
0000
0100
0000
0000
0000
,
0010
0000
0000
1000
0000
0000
0001
0000
0000
0010
0000
0000
0100
0000
1000
0000
,
0100
0000
0000
0100
0010
0000
0010
0000
0000
0100
0010
0000
0010
0000
0100
0000
,
1000
0000
0000
1000
0000
0000
1000
0000
0000
1000
0000
0000
0001
0000
0100
0000
,
0001
0000
0000
0001
0000
0000
0001
0000
0000
0001
0000
0000
1000
0000
0010
0000
,
1000
0000
0000
1000
0000
0000
1000
0000
0000
1000
0000
0000
0001
0000
0010
0000
,
0001
0000
0000
0001
0000
0000
0001
0000
0000
0001
0000
0000
1000
0000
0010
0000
,
0100
0000
0000
0001
0000
0000
0010
0000
0000
0001
0000
0000
0100
0000
0010
0000
,
1000
0000
0000
0100
0000
0000
0010
0000
0000
0001
0000
0000
0100
0000
0010
0000
,
0100
0000
0000
0001
0000
0000
1000
0000
0000
0100
0000
0000
0010
0000
0100
0000
,
0010
0000
0000
0100
0000
0000
1000
0000
0000
0010
0000
0000
0100
0000
0001
0000
,
0100
0000
0000
0001
0000
0000
1000
0000
0000
0100
0000
0000
0010
0000
0001
0000
,
0100
0000
0000
1000
0000
0000
0100
0000
0000
0001
0000
0000
0010
0000
1000
0000
,
0010
0000
0000
0001
0000
0000
0100
0000
0000
0010
0000
0000
1000
0000
0001
0000
,
1000
0000
0000
0100
0000
0000
0001
0000
0000
1000
0000
0000
0010
0000
0001
0000
,
0100
0000
0000
0010
0000
0000
1000
0000
0000
0001
0000
0000
0010
0000
0100
0000
,
0010
0000
0000
0001
0000
0000
1000
0000
0000
0010
0000
0000
0100
0000
0010
0000
,
0100
0000
0000
0100
0000
0000
0001
0000
0000
0001
0000
0000
1000
0000
1000
0000
,
0010
0000
0000
0010
0000
0000
0100
0000
0000
0100
0000
0000
0001
0000
1000
0000
,
0002
0000
0013
0001
0020
0000
0130
0010
,
0200
0000
1300
0100
1000
0000
0001
1000
,
1001
0000
0011
0000
0110
0000
1000
0100
,
0011
0000
0110
0000
1100
0000
1000
0001
,
2000
0000
3010
1000
0020
0000
0130
0010
,
0200
0000
0301
0100
0001
0000
1000
0001
,
1001
0000
1010
0000
0110
0000
0001
0100
,
1010
0000
0110
0000
0101
0000
0001
1000
,
0002
0000
0013
0001
0020
0000
0130
0010
,
0200
0000
1300
0100
1000
0000
0001
1000
,
1001
0000
0011
0000
0110
0000
1000
0100
,
0011
0000
0110
0000
1100
0000
1000
0001
,
2000
0000
3010
1000
0020
0000
0130
0010
,
0200
0000
0301
0100
0001
0000
1000
0001
,
1001
0000
0011
0000
0110
0000
1000
0100
,
0011
0000
0110
0000
1100
0000
1000
0001
,
1000
0000
0000
0001
0000
0000
0100
0000
0000
0010
0000
0000
0100
0000
0001
0000
,
0100
0000
0000
0010
0000
0000
1000
0000
0000
0001
0000
0000
0020
0000
0000
0000
,
0130
0000
0000
0010
0000
0000
0001
0000
0000
0100
0000
0000
0010
0000
1000
0000
,
0010
0000
0000
1000
0000
0000
0001
0000
0000
0010
0000
0000
0200
0000
0000
0000
,
0310
0000
0000
0010
0000
0000
0100
0000
0000
1000
0000
0000
0001
0000
0100
0000
,
0001
0000
0000
0100
0000
0000
0010
0000
0000
1000
0000
0000
0002
0000
0000
0000
,
2003
0000
0000
0000
0000
0010
0100
0001
,
3002
0000
0000
0000
,
1003
0000
0000
0000
;

//---------------dance-single - ----------------
#NOTES:
     dance-single:
     :
     Hard:
     15:
     0.703211,0.630842,0.150200,0.047791,0.665661,721.000000,699.000000,22.000000,7.000000,0.000000,0.000000,0.703211,0.630842,0.150200,0.047791,0.665661,721.000000,699.000000,22.000000,7.000000,0.000000,0.000000:
// measure 0
0000
0000
0000
0010
,  // measure 1
1000
0001
1000
0001
1000
0001
1000
0001
0010
0000
0100
0000
1000
0000
0000
0000
,  // measure 2
0020
0000
0230
0301
,  // measure 3
0100
0001
0100
0001
0100
0001
0100
0001
1000
0000
0100
0000
0010
0000
0001
0000
,  // measure 4
1000
0000
1000
0000
1000
0000
0001
0000
0010
0000
0000
0100
0010
0000
0001
0000
,  // measure 5
0100
0000
0010
1000
0100
0010
0000
0110
,  // measure 6
0000
0100
1000
0001
0100
0010
0100
0000
,  // measure 7
0001
0000
1000
0100
1000
0001
0100
0110
,  // measure 8
0000
0010
1000
1001
0000
0001
0010
0000
,  // measure 9
0100
0010
0010
0001
1000
0010
0000
1010
,  // measure 10
0000
1000
0001
0011
0000
0010
0100
0000
,  // measure 11
0110
0000
0100
1000
0010
0001
0000
0101
,  // measure 12
0000
0000
0001
0000
0010
0000
1000
0000
0100
0000
0000
0010
0100
0000
0010
0000
,  // measure 13
0001
0000
1000
0010
1000
0001
0000
0101
,  // measure 14
0000
0001
1000
1100
0000
0100
0010
0000
,  // measure 15
0011
0000
0001
1000
0010
0001
0000
0011
,  // measure 16
0000
0010
1000
1010
0000
1000
0001
0000
,  // measure 17
0010
0100
0100
1000
0100
0001
0000
0201
,  // measure 18
0000
1300
0100
0110
0000
0010
0001
0000
,  // measure 19
0101
0000
0100
0010
1000
0001
0000
1001
,  // measure 20
0000
0000
1000
0000
0010
0000
0110
0000
0010
0000
0010
1000
0001
0000
1000
0001
,  // measure 21
1000
0000
0001
0010
0000
0001
0010
0000
0010
0100
0000
0100
1000
0000
0001
0000
,  // measure 22
0010
0000
1000
0010
0000
1000
0010
0000
0010
0100
0000
0100
1000
0000
0001
0000
,  // measure 23
0100
0000
0010
1000
0000
0010
1000
0000
1000
0100
0000
0100
0010
0000
0001
0000
,  // measure 24
0100
0000
1000
0010
0000
1000
0010
0000
1000
0100
0000
0100
0001
0000
0010
0000
,  // measure 25
0100
0000
1000
0100
0000
1000
0100
0000
0100
0010
0000
0010
0001
0000
0001
0000
,  // measure 26
0010
0000
1000
0100
0000
1000
0100
0000
1000
0010
0000
0010
0001
0000
1000
0000
,  // measure 27
0010
0000
0100
0010
0000
0100
0010
0000
0010
0001
0000
0001
0100
0000
0001
0000
,  // measure 28
0010
0000
0100
0010
0000
0100
0010
0000
1000
0001
0000
0001
0100
0000
0001
0000
,  // measure 29
1000
0000
0100
1000
0000
0001
1000
0000
0010
1000
0000
1000
0001
0000
0010
0000
,  // measure 30
0100
0000
0010
0001
0000
0001
0100
0000
0010
1000
0000
1000
0100
0000
0010
0000
,  // measure 31
0001
0000
1000
0010
0000
1000
0100
0000
1000
0001
0000
0001
0010
0000
0100
0000
,  // measure 32
1000
0000
0010
0100
0000
0100
0010
0000
0100
0001
0000
0001
1000
0000
0100
0000
,  // measure 33
0010
0000
0100
1000
0000
0100
0001
0000
1000
0010
0000
0001
0010
0000
0100
0000
,  // measure 34
1000
0000
0010
0001
0000
1000
0100
0000
0001
0010
0000
0100
1000
0000
0001
0000
,  // measure 35
1000
0000
0010
0100
0000
0100
0001
0000
0001
1000
0000
1000
0100
0000
0010
0000
,  // measure 36
0001
0000
1000
0100
1000
0000
0001
0000
1000
0100
1000
0000
0001
0000
0010
0100
,  // measure 37
0010
0000
0100
0010
0001
0000
0100
0000
0010
1000
0100
1000
0100
0000
1000
0000
,  // measure 38
0001
0000
0100
0010
1000
0000
0001
0000
0010
0100
0010
0001
0010
0000
0010
0000
,  // measure 39
0100
0000
1000
0100
0010
0000
0100
0000
1000
0010
1000
0100
1000
0000
0100
0000
,  // measure 40
0010
0000
0001
0010
0001
0000
0010
0000
0001
0100
0001
0100
0010
0000
1000
0000
,  // measure 41
0001
0000
1000
0001
0010
0000
0001
0000
0010
0100
1000
0010
0001
0000
0010
0000
,  // measure 42
1000
0000
0100
0010
0001
0000
0100
0000
0010
1000
0100
0001
1000
0000
0010
0000
,  // measure 43
0100
0000
1000
0100
1000
0000
0100
0000
1000
0010
0001
1000
0100
0000
0010
0000
,  // measure 44
1000
0000
0010
1000
0001
0000
0010
0000
0100
1000
0100
1000
0010
0000
0100
0000
,  // measure 45
0110
0000
0010
1000
0010
0000
1000
0000
0001
0010
0001
0010
0100
0000
1000
0000
,  // measure 46
0100
0000
0001
1000
0001
0000
1000
0000
0010
1000
0010
0001
0100
0000
0010
0000
,  // measure 47
1000
0000
0001
1000
0010
0000
0100
0000
0010
1000
0010
1000
0100
0000
0010
0000
,  // measure 48
0100
0000
0010
0001
0010
0000
0001
0000
1000
0010
0001
0010
1000
0000
0100
0000
,  // measure 49
0010
0000
0100
1000
0001
0000
0100
0000
0001
1000
0100
1000
0001
0000
0100
0000
,  // measure 50
0010
0000
1000
0001
0010
0000
0001
0000
1000
0001
0010
0001
1000
0000
0100
0000
,  // measure 51
0010
0000
0100
1000
0100
0000
0010
0000
0100
0010
0001
0010
0001
0000
0010
0000
,  // measure 52
0100
0000
0100
0000
0100
0000
1000
0000
0100
1000
0000
0100
1000
0010
0100
0001
,  // measure 53
0100
0000
0001
0100
0000
0001
0100
0000
0001
0010
0000
0001
0010
0000
0100
0000
,  // measure 54
0010
0000
0100
0010
0000
0100
0010
0000
0010
0001
0000
0010
0001
0000
1000
0000
,  // measure 55
0010
0000
1000
0010
1000
0000
0001
0000
1000
0000
0100
0000
0010
0000
0011
0000
,  // measure 56
0001
0000
0010
0001
0010
0000
0100
0000
1000
0000
0010
0000
0100
0000
0010
0000
,  // measure 57
1000
0000
0100
1000
0000
0100
1000
0000
1000
0010
0000
1000
0010
0000
0100
0000
,  // measure 58
0001
0000
0010
0100
0000
0010
0100
0000
0100
1000
0000
0100
1000
0000
0001
0000
,  // measure 59
1000
0000
0010
1000
0010
0000
1000
0000
0001
0000
0010
0000
0100
0000
0110
0000
,  // measure 60
0010
0000
0001
0010
0001
0000
0010
0000
0001
0000
0100
0000
0010
0000
1000
0000
,  // measure 61
0001
0000
1000
0001
0000
1000
0001
0000
0010
0001
0000
0010
0001
0000
0010
0000
,  // measure 62
0100
0000
1000
0001
0000
1000
0001
0000
0100
0001
0000
0001
0010
0000
0100
0000
,  // measure 63
0010
0000
0001
0010
0001
0000
0010
0000
0100
0000
1000
0000
0010
0000
1010
0000
,  // measure 64
1000
0000
0001
1000
0010
0000
0001
0000
1000
0000
0100
0000
0001
0000
1000
0000
,  // measure 65
0001
0000
0010
0100
0000
0100
1000
0000
1000
0010
0000
0010
0001
0000
1000
0000
,  // measure 66
0100
0000
0001
0100
0000
0100
0010
0000
1000
0010
0000
0010
0100
0000
0010
0000
,  // measure 67
1000
0000
0001
1000
0001
0000
0010
0000
0100
0000
1000
0000
0010
0000
1010
0000
,  // measure 68
1000
0000
0001
0010
0001
0000
0010
0000
0100
0000
1000
0000
0001
0000
0010
0000
,  // measure 69
0100
0000
0010
0100
0000
0010
0100
0000
1000
0100
0000
1000
0100
0000
1000
0000
,  // measure 70
0001
0000
0100
0001
0000
0100
0001
0000
0100
0010
0000
0100
0020
0000
0000
0000
,  // measure 71
1030
0000
0010
1000
0000
0010
1000
0000
1000
0001
0000
1000
0001
0000
0010
0000
,  // measure 72
0001
0000
0010
0001
0000
0010
0001
0000
0010
0100
0000
0010
0200
0000
0000
0000
,  // measure 73
1300
0000
0100
1000
0000
1000
0010
0000
0100
0001
0000
0001
0010
0000
0100
0000
,  // measure 74
0010
0000
0001
0010
0000
0010
0100
0000
0100
1000
0000
1000
0020
0000
0000
0000
,  // measure 75
0130
0000
0010
0100
0000
0010
0100
0000
0010
1000
0001
0000
0010
0000
0001
0000
,  // measure 76
0100
0000
0001
1000
0000
1000
0100
0000
1000
0001
0000
0001
0020
0000
0000
0000
,  // measure 77
0130
0000
0000
0000
;
