#VERSION:0.81;
#TITLE:Honesty (feat. EileMonty);
#SUBTITLE:;
#ARTIST:Tsyolin & Haymaker;
#TITLETRANSLIT:;
#SUBTITLETRANSLIT:;
#ARTISTTRANSLIT:;
#GENRE:Country;
#ORIGIN:;
#CREDIT:;
#BANNER:Honesty (feat. EileMonty).png;
#BACKGROUND:Honesty (feat. EileMonty)-bg.png;
#PREVIEWVID:;
#JACKET:Honesty (feat. EileMonty)-jacket.png;
#CDIMAGE:;
#DISCIMAGE:;
#LYRICSPATH:;
#CDTITLE:;
#MUSIC:Honesty (feat. EileMonty).mp3;
#OFFSET:-7.572533;
#SAMPLESTART:54.195999;
#SAMPLELENGTH:15.000000;
#SELECTABLE:YES;
#BPMS:0.000=160.000;
#STOPS:;
#DELAYS:;
#WARPS:;
#TIMESIGNATURES:0.000=4=4;
#TICKCOUNTS:0.000=4;
#COMBOS:0.000=1;
#SPEEDS:0.000=1.000=0.000=0;
#SCROLLS:0.000=1.000;
#FAKES:;
#LABELS:0.000=Song Start;
#BGCHANGES:;
#KEYSOUNDS:;
#ATTACKS:
;

//---------------dance-single - ----------------
#NOTEDATA:;
#CHARTNAME:;
#STEPSTYPE:dance-single;
#DESCRIPTION:;
#CHARTSTYLE:;
#DIFFICULTY:Beginner;
#METER:2;
#RADARVALUES:0.092540,0.086784,0.000000,0.010448,0.000000,61.000000,0.000000,1.000000,0.000000,0.000000,0.000000,0.000000,0.000000,0.092540,0.086784,0.000000,0.010448,0.000000,61.000000,0.000000,1.000000,0.000000,0.000000,0.000000,0.000000,0.000000;
#CREDIT:;
#NOTES:
0001
0000
0000
0000
,
0100
0000
0000
0000
,
0010
0000
0000
0000
,
1000
0000
0000
0000
,
0010
0000
0000
0000
,
0100
0000
0000
0000
,
0001
0000
0000
0000
,
1000
0000
0000
0000
,
0100
0000
0000
0000
,
0010
0000
0000
0000
,
0001
0000
0000
0000
,
1000
0000
0000
0000
,
0010
0000
0000
0000
,
0100
0000
0000
0000
,
0001
0000
0000
0000
,
1000
0000
0000
0000
,
0100
0000
0000
0000
,
0010
0000
0000
0000
,
0100
0000
0000
0000
,
0010
0000
0000
0000
,
0001
0000
0000
0000
,
1000
0000
0000
0000
,
0001
0000
0000
0000
,
1000
0000
0000
0000
,
0010
0000
0000
0000
,
0100
0000
0000
0000
,
0001
0000
0000
0000
,
0010
0000
0000
0000
,
0100
0000
0000
0000
,
1000
0000
0000
0000
,
0010
0000
0000
0000
,
0000
0000
0000
0000
,
0100
0000
0100
0000
,
0100
0000
0000
0000
,
0001
0000
0001
0000
,
0001
0000
0000
0000
,
1000
0000
1000
0000
,
1000
0000
0000
0000
,
0010
0000
0010
0000
,
0010
0000
0000
0000
,
0100
0000
0000
0000
,
0010
0000
0000
0000
,
0100
0000
0100
0000
,
0100
0000
0000
0000
,
0001
0000
0000
0000
,
1000
0000
0000
0000
,
0001
0000
0001
0000
,
0001
0000
0000
0000
,
0010
0000
0000
0000
,
0100
0000
0000
0000
,
1000
0000
0000
0000
,
0001
0000
0000
0000
,
0100
0000
0000
0000
,
0010
0000
0000
0000
,
1000
0000
0000
0000
,
0002
0000
0000
0003
0000
0000
0000
0000
;

//---------------dance-single - ----------------
#NOTEDATA:;
#CHARTNAME:;
#STEPSTYPE:dance-single;
#DESCRIPTION:;
#CHARTSTYLE:;
#DIFFICULTY:Easy;
#METER:5;
#RADARVALUES:0.214931,0.209809,0.000000,0.010448,0.000000,143.000000,0.000000,1.000000,0.000000,0.000000,0.000000,0.000000,0.000000,0.214931,0.209809,0.000000,0.010448,0.000000,143.000000,0.000000,1.000000,0.000000,0.000000,0.000000,0.000000,0.000000;
#CREDIT:;
#NOTES:
0010
0000
0010
0000
,
1000
0100
1000
0000
,
0001
0000
0001
0000
,
0100
0010
0100
0000
,
0010
0000
0010
0000
,
1000
0001
1000
0000
,
0100
0000
0100
0000
,
0010
0001
0010
0000
,
0100
0000
1000
0000
,
0001
0100
0010
0000
,
1000
0000
0100
0000
,
0010
0001
1000
0000
,
0010
0000
1000
0000
,
0001
0100
1000
0000
,
0100
0000
0010
0000
,
1000
0000
0001
0000
,
0010
0000
0100
0000
,
0010
0000
0100
0000
,
1000
0000
0001
0000
,
1000
0000
0001
0000
,
0100
0000
0010
0000
,
0100
0000
0010
0000
,
1000
0000
0001
0000
,
1000
0000
0001
0000
,
0010
0000
0100
0000
,
1000
0000
0001
0000
,
0100
0000
0010
0000
,
1000
0000
0100
0000
,
0010
0000
0001
0000
,
1000
0000
0100
0000
,
1000
0000
0010
0000
,
0100
0000
0100
0000
,
0001
0001
1000
1000
,
0001
0010
0100
0000
,
1000
1000
0100
0100
,
0010
0001
1000
0000
,
0010
0010
0100
0100
,
0010
1000
0001
0000
,
0010
0010
0001
0001
,
1000
0010
0100
0000
,
1000
1000
0100
0100
,
0001
1000
0100
0000
,
0010
0010
0001
0001
,
1000
0010
0100
0000
,
0010
0010
0001
0001
,
1000
0100
0001
0000
,
0010
0010
0100
0100
,
1000
0001
0100
0000
,
0010
0000
1000
0000
,
0010
0000
1000
0000
,
0001
0000
0010
0000
,
0001
0000
0010
0000
,
0100
0000
1000
0000
,
0100
0000
1000
0000
,
0001
0000
0100
0000
,
0010
0000
0000
0020
0000
0000
0000
0000
,
0000
0000
0000
0000
,
0000
0000
0000
0030
0000
0000
0000
0000
;

//---------------dance-single - ----------------
#NOTEDATA:;
#CHARTNAME:;
#STEPSTYPE:dance-single;
#DESCRIPTION:;
#CHARTSTYLE:;
#DIFFICULTY:Medium;
#METER:6;
#RADARVALUES:0.311948,0.269755,0.000000,0.020896,0.000000,207.000000,0.000000,2.000000,0.000000,0.000000,0.000000,0.000000,0.000000,0.311948,0.269755,0.000000,0.020896,0.000000,207.000000,0.000000,2.000000,0.000000,0.000000,0.000000,0.000000,0.000000;
#CREDIT:;
#NOTES:
0010
1000
0100
0000
,
0010
0001
1000
0000
,
0010
0100
1000
0000
,
0100
0001
0010
0000
,
0100
1000
0001
0000
,
0100
0010
1000
0000
,
0001
0010
0100
0000
,
1000
0010
0100
0000
,
0001
0010
0100
0010
,
0001
1000
0010
0000
,
0100
1000
0100
0001
,
1000
0100
0010
0010
,
0001
0100
1000
0100
,
0010
1000
0100
0000
,
0010
0100
1000
0001
,
0100
0000
0000
0100
0000
0000
0010
0000
,
1000
0000
0100
0000
1000
0000
0000
1000
,
0000
0000
0001
0000
0100
0000
0000
0010
,
0000
0000
0100
0000
0001
0000
0000
1000
,
0000
0100
0010
0100
,
1000
0000
0001
0000
0100
0000
0000
0010
,
0000
0000
0001
0000
0010
0000
0000
1000
,
0000
0000
0001
0000
0010
0000
0000
0100
,
0000
1000
0010
0100
,
0001
0000
0010
0000
0100
0000
0000
1000
,
0000
0000
0100
0000
0010
0000
0000
0001
,
0000
0000
0100
0000
0010
0000
0000
1000
,
0000
0001
0020
0130
,
0000
1000
0000
0000
0001
0000
0000
0100
,
0000
0010
0000
0000
1000
0000
0000
0100
,
0000
1000
0000
0000
0001
0000
0000
0100
,
0000
0100
0010
0100
0010
0000
0100
0000
,
0010
1000
0100
1000
,
0001
0000
0100
0010
0000
0000
0100
0010
,
0000
1000
0100
0010
,
0001
0000
1000
0001
0000
0000
1000
0000
,
0001
0100
0000
0000
0010
0000
1000
0000
,
0100
1000
0010
0100
,
0001
1000
0000
1000
0001
0000
0010
0000
,
0100
0100
1000
0001
,
0100
0100
0010
0010
,
1000
0000
0100
0000
1000
0001
1000
0000
,
0010
0100
0001
1000
,
0100
0000
0010
0000
0100
1000
0100
0000
,
0010
0001
0100
1000
,
0100
0000
0010
0000
1000
0001
1000
0000
,
0100
0010
0001
1000
,
0010
0100
0100
0010
,
1000
0100
0010
0001
,
1000
0010
1000
1000
,
0001
0010
0100
1000
,
0010
0000
0100
0000
0001
0000
1000
0100
,
1000
0010
0100
1000
,
0100
0001
1000
0100
,
0010
0001
0100
0010
,
1000
0100
0010
0002
0000
0000
0000
0000
,
0000
0000
0000
0000
,
0000
0000
0000
0003
0000
0000
0000
0000
;

//---------------dance-single - ----------------
#NOTEDATA:;
#CHARTNAME:;
#STEPSTYPE:dance-single;
#DESCRIPTION:;
#CHARTSTYLE:;
#DIFFICULTY:Hard;
#METER:10;
#RADARVALUES:0.489564,0.419618,0.000000,0.031344,0.000000,325.000000,0.000000,3.000000,0.000000,0.000000,0.000000,0.000000,0.000000,0.489564,0.419618,0.000000,0.031344,0.000000,325.000000,0.000000,3.000000,0.000000,0.000000,0.000000,0.000000,0.000000;
#CREDIT:;
#NOTES:
0010
0000
1000
0000
0100
1000
0001
0100
,
0000
0100
0010
0000
0100
0001
1000
0000
,
0100
0000
0010
0000
0001
1000
0001
1000
,
0000
1000
0010
0000
0100
0001
0100
0000
,
0010
0000
1000
0000
0100
1000
0100
0010
,
0000
0010
0100
0000
1000
0001
1000
0000
,
0010
0000
0100
0000
0001
1000
0001
1000
,
0000
1000
0100
0000
0010
0000
0001
0000
,
1000
0010
1000
0010
0100
0001
0100
0001
,
1000
0100
1000
0100
0010
0000
0001
0000
,
0010
0001
0010
0001
1000
0010
1000
0010
,
0100
0001
0100
0001
1000
0000
0100
0000
,
0010
0100
0010
0100
1000
0001
1000
0001
,
0100
0010
0100
0010
1000
0000
0010
0000
,
0100
0001
1000
0000
0100
1000
0001
0000
,
0100
0010
1000
0001
0000
0001
0010
0000
,
0100
1000
0100
0000
0010
0000
0001
0000
,
0100
0010
1000
0010
0100
0001
1000
0100
,
0000
0010
0001
0000
1000
0000
0010
0000
,
0100
0001
1000
0100
0020
0000
0032
0000
,
1003
0100
1000
0000
0010
0000
0100
0000
,
0001
1000
0100
0010
0001
1000
0010
0000
,
0100
0000
0001
0000
1000
0100
1000
0100
,
0000
0100
1000
0001
0100
0000
0010
1000
,
0000
0001
0000
0100
0001
0000
0100
0010
,
0000
1000
0000
0100
1000
0000
0001
0100
,
0000
0010
0000
1000
0100
0000
0010
0001
,
0000
0100
0000
0010
0100
0000
0001
1000
,
0000
0100
0000
0010
0001
0000
1000
0010
,
0000
0100
0000
0001
1000
0000
0100
0010
,
0000
0100
1000
0000
0010
0000
0100
0001
,
0000
1000
0100
0010
0001
0000
0001
0010
,
0100
1000
0001
0000
0001
1000
0100
0000
,
0100
1000
0010
0100
0000
0100
0001
0010
,
0100
1000
0001
0000
0001
1000
0100
0000
,
0100
1000
0010
0100
0000
0100
0001
0000
,
0001
0010
1000
0000
1000
0010
0001
0000
,
0001
0010
1000
0000
1000
0010
0100
1000
,
0010
0100
0001
0000
0001
0100
0010
0000
,
0010
0100
0001
1000
0000
1000
0100
0000
,
0010
0001
0100
0000
0100
0001
1000
0000
,
1000
0001
0100
0010
0000
0010
0100
0001
,
0010
0100
0010
0000
0010
0001
0010
0000
,
0010
0100
0010
0000
0010
0001
0100
0010
,
0100
1000
0100
0000
0100
0001
1000
0000
,
1000
0100
0001
0000
0001
0100
1000
0000
,
1000
0010
0000
0010
0100
0000
0100
0001
,
1000
0100
0000
0100
1000
0000
0001
0000
,
0100
0000
0010
0000
1000
0100
1000
0001
,
0100
0000
0010
0000
0100
0001
1000
0000
,
0100
0000
0010
0000
0001
0100
1000
0100
,
0001
0000
0010
0000
0100
1000
0010
0000
,
0100
0000
1000
0000
0100
0001
1000
0100
,
0000
0100
0010
0000
0001
0000
1000
0000
,
0010
0100
0001
0000
1000
0000
0010
0000
,
0100
0001
0010
2000
0000
0000
0000
0000
,
0000
0000
0000
0000
,
0000
0000
0000
3000
0000
0000
0000
0000
;
