#TITLE:Good Girl;
#SUBTITLE:;
#ARTIST:Dasha & The Living Tombstone;
#TITLETRANSLIT:;
#SUBTITLETRANSLIT:;
#ARTISTTRANSLIT:;
#GENRE:Rock;
#CREDIT:;
#BANNER:Good Girl.png;
#BACKGROUND:Good Girl-bg.png;
#LYRICSPATH:;
#CDTITLE:;
#MUSIC:Good Girl.mp3;
#OFFSET:-0.051;
#SAMPLESTART:61.920;
#SAMPLELENGTH:15.000;
#SELECTABLE:YES;
#BPMS:0.000=124.000
;
#STOPS:
;
#BGCHANGES:;
#KEYSOUNDS:;
#ATTACKS:;

//---------------dance-single - ----------------
#NOTES:
     dance-single:
     :
     Easy:
     4:
     0.210,0.206,0.113,0.226,0.000,140.000,14.000,28.000,0.000,0.000,0.000,0.210,0.206,0.113,0.226,0.000,140.000,14.000,28.000,0.000,0.000,0.000:
0000
0000
0000
0000
,
0000
0000
0000
0000
,
0000
0000
0000
0000
,
0000
0000
0000
0000
,
0000
1000
0010
0100
,
0010
0010
1000
0001
,
2002
0000
3003
0000
,
0000
0000
0000
0000
,
0000
0001
0010
0100
,
0010
0010
0001
1000
,
2002
0003
3200
0000
,
0320
0000
0000
0000
,
0130
0000
0110
0000
,
0010
0000
0110
0000
,
0001
0000
1001
0000
,
1000
0000
1001
0000
,
0000
1000
0001
0100
,
0010
0010
1000
0001
,
2002
0000
3003
0000
,
0000
0000
0000
0000
,
0000
0001
1000
0100
,
0010
0010
0001
1000
,
2002
3000
0203
0000
,
0320
0000
0000
0000
,
0030
1000
1000
0010
,
0010
0001
0001
0010
,
0000
0010
0010
1000
,
1000
0001
0001
0100
,
0000
0001
0001
0100
,
0100
1000
1000
0100
,
0200
0000
0000
0000
,
0000
0000
0000
0310
,
0000
0010
1000
0100
,
0010
0010
0001
1000
,
2001
0001
0020
0030
,
0002
0000
0000
3003
,
0000
0010
0001
0100
,
0010
0010
1000
0001
,
2002
3000
0020
0030
,
0200
0000
0000
0303
,
0000
0010
0010
1000
,
0001
0010
0001
0010
,
0100
0100
1000
0001
,
0100
0010
0100
0010
,
1000
1000
0100
0010
,
0001
0100
0010
1000
,
2002
0000
0000
0000
,
3003
0000
0000
0000
,
0220
0000
0000
0000
,
0330
0000
0000
0000
,
2002
0000
0000
0000
,
3003
0000
0000
0000
,
1000
0000
1000
0100
,
0010
0000
0010
0001
,
0100
0000
0010
1000
,
0100
0000
0010
0100
,
0010
0000
0100
1000
,
0001
0000
0000
1000
0000
0000
0001
0000
,
2000
0000
0000
3010
,
0020
0000
0000
0000
,
0130
0000
0000
0000
,
0010
0000
0000
0000
,
1000
0000
0000
0000
,
0001
0000
0000
0110
;

//---------------dance-single - ----------------
#NOTES:
     dance-single:
     :
     Medium:
     7:
     0.428,0.412,0.315,0.251,0.004,301.000,39.000,31.000,0.000,0.000,0.000,0.428,0.412,0.315,0.251,0.004,301.000,39.000,31.000,0.000,0.000,0.000:
1000
0000
0000
0100
0000
0000
1100
0000
,
1000
0000
0000
0001
0000
0000
1001
0000
,
0001
0000
0000
0100
0000
0000
0101
0000
,
0100
0000
0000
0010
0000
0000
0110
0000
,
0000
0010
1000
0001
0010
0001
1000
0100
,
0000
0010
0001
0010
0000
0100
1000
0001
,
0100
0000
0000
0100
0000
0000
0110
0000
,
0010
0000
0000
0010
0000
0000
0110
0000
,
0000
0010
1000
0001
0010
0100
1000
0001
,
0000
0100
0100
0010
1000
0100
0010
0001
,
0200
0000
0000
0310
0200
0000
0000
0301
,
0100
0000
0000
0020
,
1030
0000
0000
1010
0000
0000
1001
0000
,
0001
0000
0000
0011
0000
0000
1001
0000
,
1000
0000
0000
1100
0000
0000
1001
0000
,
0001
0000
0000
0101
0000
0000
1001
0000
,
0000
1000
0100
0010
0100
1000
0010
0100
,
0000
0001
0010
0100
0000
0000
0010
0001
,
0100
0000
0000
0110
0000
0000
0010
0000
,
0100
0000
0000
1001
0000
0000
0010
0000
,
0000
0100
0001
0000
0001
0010
0100
0010
,
0000
0100
1000
0001
0200
0000
0301
1000
,
0020
0000
0000
0130
0020
0000
0000
1030
,
0010
0000
0000
0110
0000
0000
0100
0000
,
0000
0001
0010
0001
0100
0010
1000
0100
,
0000
0010
0002
0000
0103
0000
0200
0310
,
0000
0010
1000
0100
0010
0100
1000
0001
,
0000
0100
0010
0100
0010
0010
1020
0130
,
0000
0100
0001
0010
0100
0110
0000
1001
,
0000
0011
0010
0100
1000
0010
0100
0010
,
0002
0000
0000
0000
0000
0023
0000
1030
,
0100
0020
0000
0130
0000
0010
0110
0000
,
0000
0100
1000
0100
1000
0010
0100
0001
,
0000
0100
0010
1000
0001
0010
0001
0100
,
0010
0200
0000
0310
0200
0000
0000
0301
,
0200
0000
0000
0310
,
0000
0010
1000
0001
0010
0010
0100
0010
,
0000
0110
0000
0001
0010
0100
1000
0020
,
0000
0000
0000
0130
0020
0000
1030
0020
,
0000
0130
0000
0000
0000
0000
0110
0000
,
0010
1000
0100
1000
0010
0100
0001
0100
,
0000
0001
0000
0010
0100
0010
0001
0200
,
0301
0100
0000
0000
0010
1000
0010
2000
,
3010
0000
1000
0000
0000
0000
0001
0000
1000
0000
0000
0100
0000
0000
0010
0000
,
0110
0000
0100
0100
1000
0010
0100
0001
,
0000
1001
0000
1000
0100
0010
1000
0010
,
0002
0000
0000
0000
0000
0100
0103
0002
,
0000
1003
0000
0000
0000
0000
0001
2000
,
0000
0000
0000
0000
0000
0100
3100
2000
,
0000
3001
0000
0000
0000
0000
0100
0020
,
0000
0000
0000
1030
0020
0000
0130
0020
,
0000
0000
0000
0000
1030
0000
0010
0100
,
0001
0000
0001
0000
0001
0010
0001
0100
,
0010
0000
0010
0000
0010
1000
0010
0100
,
0001
0000
0001
0000
0001
0010
0100
1000
,
0100
0000
0100
0000
0100
0010
0100
1000
,
0100
0000
0100
0000
1000
0100
0010
0001
,
0021
0000
0000
0230
0000
0000
2300
0000
,
0001
0000
0001
0000
3001
1000
0100
0020
,
0100
0100
0100
0130
,
0110
0000
0000
0110
0000
0000
0110
0000
,
1001
0000
0000
1001
0000
0000
1001
0000
,
1100
0000
0000
0011
0000
0000
0101
0000
,
1010
0000
0000
1100
0000
0000
0011
0000
;

//---------------dance-single - ----------------
#NOTES:
     dance-single:
     :
     Hard:
     11:
     0.610,0.464,0.291,0.242,0.024,462.000,36.000,30.000,0.000,0.000,0.000,0.610,0.464,0.291,0.242,0.024,462.000,36.000,30.000,0.000,0.000,0.000:
0010
1000
1000
0001
0010
0010
0100
1000
,
0010
0000
1000
0000
1000
0000
0001
0000
0010
0000
0010
0000
0100
0000
0001
0100
,
0001
0100
1000
0001
0100
0100
0010
1000
,
0100
1000
1000
0001
0100
0100
0010
1000
,
0100
0010
0100
0010
0001
1000
0010
1010
,
0000
1000
0001
0011
0000
0010
0100
1000
,
0010
0100
0100
0001
0010
0010
0100
1000
,
0010
0100
0100
0001
0010
0010
0100
0010
,
0001
0100
0001
0100
0010
1000
0001
1001
,
0000
1000
0001
0010
0100
0010
0100
0010
,
0002
0000
1003
0001
0020
0000
0130
0010
,
0001
0000
0000
2000
,
3010
1000
1000
0001
0100
0100
0010
1000
,
0001
0010
0010
0100
1000
1000
0020
0130
,
0010
1000
1000
0001
0010
0010
0100
1000
,
0001
0100
0100
1000
0100
0100
0020
1030
,
0010
1000
0001
0010
0100
0010
0001
0101
,
0000
0100
0010
0110
0000
0010
1000
0100
,
0110
0100
0100
1000
0001
0001
0100
0010
,
1000
0100
0100
0001
0100
0100
1000
0010
,
0100
0001
0101
0000
0110
1000
0001
0011
,
0000
0010
0100
0010
0002
1003
0001
0100
,
0020
0000
1030
0010
0200
0000
0301
0100
,
0001
1000
1000
0100
0010
0010
0100
1000
,
0001
0100
0010
0100
0001
0010
0100
0110
,
0000
0100
2000
3010
1000
0001
0010
0100
,
0000
0010
0001
0100
0010
1000
0100
0110
,
0000
0010
0001
0100
0110
0110
1001
0000
,
1000
0100
1000
0010
0001
0010
0100
0110
,
0000
0101
0001
1000
0010
0100
0001
1000
,
0200
0000
0310
0100
0010
0100
0010
0100
,
1000
0001
1000
0001
0100
0010
0110
0000
,
0010
1000
0010
0100
0001
0100
0001
0011
,
0000
0010
0100
1000
0001
0100
0010
2000
,
3100
2000
0000
3001
2000
0000
3010
0100
,
0010
0100
0001
0100
0010
1000
0100
0010
,
0001
0100
0010
0010
1000
0100
0001
0101
,
0000
1100
0000
1000
0010
0100
0001
2000
,
0001
0010
0100
3001
2000
0000
3100
1100
,
0000
0110
0010
0001
0100
0010
1000
0100
,
0010
0100
1000
1000
0001
0100
0010
1010
,
0000
1001
0000
0101
0001
0010
0100
0020
,
0031
0010
0000
0100
2000
3010
1000
0200
,
0310
0000
0100
0000
1000
0000
0100
0000
0010
0000
0000
0110
0000
0000
0020
0000
,
0130
0000
0010
0010
0001
0100
0010
1010
,
0000
1001
0000
0011
0010
0100
1000
0020
,
0100
0000
1030
0010
0100
0002
1003
1100
,
0100
0010
0100
1000
0001
1000
0010
0200
,
0010
0310
0100
0001
2000
3010
1000
0001
,
0000
0010
0001
0011
0000
0010
0100
2000
,
0010
3001
1000
0100
0020
0031
0010
0110
,
0000
0100
1000
0010
0200
0000
0010
0310
,
0100
0001
0100
0001
1000
0002
1003
0001
,
1000
0100
1000
0100
0010
0200
0310
0100
,
1000
0100
0010
0001
1000
0010
0100
0002
,
1000
0100
0010
1000
0010
0100
1000
0103
,
0001
0010
0001
0010
0100
1000
0100
1000
,
1010
0000
0010
0110
0000
0100
0101
0000
,
0001
1000
0001
1000
0010
0200
0010
0301
,
0100
0000
0001
0000
1000
0000
0100
0000
0010
0000
0001
0000
1000
0010
1000
0000
,
0100
0000
0000
0000
0010
0000
0100
0000
0000
0000
0010
0000
0100
0000
0010
0001
,
0010
0000
0000
0000
0001
0000
0100
0000
0000
0000
0001
0000
0100
0000
0010
0100
,
0010
0000
0000
0000
1000
0000
0010
0000
0000
0000
1000
0000
0010
0000
1000
0100
,
1000
0000
0100
0010
0000
0100
0110
0000
;

//---------------dance-single - ----------------
#NOTES:
     dance-single:
     :
     Beginner:
     2:
     0.083,0.100,0.048,0.032,0.000,62.000,6.000,4.000,0.000,0.000,0.000,0.083,0.100,0.048,0.032,0.000,62.000,6.000,4.000,0.000,0.000,0.000:
0000
0000
0000
0000
,
0000
0000
0000
0000
,
0000
0000
0000
0000
,
0000
0000
0000
0000
,
1000
0000
0000
0000
,
1000
0000
0000
0000
,
0002
0000
0000
0000
,
0003
0000
0000
0000
,
0010
0000
0000
0000
,
0010
0000
0000
0000
,
0200
0000
0000
0000
,
0300
0000
0000
0000
,
1001
0000
0000
0000
,
1001
0000
0000
0000
,
0110
0000
0000
0000
,
0110
0000
0000
0000
,
0010
0000
0000
0000
,
0010
0000
0000
0000
,
0200
0000
0000
0000
,
0300
0000
0000
0000
,
0001
0000
0000
0000
,
0001
0000
0000
0000
,
2000
0000
0000
0000
,
3000
0000
0000
0000
,
0100
0000
0000
0000
,
0010
0000
0010
0000
,
0010
0000
0000
0000
,
0001
0000
0001
0000
,
0001
0000
0000
0000
,
1000
0000
1000
0000
,
1000
0000
0000
0000
,
0001
0000
0000
1000
,
1000
0000
0000
0000
,
0100
0000
0000
0000
,
0010
0000
0000
0000
,
0001
0000
0000
0000
,
0100
0000
0000
0000
,
0010
0000
0000
0000
,
0100
0000
0000
0000
,
0001
0000
0000
0000
,
0010
0000
0000
0000
,
0001
0000
0000
0000
,
1000
0000
0000
0000
,
0100
0000
0000
0000
,
1000
0000
0000
0000
,
0010
0000
0000
0000
,
0100
0000
0000
0000
,
0001
0000
0000
0000
,
1000
0000
0000
0000
,
0001
0000
0000
0000
,
1000
0000
0000
0000
,
0001
0000
0000
0000
,
0010
0000
0010
0000
,
0010
0000
0000
0000
,
0010
0000
0010
0000
,
0010
0000
0000
0000
,
0100
0000
0100
0000
,
0100
0000
0000
0000
,
0100
0000
0100
0000
,
0100
0000
0000
0000
,
0110
0000
0000
0000
,
0000
0000
0000
0000
,
1001
0000
0000
0000
;

//---------------dance-single - ----------------
#NOTES:
     dance-single:
     :
     Challenge:
     8:
     0.372,0.398,0.032,0.307,0.008,280.000,4.000,38.000,72.000,0.000,0.000,0.372,0.398,0.032,0.307,0.008,280.000,4.000,38.000,72.000,0.000,0.000: // measure 0
0000
0000
0000
0000
,  // measure 1
0000
0000
0000
0000
,  // measure 2
0000
0000
0000
0000
,  // measure 3
0000
0000
0000
0000
,  // measure 4
0000
0001
0010
0100
1000
0001
0100
0010
,  // measure 5
0000
0010
0100
0001
0000
0001
1000
0000
,  // measure 6
2100
0000
0000
3002
0000
0003
MMMM
0000
,  // measure 7
0021
0000
0000
0230
0000
0300
MMMM
0000
,  // measure 8
0000
1000
0010
0100
0001
1000
0100
0010
,  // measure 9
0000
0010
0001
0100
1000
0100
0010
0000
,  // measure 10
2010
0000
0000
3200
0000
0300
MMMM
0000
,  // measure 11
2002
0000
0000
3003
,  // measure 12
0010
0100
0001
1000
0100
0010
MMMM
0000
,  // measure 13
0001
0100
0010
1000
0100
0010
MMMM
0000
,  // measure 14
0100
1000
0001
0100
1000
0001
MMMM
0000
,  // measure 15
1000
0100
0010
1000
0001
0010
MMMM
0000
,  // measure 16
0000
0100
1000
0100
1000
0010
0100
0001
,  // measure 17
0000
0001
1000
0100
0000
0100
0010
0000
,  // measure 18
0002
0000
0000
2003
0000
3000
MMMM
0000
,  // measure 19
0002
0000
0000
0023
0000
0030
MMMM
0000
,  // measure 20
0000
0010
1000
0000
0100
0000
0010
0100
,  // measure 21
0000
0100
1000
0001
0100
0000
0010
0000
,  // measure 22
0200
0000
0000
0302
0000
0003
MMMM
0000
,  // measure 23
2000
0000
0000
3200
0000
0300
MMMM
0000
,  // measure 24
0000
0010
0001
0100
0010
0100
0001
1000
,  // measure 25
0000
0100
2000
0000
3020
0000
0130
0000
,  // measure 26
0000
0001
0010
0100
1000
0100
0010
0001
,  // measure 27
0000
0100
0000
0010
1000
0001
0100
0000
,  // measure 28
0000
0001
0010
0000
0100
1000
0000
0001
,  // measure 29
0000
0100
0010
0100
0001
0010
0100
0001
,  // measure 30
2000
0000
0000
3002
0000
0003
MMMM
0000
,  // measure 31
0200
0000
0000
0320
0000
0030
MMMM
0000
,  // measure 32
0001
0100
0010
0100
0001
1000
0100
0010
,  // measure 33
0000
0100
1000
0010
0001
0010
0100
0001
,  // measure 34
0000
1000
0020
0000
0032
0000
0003
0100
,  // measure 35
1000
0010
0100
0002
0000
0003
MMMM
0000
,  // measure 36
0000
1000
0010
0100
0001
0010
0100
0010
,  // measure 37
0000
0010
0000
0001
0100
0010
0100
0001
,  // measure 38
2000
0000
3200
0000
0320
0000
0030
0002
,  // measure 39
1000
0000
0000
2003
0000
3000
MMMM
0000
,  // measure 40
0000
1000
0010
0100
0001
0010
0100
1000
,  // measure 41
0000
0001
0000
0100
0010
0100
0001
1000
,  // measure 42
0000
0100
0000
0100
0010
0001
1000
0010
,  // measure 43
0100
0000
0001
0000
0000
0000
0001
0000
1000
0000
0000
0100
0000
0000
1000
0000
,  // measure 44
0000
1000
0010
0100
0001
0010
0100
1000
,  // measure 45
0000
1000
0000
0001
0100
0010
0100
0001
,  // measure 46
0020
0000
0100
0000
0001
0000
0130
1000
,  // measure 47
0000
0010
0000
0100
0000
0001
1000
0200
,  // measure 48
0000
0000
0310
0001
0100
0000
0010
0100
,  // measure 49
0000
0100
0001
1000
0000
0100
1000
0020
,  // measure 50
0000
0000
0130
0000
0001
0000
0010
0001
,  // measure 51
0000
0000
0001
0000
1000
0000
0000
0000
0010
0000
0000
0100
0000
0000
0002
0000
,  // measure 52
1000
0000
0103
0000
0010
1000
0001
0010
,  // measure 53
0200
1000
0310
MMMM
,  // measure 54
0010
0000
0001
0000
0100
1000
0100
0000
,  // measure 55
0020
1000
0130
MMMM
,  // measure 56
0010
0001
1000
0100
1000
0001
0010
0100
,  // measure 57
2000
0010
3001
MMMM
,  // measure 58
0010
0001
0100
1000
0100
0001
0010
0100
,  // measure 59
1000
0010
0100
0001
0010
0100
1000
0001
,  // measure 60
0200
0000
0000
0000
,  // measure 61
0000
0000
0300
0000
;
