#TITLE:Glide (feat. Feather & memj0123);
#SUBTITLE:;
#ARTIST:DongleKumquat;
#TITLETRANSLIT:;
#SUBTITLETRANSLIT:;
#ARTISTTRANSLIT:;
#GENRE:Trance;
#CREDIT:;
#BANNER:Glide (feat. Feather & memj0123).png;
#BACKGROUND:Glide (feat. Feather & memj0123)-bg.png;
#LYRICSPATH:;
#CDTITLE:;
#MUSIC:Glide (feat. Feather & memj0123).mp3;
#OFFSET:-0.078292;
#SAMPLESTART:75.039993;
#SAMPLELENGTH:15.000000;
#SELECTABLE:YES;
#BPMS:0.000000=128.000000
;
#STOPS:
;
#BGCHANGES:;
#KEYSOUNDS:;
#ATTACKS:;

//---------------dance-single - ----------------
#NOTES:
     dance-single:
     :
     Medium:
     5:
     0.175659,0.199228,0.054476,0.093388,0.000000,139.000000,7.000000,12.000000,0.000000,0.000000,0.000000,0.175659,0.199228,0.054476,0.093388,0.000000,139.000000,7.000000,12.000000,0.000000,0.000000,0.000000:
// measure 0
0000
0000
0000
0000
,  // measure 1
0000
0000
0000
0000
,  // measure 2
0000
0000
0000
0000
,  // measure 3
0000
0000
0000
0000
,  // measure 4
0000
1100
0000
0101
,  // measure 5
0000
1100
0000
0101
,  // measure 6
0000
1010
0000
0011
,  // measure 7
0000
0000
0001
0010
,  // measure 8
0200
0000
0000
0000
,  // measure 9
1000
0000
1000
0000
,  // measure 10
0010
0000
0310
0100
,  // measure 11
2000
0000
3001
0001
,  // measure 12
0200
0000
0000
0000
,  // measure 13
0001
0000
0001
0000
,  // measure 14
0010
0000
0310
0100
,  // measure 15
0020
0000
0000
0000
,  // measure 16
1030
1000
1000
0000
,  // measure 17
0001
0001
0001
0000
,  // measure 18
0010
0010
0010
0100
,  // measure 19
2000
0000
0000
0000
,  // measure 20
3001
0001
0002
0000
,  // measure 21
0100
0000
0100
0000
,  // measure 22
1000
0000
1000
0000
,  // measure 23
0010
0000
0013
0001
,  // measure 24
0200
0000
0000
0310
,  // measure 25
0010
1000
0000
0001
,  // measure 26
1000
0000
1000
0100
,  // measure 27
0001
0000
0001
0100
,  // measure 28
0020
0000
0001
0000
,  // measure 29
0100
0000
1000
0000
,  // measure 30
0100
0000
0001
0000
,  // measure 31
0100
0000
1030
0010
,  // measure 32
0001
0001
0001
0200
,  // measure 33
0000
0000
0000
0310
,  // measure 34
0010
1000
0002
0000
,  // measure 35
1000
0000
1003
0001
,  // measure 36
1000
0100
0020
0000
,  // measure 37
0100
0000
0001
0000
,  // measure 38
0230
0000
0000
0000
,  // measure 39
0000
0000
0000
0000
,  // measure 40
0310
0000
0010
0000
0000
0010
0000
0010
,  // measure 41
0000
0000
0000
0000
,  // measure 42
0100
0000
0000
0100
0000
0100
0000
0100
,  // measure 43
0000
0000
0000
0000
,  // measure 44
1000
0000
0000
1000
0000
1000
0000
1000
,  // measure 45
0000
0000
0000
0000
,  // measure 46
0001
0000
0000
0001
0000
0001
0000
0001
,  // measure 47
0000
0000
0000
0000
,  // measure 48
0010
0000
0000
0010
0000
0010
0000
0010
,  // measure 49
0000
0000
0000
0000
,  // measure 50
0001
0000
0000
0001
0000
0001
0000
0001
,  // measure 51
0000
0000
0000
0000
,  // measure 52
1000
0000
0000
1000
0000
1000
0000
1000
,  // measure 53
0000
0000
0000
0000
,  // measure 54
0100
0000
0000
0100
0000
0100
0000
0100
,  // measure 55
0000
0000
0000
0000
,  // measure 56
0010
0001
0010
0001
,  // measure 57
0100
0000
0100
0000
,  // measure 58
0010
0100
0010
0100
,  // measure 59
0001
0000
1000
0000
,  // measure 60
0100
1000
0100
1000
,  // measure 61
0010
0000
0010
0000
,  // measure 62
0100
0010
0100
0010
,  // measure 63
1000
0000
0001
0000
,  // measure 64
1001
0000
0000
0000
;

//---------------dance-single - ----------------
#NOTES:
     dance-single:
     :
     Beginner:
     1:
     0.057812,0.049807,0.000000,0.000000,0.000000,52.000000,0.000000,0.000000,0.000000,0.000000,0.000000,0.057812,0.049807,0.000000,0.000000,0.000000,52.000000,0.000000,0.000000,0.000000,0.000000,0.000000:
// measure 0
0000
0000
0000
0000
,  // measure 1
0000
0000
0000
0000
,  // measure 2
0000
0000
0000
0000
,  // measure 3
0000
0000
0000
0000
,  // measure 4
0000
0000
0000
0000
,  // measure 5
0000
0000
0000
0000
,  // measure 6
0000
0000
0000
0000
,  // measure 7
0000
0000
0000
0000
,  // measure 8
0010
0000
0000
0000
,  // measure 9
0100
0000
0000
0000
,  // measure 10
0001
0000
0000
0000
,  // measure 11
1000
0000
0000
0000
,  // measure 12
0100
0000
0000
0000
,  // measure 13
0010
0000
0000
0000
,  // measure 14
0001
0000
0000
0000
,  // measure 15
1000
0000
0000
0000
,  // measure 16
0010
0000
0000
0000
,  // measure 17
0100
0000
0000
0000
,  // measure 18
0010
0000
0000
0000
,  // measure 19
0000
0000
0000
0000
,  // measure 20
1000
0000
0000
0000
,  // measure 21
0001
0000
0000
0000
,  // measure 22
1000
0000
0000
0000
,  // measure 23
0000
0000
0000
0000
,  // measure 24
0100
0000
0000
0000
,  // measure 25
0010
0000
0000
0000
,  // measure 26
0100
0000
0000
0000
,  // measure 27
0010
0000
0000
0000
,  // measure 28
0001
0000
0000
0000
,  // measure 29
1000
0000
0000
0000
,  // measure 30
0001
0000
0000
0000
,  // measure 31
1000
0000
0000
0000
,  // measure 32
0010
0000
0000
0000
,  // measure 33
0100
0000
0000
0000
,  // measure 34
0010
0000
0000
0000
,  // measure 35
0100
0000
0000
0000
,  // measure 36
0001
0000
0000
0000
,  // measure 37
1000
0000
0000
0000
,  // measure 38
0001
0000
0000
0000
,  // measure 39
0000
0000
0000
0000
,  // measure 40
1000
0000
0000
0000
,  // measure 41
1000
0000
0000
0000
,  // measure 42
0010
0000
0000
0000
,  // measure 43
0010
0000
0000
0000
,  // measure 44
0100
0000
0000
0000
,  // measure 45
0100
0000
0000
0000
,  // measure 46
0001
0000
0000
0000
,  // measure 47
0001
0000
0000
0000
,  // measure 48
0010
0000
0000
0000
,  // measure 49
0100
0000
0000
0000
,  // measure 50
0010
0000
0000
0000
,  // measure 51
0100
0000
0000
0000
,  // measure 52
1000
0000
0000
0000
,  // measure 53
0001
0000
0000
0000
,  // measure 54
1000
0000
0000
0000
,  // measure 55
0001
0000
0000
0000
,  // measure 56
0100
0000
0000
0000
,  // measure 57
0010
0000
0000
0000
,  // measure 58
0100
0000
0000
0000
,  // measure 59
0000
0000
0000
0000
,  // measure 60
0001
0000
0000
0000
,  // measure 61
1000
0000
0000
0000
,  // measure 62
0001
0000
0000
0000
,  // measure 63
0000
0000
0000
0000
,  // measure 64
0010
0000
0000
0000
;

//---------------dance-single - ----------------
#NOTES:
     dance-single:
     :
     Easy:
     3:
     0.116735,0.179772,0.000000,0.015565,0.000000,103.000000,0.000000,2.000000,0.000000,0.000000,0.000000,0.116735,0.179772,0.000000,0.015565,0.000000,103.000000,0.000000,2.000000,0.000000,0.000000,0.000000:
// measure 0
0000
0000
0000
0000
,  // measure 1
0000
0000
0000
0000
,  // measure 2
0000
0000
0000
0000
,  // measure 3
0000
0000
0000
0000
,  // measure 4
0000
0000
0000
0000
,  // measure 5
0000
0000
0000
0000
,  // measure 6
0000
0000
0000
0000
,  // measure 7
0000
0000
0000
0000
,  // measure 8
0010
0000
1000
0000
,  // measure 9
0010
0000
0000
0000
,  // measure 10
0100
0000
0001
0000
,  // measure 11
0100
0000
0000
0000
,  // measure 12
0001
0000
1000
0000
,  // measure 13
0001
0000
0000
0000
,  // measure 14
0010
0000
0100
0000
,  // measure 15
0010
0000
0000
0000
,  // measure 16
0100
0000
1000
0000
,  // measure 17
0100
0000
0000
0000
,  // measure 18
0010
0000
0001
0000
,  // measure 19
0010
0000
0000
0000
,  // measure 20
0100
0000
0001
0000
,  // measure 21
0100
0000
0000
0000
,  // measure 22
1000
0000
0010
0000
,  // measure 23
1000
0000
0000
0000
,  // measure 24
0001
0000
0100
0000
,  // measure 25
1000
0000
0100
0000
,  // measure 26
0001
0000
1000
0000
,  // measure 27
0100
0000
0000
0000
,  // measure 28
0010
0000
0001
0000
,  // measure 29
0100
0000
1000
0000
,  // measure 30
0001
0000
0010
0000
,  // measure 31
1000
0000
0000
0000
,  // measure 32
0001
0000
0010
0000
,  // measure 33
0100
0000
0001
0000
,  // measure 34
0100
0000
1000
0000
,  // measure 35
0010
0000
0000
0000
,  // measure 36
0001
0000
1000
0000
,  // measure 37
0100
0000
0001
0000
,  // measure 38
0020
0000
0000
0000
,  // measure 39
0030
0000
0000
0000
,  // measure 40
0100
0000
1000
0000
,  // measure 41
0010
0000
0100
0000
,  // measure 42
0001
0000
0000
0000
,  // measure 43
1000
0000
0000
0000
,  // measure 44
0100
0000
0010
0000
,  // measure 45
0100
0000
1000
0000
,  // measure 46
0001
0000
0000
0000
,  // measure 47
0100
0000
0000
0000
,  // measure 48
0010
0000
1000
0000
,  // measure 49
0100
0000
1000
0000
,  // measure 50
0001
0000
0000
0000
,  // measure 51
0100
0000
0000
0000
,  // measure 52
0010
0000
0100
0000
,  // measure 53
0001
0000
1000
0000
,  // measure 54
0100
0000
0000
0000
,  // measure 55
0010
0000
0000
0000
,  // measure 56
0001
1000
0001
1000
,  // measure 57
0010
1000
0010
0000
,  // measure 58
0100
0001
0100
0001
,  // measure 59
1000
0001
1000
0000
,  // measure 60
0100
0010
0100
0010
,  // measure 61
0001
0010
0001
0000
,  // measure 62
1000
0010
1000
0001
,  // measure 63
0100
0001
1000
0000
,  // measure 64
0200
0000
0000
0000
,  // measure 65
0000
0000
0000
0000
,  // measure 66
0300
0000
0000
0000
;

//---------------dance-single - ----------------
#NOTES:
     dance-single:
     :
     Hard:
     9:
     0.337976,0.385226,0.000000,0.085606,0.186776,293.000000,0.000000,11.000000,0.000000,0.000000,0.000000,0.337976,0.385226,0.000000,0.085606,0.186776,293.000000,0.000000,11.000000,0.000000,0.000000,0.000000:
// measure 0
0000
0000
0000
0000
,  // measure 1
0000
0000
0000
0000
,  // measure 2
0000
0000
0000
0000
,  // measure 3
0000
0000
0000
0000
,  // measure 4
0000
0000
0000
0000
,  // measure 5
0000
0000
0000
0000
,  // measure 6
0000
0000
0000
0000
,  // measure 7
0000
0000
0000
0000
,  // measure 8
0010
0000
0100
0000
0010
0000
1000
0000
0100
0000
1000
0000
,  // measure 9
0001
0000
0010
0000
0001
0000
0100
0000
0010
0000
0100
0000
,  // measure 10
0001
0000
1000
0000
0100
0000
0010
0000
0001
0000
0100
0000
,  // measure 11
0010
0000
0100
0000
1000
0000
0100
0000
0001
0000
1000
0000
,  // measure 12
0100
0000
0010
0001
0100
0000
0010
1000
,  // measure 13
0100
0000
1000
0001
0100
0000
0010
0100
,  // measure 14
0001
0000
1000
0100
0010
0000
0100
1000
,  // measure 15
0010
0000
0100
0001
1000
0000
0100
0000
,  // measure 16
0010
0001
0100
0000
0010
0100
0001
0000
,  // measure 17
1000
0100
0010
0100
1000
0001
0100
0000
,  // measure 18
0010
1000
0001
0000
0010
0001
0100
0000
,  // measure 19
1000
0100
0010
1000
0001
0010
0100
0000
,  // measure 20
1000
0001
0100
0000
0001
0010
0100
0000
,  // measure 21
0010
0001
1000
0100
1000
0001
0100
0000
,  // measure 22
0010
1000
0100
1000
0001
0100
0010
0100
,  // measure 23
0001
1000
0100
0010
0001
1000
0100
0000
,  // measure 24
0020
0000
0001
0000
0100
0000
0031
0100
,  // measure 25
0020
0000
1000
0000
0100
0000
1030
0100
,  // measure 26
0020
0000
1000
0000
0001
0000
0130
1000
,  // measure 27
0020
0000
0100
0000
0001
0000
1030
0001
,  // measure 28
2000
0000
0001
0000
0100
0000
3001
0100
,  // measure 29
0020
0000
1000
0000
0100
0000
1030
0001
,  // measure 30
0020
0000
0100
0000
1000
0000
0031
0200
,  // measure 31
0010
1000
0001
0310
,  // measure 32
1000
0000
0100
0000
0010
0000
0001
0100
,  // measure 33
0000
0100
0010
0000
1000
0000
0100
0010
,  // measure 34
0100
0000
1000
0000
0001
0000
0100
0010
,  // measure 35
0000
0010
0100
0000
0001
0000
1000
0000
,  // measure 36
0100
0010
0001
0100
,  // measure 37
0010
1000
0100
0010
,  // measure 38
0002
0000
0000
0000
,  // measure 39
0000
0000
0000
0000
,  // measure 40
1003
0000
0010
0000
0100
0000
0001
0000
1000
0000
0100
0000
,  // measure 41
0010
0000
0001
0000
1000
0000
0010
0000
0100
0000
0001
0000
,  // measure 42
1000
0000
0100
0000
0010
0000
0001
0000
0010
0000
0100
0000
,  // measure 43
1000
0000
0010
0000
0100
0000
1000
0000
0100
0000
0001
0000
,  // measure 44
0010
0000
0100
0000
1000
0000
0001
0000
0100
0000
0010
0000
,  // measure 45
1000
0000
0001
0000
0010
0000
0100
0000
1000
0000
0010
0000
,  // measure 46
0100
0000
0001
0000
0010
0000
0100
0000
0010
0000
1000
0000
,  // measure 47
0010
0000
0001
0000
0100
0000
0010
0000
1000
0000
0100
0000
,  // measure 48
0020
0000
0031
0100
0000
0010
0000
1000
,  // measure 49
0000
0100
0000
1000
0000
0010
0000
0100
,  // measure 50
1000
0000
0100
0001
0000
0010
0000
0100
,  // measure 51
0000
1000
0000
0010
0000
0100
0000
0001
,  // measure 52
1000
0000
0100
0010
0000
0001
0000
0100
,  // measure 53
0010
0000
0100
0000
0001
1000
0100
0000
,  // measure 54
0010
0000
0100
1000
0000
0010
0000
0100
,  // measure 55
0001
0000
0010
0000
0100
1000
0000
0001
,  // measure 56
0100
0000
0010
0000
0100
0000
0001
1000
,  // measure 57
0000
0000
0100
0000
0010
0000
0001
0100
,  // measure 58
0010
0000
0100
0000
1000
0000
0100
0001
,  // measure 59
0000
0000
0010
0000
0100
0000
1000
0001
,  // measure 60
0100
0000
0010
0000
1000
0000
0100
1000
,  // measure 61
0001
0000
0100
0000
0010
0000
0100
0001
,  // measure 62
0010
0000
0100
1000
0001
0000
0100
0010
,  // measure 63
1000
0100
0010
0001
,  // measure 64
2000
0000
0000
0000
,  // measure 65
0000
0000
0000
0000
,  // measure 66
3000
0000
0000
0000
;
