#VERSION:0.81;
#TITLE:For The New Lunar Republic [Remix];
#SUBTITLE:;
#ARTIST:General Mumble befriends Not A Clever Pony;
#TITLETRANSLIT:;
#SUBTITLETRANSLIT:;
#ARTISTTRANSLIT:;
#GENRE:Electro;
#ORIGIN:;
#CREDIT:;
#BANNER:For The New Lunar Republic [Remix].png;
#BACKGROUND:For The New Lunar Republic [Remix]-bg.png;
#PREVIEWVID:;
#JACKET:For The New Lunar Republic [Remix]-jacket.png;
#CDIMAGE:;
#DISCIMAGE:;
#LYRICSPATH:;
#CDTITLE:;
#MUSIC:For The New Lunar Republic [Remix].mp3;
#OFFSET:-7.808000;
#SAMPLESTART:15.480000;
#SAMPLELENGTH:15.000000;
#SELECTABLE:YES;
#BPMS:0.000=124.945;
#STOPS:;
#DELAYS:;
#WARPS:;
#TIMESIGNATURES:0.000=4=4;
#TICKCOUNTS:0.000=4;
#COMBOS:0.000=1;
#SPEEDS:0.000=1.000=0.000=0;
#SCROLLS:0.000=1.000;
#FAKES:;
#LABELS:0.000=Song Start;
#BGCHANGES:;
#KEYSOUNDS:;
#ATTACKS:
;

//---------------dance-single - ----------------
#NOTEDATA:;
#CHARTNAME:;
#STEPSTYPE:dance-single;
#DESCRIPTION:;
#CHARTSTYLE:;
#DIFFICULTY:Hard;
#METER:12;
#RADARVALUES:0.512697,0.500471,0.038180,0.127265,0.343616,269.000000,3.000000,10.000000,0.000000,0.000000,0.000000,0.000000,0.000000,0.512697,0.500471,0.038180,0.127265,0.343616,269.000000,3.000000,10.000000,0.000000,0.000000,0.000000,0.000000,0.000000;
#CREDIT:;
#NOTES:
// measure 0
1000
0010
0100
0001
1000
0100
0010
0001
,  // measure 1
1000
0010
0000
1000
0010
0000
0100
0000
0001
0000
1000
0000
0100
0000
0010
0000
,  // measure 2
0001
0100
0010
0100
0001
1000
0100
0010
,  // measure 3
0001
1000
0000
0001
1000
0000
0010
0000
0100
0000
0001
0000
1000
0000
0100
0000
,  // measure 4
0010
0001
0100
0010
0100
0001
1000
0100
,  // measure 5
0000
0010
0000
0001
0010
0000
0100
0000
1000
0000
0001
0000
0100
0000
0010
0000
,  // measure 6
1000
0100
0001
0100
1000
0010
0100
0001
,  // measure 7
0000
1000
0000
0100
1000
0000
0010
0000
0100
0000
0001
0000
0100
0000
0010
0000
,  // measure 8
1000
0001
0010
0100
0010
0001
1000
0010
,  // measure 9
0000
0100
0000
0001
0100
0000
0010
0000
1000
0000
0001
0000
0010
0000
0100
0000
,  // measure 10
1000
0100
0010
0001
0100
0010
0100
0001
,  // measure 11
0000
1000
0000
0100
1000
0000
0010
0000
0100
0000
0001
0000
1000
0000
0100
0000
,  // measure 12
0010
0000
0001
0000
0100
0000
0010
1000
0010
0000
0100
0001
0000
0100
0001
0000
,  // measure 13
0100
0010
0000
1000
0010
0000
0100
0000
0001
1000
0001
0000
0100
0010
0100
0010
,  // measure 14
0100
0000
0001
0000
1000
0000
0100
0010
0100
0000
1000
0010
0000
1000
0010
0000
,  // measure 15
0100
0001
0000
1000
0100
0000
0010
0000
0001
0100
0001
0000
1000
0001
1000
0001
,  // measure 16
1000
0000
0010
0000
0100
0000
0001
1000
0001
0000
0100
0010
0000
0100
0010
0000
,  // measure 17
1000
0001
0000
0100
0010
0000
0100
0000
0001
1000
0001
0000
0010
0100
0010
0100
,  // measure 18
0010
0000
0001
0000
0100
0000
0010
1000
0010
0000
0100
0001
0000
0100
0001
0000
,  // measure 19
1000
0100
0000
0010
0001
0000
1000
0000
0010
0100
0010
0000
1000
0001
1000
0001
,  // measure 20
2000
0010
0100
0001
,  // measure 21
3020
0100
1000
0001
,  // measure 22
0230
0001
1000
0010
,  // measure 23
0302
1000
0010
0100
,  // measure 24
2003
0010
0100
0001
,  // measure 25
3200
0001
0010
1000
,  // measure 26
0320
0001
0100
1000
,  // measure 27
0032
1000
0010
0100
,  // measure 28
1003
0000
0000
1000
0100
0000
1000
0000
0000
0000
0010
0000
0100
0000
0000
0000
,  // measure 29
0001
0000
0000
0001
0010
0000
0100
0000
0000
0000
0010
0000
0001
0000
0000
0000
,  // measure 30
0100
0000
0000
0100
0010
0000
1000
0000
0000
0000
0100
0000
1000
0000
0000
0000
,  // measure 31
0010
0000
0000
0010
0100
0000
0001
0000
0000
0000
1000
0000
0100
0000
0000
0000
,  // measure 32
0100
0000
0000
0100
1000
0000
0001
0000
0000
0000
0100
0000
0010
0000
0000
0000
,  // measure 33
0100
0000
0000
0001
1000
0000
0100
0000
0000
0000
0010
0000
0001
0000
0000
0000
,  // measure 34
1000
0000
0010
0000
0100
0001
0100
0000
0020
0000
1030
0000
0100
0010
0200
0000
,  // measure 35
1300
0000
0000
1100
0000
0000
0010
0000
0000
0101
0000
0000
1001
0000
0000
0000
;

//---------------dance-single - ----------------
#NOTEDATA:;
#CHARTNAME:;
#STEPSTYPE:dance-single;
#DESCRIPTION:;
#CHARTSTYLE:;
#DIFFICULTY:Medium;
#METER:7;
#RADARVALUES:0.334526,0.341230,0.318163,0.254531,0.012727,139.000000,25.000000,20.000000,0.000000,0.000000,0.000000,0.000000,0.000000,0.334526,0.341230,0.318163,0.254531,0.012727,139.000000,25.000000,20.000000,0.000000,0.000000,0.000000,0.000000,0.000000;
#CREDIT:Lirodon;
#NOTES:
// measure 0
0000
0000
0000
0000
,  // measure 1
0000
0000
0000
0000
,  // measure 2
0000
0000
0000
0000
,  // measure 3
0000
0000
0000
0000
,  // measure 4
0010
0000
1010
0000
1000
0100
0010
0000
,  // measure 5
0002
0103
0021
1030
,  // measure 6
0001
0000
1001
0000
0010
1000
0100
0000
,  // measure 7
1000
0000
0110
0000
1000
0001
0010
0000
,  // measure 8
2000
3010
0200
0301
,  // measure 9
0001
0000
1010
0000
0010
1000
0100
0000
,  // measure 10
0010
0000
0101
0000
0001
0010
0100
0000
,  // measure 11
0002
0013
2000
3001
,  // measure 12
0010
0000
1001
0000
0100
0001
0010
0000
,  // measure 13
0001
0000
0110
0000
0010
0001
0100
0000
,  // measure 14
2000
3100
0020
1030
,  // measure 15
1000
0000
0101
0000
0100
0001
0010
0000
,  // measure 16
0100
0000
1001
0000
0100
0010
1000
0000
,  // measure 17
0200
1300
0002
0013
,  // measure 18
0010
0000
1100
0000
1000
0100
0001
0000
,  // measure 19
1000
0000
0011
0000
0010
0001
0100
0000
,  // measure 20
2000
0000
0000
0000
0010
0000
0000
3000
,  // measure 21
0200
0000
0000
0000
0010
0000
0000
0300
,  // measure 22
0002
0000
0000
0000
1000
0000
0000
0003
,  // measure 23
0020
0000
0000
0000
0100
0000
0000
0030
,  // measure 24
0200
0000
1000
0000
0001
0000
0001
0300
,  // measure 25
2000
0000
0010
0000
0100
0000
0001
3000
,  // measure 26
0020
0000
0001
0000
1000
0000
1000
0030
,  // measure 27
0002
0100
0100
1003
,  // measure 28
1010
0100
0001
0000
0100
0000
1000
0000
,  // measure 29
1001
0010
0100
0000
0011
0000
0010
0000
,  // measure 30
1001
0100
0001
0000
1100
0000
0100
0000
,  // measure 31
0101
0010
1000
0000
0010
0000
0001
0000
,  // measure 32
1001
0100
0010
0000
1100
0000
0100
0000
,  // measure 33
1001
0010
1000
0000
0011
0000
0010
0000
,  // measure 34
2000
0010
0010
3000
0002
0000
0013
0000
,  // measure 35
1100
0000
0000
0100
0000
0000
0110
0000
0000
0010
0000
0000
0011
0000
0000
0000
;

//---------------dance-single - ----------------
#NOTEDATA:;
#CHARTNAME:;
#STEPSTYPE:dance-single;
#DESCRIPTION:;
#CHARTSTYLE:;
#DIFFICULTY:Easy;
#METER:5;
#RADARVALUES:0.292710,0.272984,0.292710,0.279984,0.000000,116.000000,23.000000,22.000000,0.000000,0.000000,0.000000,0.000000,0.000000,0.292710,0.272984,0.292710,0.279984,0.000000,116.000000,23.000000,22.000000,0.000000,0.000000,0.000000,0.000000,0.000000;
#CREDIT:;
#NOTES:
// measure 0
0000
0000
0000
0000
,  // measure 1
0000
0000
0000
0000
,  // measure 2
0000
0000
0000
0000
,  // measure 3
0000
0000
0000
0000
,  // measure 4
0010
1010
1000
0010
,  // measure 5
0002
0103
0021
1030
,  // measure 6
0001
1001
0010
0100
,  // measure 7
1000
0110
1000
0010
,  // measure 8
2000
3010
0200
0301
,  // measure 9
0001
1010
0010
0100
,  // measure 10
0010
0101
0001
0100
,  // measure 11
0002
0013
2000
3001
,  // measure 12
0000
1001
0100
0010
,  // measure 13
0001
0110
0010
0100
,  // measure 14
2000
3100
0020
1030
,  // measure 15
1000
0101
0100
0010
,  // measure 16
0100
1001
0100
1000
,  // measure 17
0002
1003
0200
0310
,  // measure 18
0010
1100
1000
0001
,  // measure 19
1000
0011
0010
0100
,  // measure 20
2000
0000
0000
0000
0010
0000
0000
3000
,  // measure 21
0200
0000
0000
0000
0010
0000
0000
0300
,  // measure 22
0002
0000
1000
0000
1000
0000
0000
0003
,  // measure 23
0020
0000
0100
0000
0100
0000
0000
0030
,  // measure 24
0200
0000
0010
0000
0010
0000
0000
0300
,  // measure 25
2000
0000
0001
0000
0001
0000
0000
3000
,  // measure 26
0020
0000
0100
0000
0100
0000
0000
0030
,  // measure 27
0002
0100
0100
1003
,  // measure 28
1010
0001
0100
1000
,  // measure 29
1001
0100
0011
0010
,  // measure 30
1001
0001
1100
0100
,  // measure 31
0101
1000
0010
0001
,  // measure 32
1001
0010
1000
0100
,  // measure 33
1001
1000
0011
0010
,  // measure 34
2000
0000
0010
3000
0002
0000
0013
0000
,  // measure 35
2020
0000
3030
1001
;

//---------------dance-single - ----------------
#NOTEDATA:;
#CHARTNAME:;
#STEPSTYPE:dance-single;
#DESCRIPTION:;
#CHARTSTYLE:;
#DIFFICULTY:Beginner;
#METER:3;
#RADARVALUES:0.149082,0.136492,0.127265,0.000000,0.000000,72.000000,10.000000,0.000000,0.000000,0.000000,0.000000,0.000000,0.000000,0.149082,0.136492,0.127265,0.000000,0.000000,72.000000,10.000000,0.000000,0.000000,0.000000,0.000000,0.000000,0.000000;
#CREDIT:;
#NOTES:
// measure 0
0000
0000
0000
0000
,  // measure 1
0000
0000
0000
0000
,  // measure 2
0000
0000
0000
0000
,  // measure 3
0000
0000
0000
0000
,  // measure 4
0010
0010
0010
0000
,  // measure 5
0001
0001
0001
0000
,  // measure 6
1000
1000
0010
0000
,  // measure 7
0100
0100
0100
0000
,  // measure 8
0001
1000
0001
0000
,  // measure 9
0100
0010
0100
0000
,  // measure 10
1000
1000
1000
0000
,  // measure 11
0010
0010
0010
0000
,  // measure 12
0001
0010
0001
0000
,  // measure 13
0100
0100
0100
0000
,  // measure 14
0010
1000
0010
0000
,  // measure 15
0001
0100
0001
0000
,  // measure 16
1000
1000
0100
0000
,  // measure 17
0001
0001
0100
0000
,  // measure 18
0010
0010
0010
0000
,  // measure 19
0001
0001
0001
0000
,  // measure 20
1001
0000
0000
0000
,  // measure 21
0110
0000
0000
0000
,  // measure 22
0110
0000
0000
0000
,  // measure 23
1001
0000
0000
0000
,  // measure 24
1001
0000
0000
0000
,  // measure 25
0110
0000
0000
0000
,  // measure 26
1001
0000
0000
0000
,  // measure 27
0110
0000
0000
0000
,  // measure 28
0001
0000
0010
0000
,  // measure 29
0010
0000
1000
0000
,  // measure 30
1000
0000
0100
0000
,  // measure 31
0001
0000
0010
0000
,  // measure 32
0100
0000
0001
0000
,  // measure 33
1000
0000
0001
0000
,  // measure 34
0100
0000
0010
0000
,  // measure 35
0110
0000
0000
1001
;

//---------------dance-single - ----------------
#NOTEDATA:;
#CHARTNAME:;
#STEPSTYPE:dance-single;
#DESCRIPTION:;
#CHARTSTYLE:;
#DIFFICULTY:Challenge;
#METER:13;
#RADARVALUES:0.639963,0.591466,0.318163,0.012727,0.439065,326.000000,25.000000,1.000000,0.000000,0.000000,0.000000,0.000000,0.000000,0.639963,0.591466,0.318163,0.012727,0.439065,326.000000,25.000000,1.000000,0.000000,0.000000,0.000000,0.000000,0.000000;
#CREDIT:;
#NOTES:
// measure 0
0001
0001
1000
0100
0001
0100
0010
0001
,  // measure 1
0100
0010
0000
1000
0010
0000
0100
0000
0001
0000
0010
0000
0100
0000
0100
0000
,  // measure 2
1000
1000
0001
0100
1000
0100
0010
1000
,  // measure 3
0001
0010
0000
0100
1000
0000
0010
0000
0100
0000
0001
0000
1000
0000
1000
0000
,  // measure 4
1100
1100
0001
0100
1000
0001
0010
1000
,  // measure 5
0001
0010
0000
0100
1000
0000
0001
0000
0010
0000
1000
0000
0001
0000
0100
0000
,  // measure 6
0011
1000
0010
0001
0010
1000
0100
0010
,  // measure 7
0001
0100
0000
0010
0001
0000
1000
0000
0100
0000
0010
0000
0100
0000
0001
0000
,  // measure 8
1010
0001
0010
1000
0001
0100
1000
0001
,  // measure 9
0100
0010
0000
1000
0010
0000
0001
0010
0100
0000
0001
0000
0010
0000
0100
0000
,  // measure 10
1100
0001
0100
0010
1000
0010
1000
0100
,  // measure 11
0010
0001
0000
1000
0010
0000
0100
0010
0001
0000
0010
0000
1000
0000
0100
0000
,  // measure 12
1100
0000
0110
0000
0011
0000
1000
0010
0100
0000
0010
1000
0000
0001
0010
0000
,  // measure 13
0100
0010
0000
0001
0010
0000
0100
1000
0001
0100
1000
0000
0100
0010
1000
0001
,  // measure 14
0010
0000
1100
0000
0011
0000
0100
0010
0001
0000
0100
1000
0000
0100
0010
0000
,  // measure 15
1000
0010
0000
0001
0010
0000
0010
1000
0001
0010
0100
0000
0010
0001
0100
1000
,  // measure 16
0100
0000
0101
0000
1010
0000
0010
1000
0100
0000
0010
0001
0000
0100
1000
0000
,  // measure 17
0100
0010
0000
1000
0100
0000
0001
0100
0010
0001
1000
0000
0010
0100
1000
0001
,  // measure 18
0010
0000
1010
0000
0011
0000
0100
1000
0001
0000
0100
1000
0000
0100
0010
0000
,  // measure 19
0100
0001
0000
0001
0010
0000
0100
0001
0100
0010
0001
0000
0001
0100
1000
0100
,  // measure 20
0010
0001
0010
1000
0010
0100
1000
0100
,  // measure 21
0010
0000
1000
0000
0100
0000
0010
0001
1000
0000
0100
0000
0001
0000
0100
0010
,  // measure 22
0001
1000
0001
0100
0010
0100
1000
0100
,  // measure 23
0001
0000
0010
0000
0100
0000
1000
0001
0100
0000
0010
0000
1000
0000
0001
0010
,  // measure 24
0100
1000
0001
1000
0100
0001
0100
0010
,  // measure 25
1000
0000
0010
0000
0100
0000
1000
0100
0010
0000
0001
0000
0100
0000
1000
0100
,  // measure 26
0010
0100
0010
1000
0100
1000
0010
0001
,  // measure 27
0010
0000
0100
0000
1000
0000
0100
0010
1000
0000
0001
0000
0010
0000
1000
0010
,  // measure 28
0100
0000
0000
1000
0010
0000
0100
0000
0000
0000
0100
0000
1010
0000
0001
0000
,  // measure 29
0010
0000
0000
0100
0010
0000
0001
0000
0000
0000
0001
0000
1100
0000
0001
0000
,  // measure 30
0100
0000
0000
0100
0010
0000
1000
0000
0000
0000
1000
0000
1010
0000
0010
0000
,  // measure 31
0001
0000
0000
0010
1000
0000
0100
0000
0000
0000
0100
0000
0011
0000
0001
0000
,  // measure 32
1000
0000
0000
1000
0010
0000
0100
0000
0000
0000
0100
0000
1010
0000
0010
0000
,  // measure 33
1000
0000
0000
0001
0010
0000
0100
0000
0000
0000
0100
0000
1100
0000
0010
0000
,  // measure 34
0001
0000
0011
0000
1000
0100
0010
0000
0010
0001
0100
0010
0100
0000
0001
0000
,  // measure 35
0101
0000
0000
1010
0000
0000
0011
0000
0000
1200
0000
0000
0301
0000
0000
0000
;
