#TITLE:Flutterwonder;
#SUBTITLE:;
#ARTIST:PinkiePieSwear;
#TITLETRANSLIT:;
#SUBTITLETRANSLIT:;
#ARTISTTRANSLIT:;
#GENRE:House Trance;
#CREDIT:;
#BANNER:Flutterwonder.png;
#BACKGROUND:;
#LYRICSPATH:;
#CDTITLE:;
#MUSIC:Flutterwonder.mp3;
#OFFSET:-14.200000;
#SAMPLESTART:70.660004;
#SAMPLELENGTH:15.000000;
#SELECTABLE:YES;
#BPMS:0.000000=136.039993
;
#STOPS:
;
#BGCHANGES:-32.500=Flutterwonder.avi=1.000=0=0=0=StretchNoLoop====,
99999=-nosongbg-=1.000=0=0=0 // don't automatically add -songbackground-
;
#KEYSOUNDS:;
#ATTACKS:;

//---------------dance-single - ----------------
#NOTES:
     dance-single:
     :
     Hard:
     10:
     0.351630,0.346136,0.000000,0.166562,0.083281,266.000000,266.000000,0.000000,18.000000,0.000000,0.000000,0.351630,0.346136,0.000000,0.166562,0.083281,266.000000,266.000000,0.000000,18.000000,0.000000,0.000000:
0100
0010
1000
0100
,
0010
0001
1000
0010
,
0100
0000
0000
0000
0001
0000
0000
0000
1000
0000
0000
0100
0000
0000
1000
0000
,
0010
0000
0000
0000
0100
0000
0000
0000
0001
0000
0000
0010
0000
0000
0100
0000
,
0010
0000
0002
0000
0000
0103
0000
0020
,
0000
1030
0001
0010
,
0100
0000
0000
0000
1000
0000
0000
0000
0010
0000
0000
0100
0000
0000
0001
0000
,
1000
0000
0000
0000
0100
0000
0000
0000
0010
0000
0000
0001
0000
0000
1000
0000
,
0010
1000
0100
1000
,
0001
0100
0010
0000
0100
0000
0001
0000
,
1000
0000
0000
0000
0100
0000
0000
0000
0010
0000
0000
0001
0000
0000
1000
0000
,
0010
0000
0000
0000
0100
0000
0000
0000
0001
0000
0000
1000
0000
0000
0100
0000
,
0010
0001
0020
0000
0030
0100
0010
0200
,
0000
0300
1000
0000
0010
0000
0100
0000
,
0001
0000
0000
0000
1000
0000
0000
0000
0100
0000
0000
0010
0000
0000
0100
0000
,
1000
0000
0000
0000
0001
0000
0000
0000
0100
0000
0000
0010
0000
0000
0100
0000
,
0001
0000
0001
0010
0100
1000
0010
0000
,
0100
0000
0001
0000
1000
0100
0010
0100
,
1000
0000
0010
0000
0100
0001
1000
0000
,
0100
0000
0010
0000
0001
1000
0010
0100
,
0001
0000
1000
0000
0100
0010
0001
0000
,
1000
0000
0010
0000
0100
1000
0001
0000
,
1000
0000
0100
0000
0010
1000
0001
0000
,
0010
0000
0100
0000
1000
0010
0100
0000
,
0001
0010
0100
0010
0001
0100
0010
0000
,
1000
0100
0010
1000
0010
0100
1000
0000
,
0010
0100
0001
1000
0100
0010
0001
0000
,
0100
0010
0100
0000
0001
0010
0001
0000
,
1000
0100
0010
0100
1000
0001
0100
0000
,
0010
0100
0001
1000
0100
0010
0001
0000
,
1000
0010
0100
0001
1000
0010
0100
0000
,
0010
1000
0001
0000
0010
0100
1000
0000
,
0010
0000
0100
0000
0001
0001
0000
1000
,
0010
0100
0010
0000
1000
1000
0000
0001
,
0010
0000
0000
0000
0200
0000
0000
0000
1300
0000
0000
0010
0000
0000
0100
0000
,
0001
0000
0000
0000
0020
0000
0000
0000
0130
0000
0000
1000
0000
0000
0001
0000
,
0100
0010
0200
0000
0301
1000
0000
0001
,
0010
0010
0002
0000
0103
0100
0000
0010
,
0100
0000
0000
0000
0002
0000
0000
0000
1003
0000
0000
0100
0000
0000
0010
0000
,
0001
0000
0000
0000
0200
0000
0000
0000
0310
0000
0000
1000
0000
0000
0100
0000
,
0001
0000
0100
0000
0010
0001
0000
0100
,
0010
0010
2000
0000
3001
0001
0000
0010
,
0100
0000
0000
0000
2000
0000
0000
0000
3010
0000
0000
0100
0000
0000
0001
0000
,
1000
0000
0000
0000
0200
0000
0000
0000
0310
0000
0000
0001
0000
0000
0100
0000
,
0010
1000
0200
0000
0310
0010
0000
0001
,
1000
1000
0010
0000
0100
0100
0000
0001
,
1000
0000
0000
0000
0200
0000
0000
0000
0310
0000
0000
0001
0000
0000
0100
0000
,
0010
0000
0000
0000
0200
0000
0000
0000
0301
0000
0000
1000
0000
0000
0100
0000
,
0010
0000
0000
0000
0002
0000
0000
0000
0103
0000
0000
1000
0000
0000
0100
0000
,
0010
0000
0000
0000
2000
0000
0000
0000
3100
0000
0000
0010
0000
0000
0001
0000
;

//---------------dance-single - ----------------
#NOTES:
     dance-single:
     :
     Easy:
     5:
     0.216795,0.208202,0.009253,0.027760,0.000000,164.000000,163.000000,1.000000,3.000000,0.000000,0.000000,0.216795,0.208202,0.009253,0.027760,0.000000,164.000000,163.000000,1.000000,3.000000,0.000000,0.000000:
2000
0000
0000
0000
,
3001
1000
0010
0100
,
0010
0010
0010
0000
,
1000
1000
1000
0000
,
0001
0000
0010
0000
0000
0010
0000
0010
,
0000
0001
0010
0100
,
1000
1000
1000
0000
,
0010
0010
0010
0000
,
0002
0000
0000
0000
,
0013
1000
0100
0010
,
0001
0001
0001
0000
,
0100
0100
0100
0000
,
0010
0000
0010
0000
0000
1000
0000
1000
,
0000
0100
0010
0001
,
0100
0100
0100
0000
,
0010
0010
0010
0000
,
1000
0001
1000
0000
,
0001
0100
0001
0000
,
0001
1000
0001
0000
,
1000
0100
1000
0000
,
0100
0010
0001
0000
,
0100
0010
1000
0000
,
0001
1000
0100
0000
,
1000
0001
0100
0000
,
0010
0010
1000
0001
,
0010
0010
0001
1000
,
0100
0100
1000
0001
,
0100
0100
0001
1000
,
0100
1000
0100
1000
,
0001
0010
0001
0010
,
0100
1000
0010
0100
,
0001
0100
0001
0100
,
0010
1000
0010
1000
,
0100
0100
0010
0001
,
1000
1000
1000
0000
,
0010
0010
0010
0000
,
1000
0001
1000
0001
,
0010
0010
0100
1000
,
0010
0010
0010
0000
,
0100
0100
0100
0000
,
0001
1000
0001
0010
,
0100
0100
1000
0010
,
0100
0100
0100
0000
,
0001
0001
0001
0000
,
1000
0010
1000
0001
,
0010
0010
0100
1000
,
0001
0001
0001
0000
,
0100
0100
0100
0000
,
0120
0000
0000
0000
,
0100
0000
0000
0000
,
0130
0000
0000
0000
;

//---------------dance-single - ----------------
#NOTES:
     dance-single:
     :
     Medium:
     8:
     0.366172,0.370137,0.203576,0.027760,0.083281,277.000000,255.000000,22.000000,3.000000,0.000000,0.000000,0.366172,0.370137,0.203576,0.027760,0.083281,277.000000,255.000000,22.000000,3.000000,0.000000,0.000000:
0020
0000
0000
0000
,
1030
0010
0100
0001
,
0010
0000
0000
0000
0100
0000
0000
0000
0010
0000
0000
0010
0000
0000
0000
0000
,
0100
0000
0000
0000
1000
0000
0000
0000
0100
0000
0000
0100
0000
0000
0000
0000
,
0010
0000
0001
0000
0000
0100
0000
0100
,
0010
1000
0001
0010
,
0100
0000
0000
0000
0010
0000
0000
0000
0100
0000
0000
0100
0000
0000
0000
0000
,
0010
0000
0000
0000
0001
0000
0000
0000
0010
0000
0000
0010
0000
0000
0000
0000
,
0100
1000
0100
1000
,
0010
0100
0010
0100
,
0001
0000
0000
0000
0010
0000
0000
0000
0100
0000
0000
0100
0000
0000
0000
0000
,
1000
0000
0000
0000
0010
0000
0000
0000
0100
0000
0000
0100
0000
0000
0000
0000
,
0001
0000
0010
0000
0000
0001
0000
0001
,
1000
0010
1000
0001
,
0010
0000
0000
0000
0100
0000
0000
0000
0010
0000
0000
0010
0000
0000
0000
0000
,
0100
0000
0000
0000
1000
0000
0000
0000
0200
0000
0000
1000
0000
0000
0000
0000
,
0000
1300
0100
0010
0001
0000
1001
0000
,
0000
0001
0100
0010
1000
0010
0001
0010
,
0000
0100
0010
1000
0100
0000
0101
0000
,
0000
0100
0010
0001
0100
1000
0100
0001
,
0000
0010
0100
1000
0100
0000
0110
0000
,
0000
0010
0001
0100
1000
0100
0001
0010
,
0000
0100
1000
0010
0100
0000
0110
0000
,
0000
0100
0001
1000
0100
0001
0100
1000
,
0010
1000
0010
1000
0001
0010
0001
0010
,
0000
0100
1000
0100
1000
0001
1000
0001
,
0100
0001
0100
0001
1000
0100
1000
0100
,
0000
0010
0001
0010
0001
1000
0001
1000
,
0100
0010
0100
0010
0001
1000
0001
1000
,
0000
0010
0100
0010
1000
0001
1000
0001
,
1000
0100
0010
0001
1000
0010
0100
0001
,
0000
0100
0010
0100
0001
0010
0100
1000
,
0010
0000
1010
0000
1000
0001
0000
0001
,
1000
1000
0100
0000
1000
0001
0000
0001
,
0101
0000
0000
0000
0110
0000
0000
0000
0010
0000
0000
0010
0000
0000
0000
0000
,
1010
0000
0000
0000
1100
0000
0000
0000
0100
0000
0000
0100
0000
0000
0000
0000
,
0010
0000
0001
0000
0010
0100
0000
0100
,
1000
1000
0010
0000
1000
0010
0000
0010
,
0110
0000
0000
0000
0101
0000
0000
0000
0001
0000
0000
0001
0000
0000
0000
0000
,
0011
0000
0000
0000
0110
0000
0000
0000
0100
0000
0000
0100
0000
0000
0000
0000
,
1000
0000
1010
0000
0010
0100
0000
0100
,
0010
0010
1000
0000
0010
0100
0000
0100
,
0101
0000
0000
0000
0011
0000
0000
0000
0010
0000
0000
0010
0000
0000
0000
0000
,
0110
0000
0000
0000
1100
0000
0000
0000
1000
0000
0000
1000
0000
0000
0000
0000
,
0001
0001
0010
0000
0100
0010
0000
0010
,
0100
0100
1000
0000
0010
0100
0000
0100
,
0110
0000
0000
0000
0101
0000
0000
0000
0001
0000
0000
1000
0000
0000
0000
0000
,
0110
0000
0000
0000
1100
0000
0000
0000
1000
0000
0000
0001
0000
0000
0000
0000
,
0100
0000
0000
0000
0010
0000
0000
0000
0100
0000
0000
0100
0000
0000
0000
0000
,
0010
0000
0000
0000
0100
0000
0000
0000
0010
0000
0000
0020
0000
0000
0000
0000
,
0130
0000
0000
0000
;

//---------------dance-single - ----------------
#NOTES:
     dance-single:
     :
     Beginner:
     3:
     0.097822,0.138801,0.055521,0.018507,0.000000,74.000000,68.000000,6.000000,2.000000,0.000000,0.000000,0.097822,0.138801,0.055521,0.018507,0.000000,74.000000,68.000000,6.000000,2.000000,0.000000,0.000000:
2000
0000
0000
0000
,
3001
0000
0001
0000
,
1000
0000
0000
0000
,
1000
0000
0000
0000
,
0100
0000
0000
0000
,
0100
0000
0000
0000
,
0010
0000
0000
0000
,
0010
0000
0000
0000
,
0200
0000
0000
0000
,
1300
0000
1000
0000
,
0001
0000
0000
0000
,
0001
0000
0000
0000
,
0010
0000
0000
0000
,
0010
0000
0000
0000
,
0100
0000
0000
0000
,
0100
0000
0000
0000
,
1000
0000
1000
0000
,
0001
0000
0000
0000
,
0100
0000
0100
0000
,
0010
0000
0000
0000
,
1000
0000
1000
0000
,
0010
0000
0000
0000
,
0100
0000
0100
0000
,
0001
0000
0000
0000
,
0010
0000
0010
0000
,
0011
0000
0000
0000
,
1000
0000
1000
0000
,
1100
0000
0000
0000
,
0010
0000
0010
0000
,
0110
0000
0000
0000
,
1000
0000
1000
0000
,
1001
0000
0000
0000
,
1000
0000
1000
0000
,
0010
0000
0010
0000
,
1000
0000
0000
0000
,
1000
0000
0000
0000
,
0001
0000
0001
0000
,
0010
0000
0010
0000
,
0001
0000
0000
0000
,
0001
0000
0000
0000
,
1000
0000
1000
0000
,
0100
0000
0100
0000
,
1000
0000
0000
0000
,
1000
0000
0000
0000
,
0001
0000
0001
0000
,
0100
0000
0100
0000
,
0001
0000
0000
0000
,
0001
0000
0000
0000
,
1001
0000
0000
0000
,
0000
0000
0000
0000
,
1001
0000
0000
0000
;

//---------------dance-single - ----------------
#NOTES:
     dance-single:
     :
     Challenge:
     13:
     0.506295,0.507666,0.138802,0.555206,0.393271,383.000000,368.000000,15.000000,60.000000,92.000000,0.000000,0.506295,0.507666,0.138802,0.555206,0.393271,383.000000,368.000000,15.000000,60.000000,92.000000,0.000000:
// measure 0
1000
0000
0000
1000
0000
0000
0100
0000
0000
0010
0000
0001
0010
0000
0010
0000
,  // measure 1
0200
0320
0032
2003
,  // measure 2
3020
0000
0000
0000
0230
0000
0000
0000
0302
0000
0000
0010
0000
0000
0013
0000
,  // measure 3
2000
0000
0000
0000
3002
0000
0000
0000
0203
0000
0000
0010
0000
0000
0310
0000
,  // measure 4
1000
0000
1000
0000
0100
0000
0000
MMMM
0000
0000
0001
0000
0001
0000
0100
0000
,  // measure 5
0000
MMMM
0000
0000
0020
0000
0000
0000
2030
0000
0000
0000
3002
0000
0000
0000
,  // measure 6
0023
0000
0000
0000
0230
0000
0000
0000
2300
0000
0000
0010
0000
0000
3010
0000
,  // measure 7
0200
0000
0000
0000
0302
0000
0000
0000
0023
0000
0000
0100
0000
0000
0130
0000
,  // measure 8
1100
0000
0100
1000
0000
0100
1000
0000
0001
1000
0000
0001
0100
0000
0010
0000
,  // measure 9
MMMM
0000
0010
1000
0000
0010
1000
0000
0001
0010
0000
0100
1000
0000
0001
0000
,  // measure 10
0101
0000
0001
0000
2000
0000
0000
0000
3200
0000
0000
0310
0001
0000
0001
0000
,  // measure 11
0011
0000
0010
0000
0200
0000
0000
0000
2300
0000
0000
3001
0100
0000
0100
0000
,  // measure 12
0010
1000
0001
0000
0010
0000
0000
MMMM
0000
0000
0010
0001
1000
0000
0010
0000
,  // measure 13
0000
MMMM
0000
0000
1010
0000
0000
0000
0011
0000
0000
0000
1001
0000
0000
0000
,  // measure 14
0101
0000
0001
0000
0200
0000
0000
0000
0320
0000
0000
1030
0001
0000
0010
0000
,  // measure 15
0200
0000
0000
0000
2300
0000
0000
0000
3002
0000
0000
0103
0010
0000
1000
0000
,  // measure 16
0010
0000
0100
0001
0100
0000
0010
0000
1000
0001
0000
0001
0010
0000
0100
0000
,  // measure 17
1000
0000
0001
1000
0001
0000
0100
0000
0010
0000
1000
0000
0001
0000
0010
0000
,  // measure 18
MMMM
0000
0010
0001
0010
0000
0100
0000
1000
0010
0000
0010
0100
0000
0010
0000
,  // measure 19
1000
0000
0001
0010
0100
0000
0010
0000
0001
0000
0100
0000
0010
0000
1000
0000
,  // measure 20
MMMM
0000
1000
0100
1000
0000
0001
0000
0010
0100
0000
0010
0001
0000
1000
0000
,  // measure 21
0010
0000
0100
0010
1000
0000
0001
0000
0010
0000
0100
0000
0010
0000
0001
0000
,  // measure 22
MMMM
0000
0001
0010
0001
0000
1000
0000
0010
0100
0000
0010
1000
0000
0001
0000
,  // measure 23
0010
0000
0100
0010
0001
0000
1000
0000
0010
0000
0100
0000
0010
0000
1000
0000
,  // measure 24
MMMM
0000
0010
1000
0001
0000
0010
0000
0100
1000
0000
0001
0100
0000
0010
0000
,  // measure 25
MMMM
0000
0100
0001
1000
0000
0100
0000
0020
0000
0130
0000
2000
0000
3001
0000
,  // measure 26
MMMM
0000
0001
0010
0100
0000
0010
0000
0001
1000
0000
0010
0100
0000
0001
0000
,  // measure 27
0100
0000
1000
0100
0010
0000
0100
0000
0020
0000
1030
0000
0002
0000
0103
0000
,  // measure 28
MMMM
0000
0100
0010
1000
0000
0001
0000
0010
0100
0000
1000
0100
0000
0010
0000
,  // measure 29
MMMM
0000
0100
1000
0010
0000
0100
0000
0020
0000
1030
0000
0200
0000
0310
0000
,  // measure 30
MMMM
0000
0001
0010
0100
0000
1000
0000
0001
0100
0000
0010
1000
0000
0001
0000
,  // measure 31
0010
0000
1000
0010
0001
0000
1000
0000
0020
0000
0130
0000
0002
0000
0013
0000
,  // measure 32
0200
0000
0000
0000
0320
0000
0000
0000
0031
1000
0001
0000
MMMM
0000
0100
0000
,  // measure 33
0010
0000
0010
0000
2000
0000
0000
0000
3001
0010
0001
0000
MMMM
0000
1000
0000
,  // measure 34
0020
0000
0000
0000
0230
0000
0000
0000
0301
0000
0010
0100
0000
0100
1000
0000
,  // measure 35
0002
0000
0000
0000
0203
0000
0000
0000
0310
0000
0100
0010
0000
0010
1000
0000
,  // measure 36
1000
0100
0010
0000
0001
0000
MMMM
0000
1000
0001
0100
0000
MMMM
0000
0010
0000
,  // measure 37
1000
0000
1000
0000
0100
0000
0000
0000
0010
0001
1000
0000
0010
0000
0100
0000
,  // measure 38
0020
0000
0000
0000
2030
0000
0000
0000
3001
0000
0010
0100
0000
0010
0001
0000
,  // measure 39
0020
0000
0000
0000
0032
0000
0000
0000
1003
0000
0010
0100
0000
0010
1000
0000
,  // measure 40
2000
0000
0100
0000
3001
0000
0000
0000
0010
0001
1000
0000
MMMM
0000
0002
0000
,  // measure 41
0010
0000
1003
0000
0010
0000
MMMM
0000
0100
0001
2000
0000
0001
0000
3100
0000
,  // measure 42
1100
0000
0000
0000
1010
0000
0000
0000
0100
0000
0010
1000
0000
0001
0010
0000
,  // measure 43
1100
0000
0000
0000
0011
0000
0000
0000
1000
0000
0010
0100
0000
0001
0010
0000
,  // measure 44
1000
0010
0100
0000
1000
0000
MMMM
0000
0001
0100
0010
0000
MMMM
0000
0200
0000
,  // measure 45
1000
0000
0301
0000
0010
0000
MMMM
0000
1000
0010
0002
0000
0010
0000
1003
0000
,  // measure 46
0101
0000
0010
0000
2010
0000
0000
0000
3001
0000
0010
0100
0000
0010
0001
0000
,  // measure 47
1100
0000
0010
0000
0011
0000
0000
0000
1000
0000
0100
0010
0000
0100
1000
0000
,  // measure 48
0200
0000
0000
0000
0320
0000
0000
0000
0032
0000
0000
1000
0000
0000
0203
0000
,  // measure 49
0320
0000
0000
0000
2030
0000
0000
0000
3200
0000
0000
0001
0000
0000
1300
0000
;
