#TITLE:Fluttershy's Serious Workout;
#SUBTITLE:;
#ARTIST:♪♪♪♪♪;
#TITLETRANSLIT:;
#SUBTITLETRANSLIT:;
#ARTISTTRANSLIT:;
#GENRE:My Little Pony;
#CREDIT:;
#BANNER:Fluttershy's Serious Workout.png;
#BACKGROUND:Fluttershy's Serious Workout-bg.png;
#LYRICSPATH:;
#CDTITLE:;
#MUSIC:Fluttershy's Serious Workout.mp3;
#OFFSET:-0.108370;
#SAMPLESTART:24.540001;
#SAMPLELENGTH:15.000000;
#SELECTABLE:YES;
#BPMS:0.000000=98.000000
;
#STOPS:
;
#BGCHANGES:-0.500=Fluttershy's Serious Workout.avi=1.000=0=0=0=StretchNoLoop====,
99999=-nosongbg-=1.000=0=0=0 // don't automatically add -songbackground-
;
#KEYSOUNDS:;
#ATTACKS:;

//---------------dance-single - ----------------
#NOTES:
     dance-single:
     :
     Hard:
     13:
     0.529533,0.534920,0.319546,0.102255,0.524055,257.000000,25.000000,8.000000,0.000000,0.000000,0.000000,0.529533,0.534920,0.319546,0.102255,0.524055,257.000000,25.000000,8.000000,0.000000,0.000000,0.000000:
0000
0000
0000
0000
,
0000
0000
0000
0000
,
1000
0000
0000
0000
0000
0000
1001
0000
0000
0000
0000
0000
0001
0000
0000
0010
0100
1000
0010
0000
0100
0000
0001
0000
,
1000
0000
0000
0000
0000
0000
0000
0000
0000
0000
0000
0000
0100
0000
0000
0000
0010
0000
0000
0000
0100
0000
0000
0000
1000
0000
0000
0000
0000
0000
0000
0000
0000
0000
0000
0000
1001
0000
0000
0000
0000
0000
0001
0000
0000
0100
0000
0000
,
0010
1000
0010
1000
0000
0000
1001
0000
0000
0000
0000
0000
0001
0000
0000
0000
0000
0000
0010
0000
0000
0100
0010
0100
,
1000
0001
0100
0110
0010
1000
0100
0000
0000
0010
0000
0000
,
0110
0000
0000
0000
0100
0000
1000
0100
0011
0000
0000
0000
0100
0000
0001
0100
,
1010
0000
1000
0000
0001
0000
0010
0000
0220
0000
0000
0000
0330
0000
0100
1000
,
0001
0000
0000
0100
0001
0100
0010
0000
0000
1000
0000
0000
0001
0000
0000
0010
0000
0000
0100
0000
0000
1000
0000
0000
,
1001
0000
0000
0000
0101
0000
0000
0100
0010
0000
0000
0000
1000
0000
0001
0001
,
1000
0000
1000
0000
0100
1000
0100
0010
1000
0000
0010
0000
0001
0000
0100
0000
,
0010
0000
0000
0000
0000
0000
0000
0000
1010
0000
0000
0000
0000
0000
1000
0100
0010
0000
0000
0000
0000
0000
0000
0000
0010
0000
0000
0000
0010
0000
0000
0000
,
0001
0000
0001
0000
0100
0001
0100
0010
0001
0000
0000
0010
1000
0000
0100
0000
,
0020
0000
0000
0000
0000
0000
0130
0000
0010
0000
0100
0000
1000
0000
0000
0001
0000
0000
0100
0000
0000
0010
0000
0000
,
1000
0000
1000
0000
0010
1000
0010
0100
1000
0000
0100
0000
0001
0000
0010
0000
,
0100
0000
0000
0000
0110
0000
0100
1000
0001
0000
0000
0000
0100
0010
0100
0001
,
0010
0100
1000
0001
1001
0000
1020
0100
,
0200
0000
0000
0000
0000
0000
0000
0000
0000
0000
0000
0000
0000
0000
0000
0000
0300
0000
0000
0000
0000
0000
0000
0000
0100
0000
0000
0000
0000
0000
0130
0010
,
1000
0000
1000
0000
1001
0000
0001
0010
0001
0000
0010
0000
0100
0010
0100
1000
,
0010
0000
0000
0000
0000
0000
0000
0000
0000
0000
0000
0000
0000
0000
0000
0000
0000
0000
0000
0000
0000
0000
0000
0000
0001
0000
0000
0000
0000
0000
0000
0000
0010
0000
0000
0000
0000
0000
0000
0000
1000
0000
0000
0000
0000
0000
0000
0000
0100
0000
0000
0000
0000
0000
0000
0000
0000
0000
0000
0000
0000
0000
0000
0000
0000
0000
0000
0000
0000
0000
0000
0000
0010
0000
0000
0000
0000
0000
0000
0000
0000
0000
0000
0000
0000
0000
0000
0000
0000
0000
0000
0000
0000
0000
0000
0000
0100
0000
0000
0000
0000
0000
0000
0000
0000
0000
0000
0000
1000
0000
0000
0000
0000
0000
0000
0000
0000
0000
0000
0000
0001
0000
0000
0000
0000
0000
0000
0000
0000
0000
0000
0000
0000
0000
0000
0000
0000
0000
0000
0000
0000
0000
0000
0000
0100
0000
0000
0000
0000
0000
0000
0000
0000
0000
0000
0000
0001
0000
0000
0000
0000
0000
0000
0000
0000
0000
0000
0000
0100
0000
0000
0000
0000
0000
0000
0000
0000
0000
0000
0000
0001
0000
0000
0000
0000
0000
0010
0000
0000
0000
0000
0000
,
0001
0010
0100
1000
0010
0100
0010
0100
0002
0000
0000
0000
1003
1000
0001
0000
,
0010
0000
0000
0000
0110
0000
0100
1000
0001
0000
0000
0000
0101
0000
0100
0010
,
0100
0000
0000
0000
0001
0000
0000
0000
1000
0000
0000
0000
0100
0000
0000
0000
0010
0000
0000
0000
0100
0000
0000
0000
0110
0000
0000
0000
0000
0000
0100
0000
0000
1000
0000
0000
0010
0000
0000
0100
0000
0000
0001
0000
0000
1000
0000
0000
,
0001
0000
0000
0000
0000
0000
0010
0000
0100
0000
0010
0000
0100
0000
0000
0000
0000
0000
1000
0000
0000
0000
0000
0000
0001
0000
0000
0000
0000
0000
0100
0000
0000
0000
0000
0000
0010
0000
0000
0000
0000
0000
1000
0000
0000
0001
0000
0000
,
1000
0000
0000
0000
1100
0000
0100
0000
0010
0000
0110
0000
0100
1000
0001
0000
,
0100
0000
0100
0000
0010
0100
0010
0001
1000
0000
0100
0000
0001
0000
1000
0000
,
0100
0000
0000
0000
0000
0000
0000
0000
0110
0000
0000
0000
0000
0000
0100
1000
0001
0000
0000
0000
0000
0000
0000
0000
0100
0000
0000
0000
0100
0000
0000
0000
,
0010
0000
0000
0000
1010
0000
1000
0001
0100
0000
0000
0000
0110
0000
0010
1000
,
0100
0000
0000
0000
0000
0000
0000
0000
0000
0000
0000
0000
0110
0000
0000
0000
0000
0000
0010
0000
0000
0001
0000
0000
0100
0000
0000
0000
0010
0000
1000
0000
0010
0000
1000
0000
0001
0000
1000
0000
0001
0000
1000
0000
0100
0000
1000
0000
,
0100
0000
0010
0000
0100
0000
0010
0000
0000
0000
0000
0000
0100
0000
0000
1000
0000
0000
0010
0000
0000
0000
0000
0000
0220
0000
0000
0000
0000
0000
0000
0000
0000
0000
0000
0000
0000
0000
0000
0000
0000
0000
0000
0000
0000
0000
0000
0000
,
0000
0000
0000
0000
,
0330
0000
0000
0000
;

//---------------dance-single - ----------------
#NOTES:
     dance-single:
     :
     Medium:
     6:
     0.326850,0.297178,0.153382,0.178946,0.000000,153.000000,12.000000,14.000000,0.000000,0.000000,0.000000,0.326850,0.297178,0.153382,0.178946,0.000000,153.000000,12.000000,14.000000,0.000000,0.000000,0.000000:
0000
0000
0000
0000
,
0000
0000
0000
0000
,
1000
0000
2000
0000
0000
3010
1000
0001
,
0010
0000
0100
0010
0110
0000
0000
0100
,
1000
1000
0001
0000
1000
1000
0001
1000
,
0010
1000
0001
0010
0100
0000
0010
0000
,
0110
0000
0100
0000
1001
0000
1000
0010
,
1000
0001
0010
0100
2000
0000
0000
3001
,
1000
0010
0100
0010
1000
0100
0010
0100
,
2000
3002
0023
0000
,
0130
0000
0000
0010
0100
0100
1000
0001
,
1000
0010
1010
0110
,
0100
0000
0000
0001
0010
0000
0100
0010
,
0100
0000
1000
1000
0010
0000
0110
0000
,
0100
0000
0000
0001
0010
0010
0100
0010
,
0002
0000
0000
1003
0002
0000
0000
0103
,
0001
0010
0100
1000
0010
0000
0100
0000
,
0220
0000
0330
0110
,
1001
0000
1000
0100
1000
0000
0001
0100
,
0001
0010
0100
0001
0100
1000
0000
1000
,
0010
1000
0001
0100
0001
0000
1000
0000
,
1001
0000
1000
0100
0110
0000
0010
0100
,
1000
0010
0001
0010
2000
0000
0000
3001
,
1000
0100
0001
0100
1000
1000
0001
0100
,
0020
2030
3002
0000
,
0013
0000
0000
0100
0010
0010
0001
1000
,
0010
1000
1001
0001
,
0010
0000
0100
0100
0010
0000
0001
0001
,
0010
0000
0001
0001
1000
0010
0001
0010
,
1000
0100
0001
0100
0020
0000
0000
0000
,
0000
0000
0000
0000
,
0030
0000
0000
0000
;

//---------------dance-single - ----------------
#NOTES:
     dance-single:
     :
     Easy:
     4:
     0.186250,0.198119,0.102255,0.204509,0.000000,78.000000,8.000000,16.000000,0.000000,0.000000,0.000000,0.186250,0.198119,0.102255,0.204509,0.000000,78.000000,8.000000,16.000000,0.000000,0.000000,0.000000:
0000
0000
0000
0000
,
0000
0000
0000
0000
,
1000
1000
0000
1000
,
0002
0000
0203
0000
,
0310
0010
0000
0010
,
0100
0001
0100
0000
,
0001
0000
1001
0000
,
1000
0100
0010
0000
,
0100
0010
0100
1000
,
0001
1000
1001
0000
,
2000
0000
3020
0000
,
0130
0100
0100
0000
,
0002
0000
0023
0000
,
0130
0100
0100
0000
,
2000
0000
3200
0000
,
0310
0000
0010
0000
,
0001
0100
0010
0010
,
0020
0000
0000
1030
,
2000
0000
3002
0000
,
1003
1000
0001
0001
,
0010
0100
0010
0000
,
0110
0000
1100
0000
,
1000
0001
0200
0000
,
0301
0100
0010
1000
,
0001
0001
0002
0000
,
0023
0000
0130
0100
,
0010
0001
0100
0000
,
0110
0000
1010
0000
,
1001
0000
0001
0010
,
0100
1000
2002
0000
,
0000
0000
0000
0000
,
3003
0000
0000
0000
;

//---------------dance-single - ----------------
#NOTES:
     dance-single:
     :
     Beginner:
     2:
     0.098603,0.099059,0.000000,0.025564,0.000000,52.000000,0.000000,2.000000,0.000000,0.000000,0.000000,0.098603,0.099059,0.000000,0.025564,0.000000,52.000000,0.000000,2.000000,0.000000,0.000000,0.000000:
// measure 0
0000
0000
0000
0000
,  // measure 1
0000
0000
0000
0000
,  // measure 2
1000
0000
0000
0000
,  // measure 3
0001
0000
0001
0000
,  // measure 4
0100
0100
0000
0000
,  // measure 5
0100
0000
0100
0000
,  // measure 6
0010
0000
0000
0000
,  // measure 7
0010
0000
0010
0000
,  // measure 8
1000
0000
0000
0000
,  // measure 9
1000
0000
1000
0000
,  // measure 10
0001
0000
0001
0000
,  // measure 11
0001
0000
0001
0000
,  // measure 12
1000
0000
1000
0000
,  // measure 13
1000
0000
1000
0000
,  // measure 14
0100
0000
0100
0000
,  // measure 15
0010
0000
0010
0000
,  // measure 16
0001
0000
0001
0000
,  // measure 17
0002
0000
0000
0000
,  // measure 18
1003
0000
1000
0000
,  // measure 19
0010
0000
0010
0000
,  // measure 20
1000
0000
1000
0000
,  // measure 21
0001
0000
0001
0000
,  // measure 22
0010
0000
0010
0000
,  // measure 23
0100
0000
0100
0000
,  // measure 24
1000
0000
1000
0000
,  // measure 25
0010
0000
0010
0000
,  // measure 26
0010
0000
0010
0000
,  // measure 27
1000
0000
1000
0000
,  // measure 28
0001
0000
0001
0000
,  // measure 29
0010
0000
0020
0000
,  // measure 30
0000
0000
0000
0000
,  // measure 31
0030
0000
0000
0000
;
