#VERSION:0.81;
#TITLE:Flutterborn;
#SUBTITLE:;
#ARTIST:DJ Twitch;
#TITLETRANSLIT:;
#SUBTITLETRANSLIT:;
#ARTISTTRANSLIT:;
#GENRE:Trance;
#ORIGIN:;
#CREDIT:;
#BANNER:Flutterborn.png;
#BACKGROUND:Flutterborn-bg.png;
#PREVIEWVID:;
#JACKET:Flutterborn-jacket.png;
#CDIMAGE:;
#DISCIMAGE:;
#LYRICSPATH:;
#CDTITLE:;
#MUSIC:Flutterborn.ogg;
#OFFSET:0.000000;
#SAMPLESTART:88.599998;
#SAMPLELENGTH:15.000000;
#SELECTABLE:YES;
#BPMS:0.000=130.000;
#STOPS:;
#DELAYS:;
#WARPS:;
#TIMESIGNATURES:0.000=4=4;
#TICKCOUNTS:0.000=4;
#COMBOS:0.000=1;
#SPEEDS:0.000=1.000=0.000=0;
#SCROLLS:0.000=1.000;
#FAKES:;
#LABELS:0.000=Song Start;
#BGCHANGES:;
#KEYSOUNDS:;
#ATTACKS:
;

//---------------dance-single - Blank----------------
#NOTEDATA:;
#CHARTNAME:;
#STEPSTYPE:dance-single;
#DESCRIPTION:Blank;
#CHARTSTYLE:;
#DIFFICULTY:Hard;
#METER:12;
#RADARVALUES:0.479922,0.466812,0.383026,0.199492,0.259340,348.000000,48.000000,25.000000,0.000000,0.000000,0.000000,0.000000,0.000000,0.479922,0.466812,0.383026,0.199492,0.259340,348.000000,48.000000,25.000000,0.000000,0.000000,0.000000,0.000000,0.000000;
#CREDIT:Lirodon;
#NOTES:
0000
0000
0000
0000
,
0000
0000
0000
0000
,
0000
0000
0000
0000
,
0000
0000
0000
0000
,
1000
0000
1000
0100
0000
0000
0000
0000
0010
0000
0100
0010
0000
0000
0000
0000
,
0001
0000
0001
0010
0000
0000
0000
0000
0001
0000
0100
1000
0000
0000
0000
0000
,
0100
0000
0001
0010
0000
0000
0100
0000
0010
0000
1000
0010
0000
0000
0001
0100
,
0010
0100
1000
0100
0001
0100
0001
0100
,
0101
0000
0001
1000
0000
0000
0001
0000
0010
0000
0000
0000
0000
0000
1000
0100
,
1000
0000
0000
0010
0000
0000
0001
0000
0010
0000
0000
0000
0100
0000
0010
0100
,
0001
0000
0000
1010
0000
0000
0001
0010
0100
0000
0000
0000
0100
0000
0010
0000
,
0101
0000
0000
1000
0000
0000
0100
0000
0010
0000
0000
0000
0100
0000
1000
0010
,
2000
0000
0000
0001
3000
0000
0010
0000
0020
0000
0000
0000
0030
0000
1000
0100
,
0010
0000
0000
0010
0000
0000
1000
0000
0010
0000
0000
0000
0101
0000
0010
0100
,
1000
0000
0000
0101
0000
0000
0001
0010
0001
0000
0000
0000
0000
0000
0010
1000
,
0020
0000
0000
0100
0000
0000
1000
0000
2000
0000
0000
0000
3030
0000
0000
0000
,
1001
0000
0110
0000
1000
0100
0001
0000
,
0100
0010
0100
0000
1000
1010
0010
0000
,
0001
0000
0110
0100
1000
0000
0101
0010
,
0010
0000
0001
1000
1000
0000
0110
0000
,
1001
0000
0100
0010
0010
0000
0001
1000
,
0101
0000
0001
0000
1000
0100
0100
0000
,
0101
0000
0010
0010
1000
0000
0011
0001
,
2001
0010
0001
0010
,
3002
0000
2000
0003
,
0020
3000
0000
0000
0002
0030
0000
0000
,
0200
0003
0000
0000
0002
0300
0000
0000
,
0020
0003
0230
0000
,
0302
0000
0000
0000
2000
0003
0000
0000
,
0020
3000
0200
0030
,
2000
0300
0000
0000
0002
0000
3000
0000
,
2000
0003
3002
0000
,
1003
0000
0010
0000
0001
0100
1000
0000
,
0110
0000
0001
0000
0101
0010
0011
0000
,
1000
0000
1001
0000
0110
0010
1010
0000
,
0001
0000
0010
0000
1100
0100
1010
0000
,
0001
0000
0100
0010
0100
0000
1000
0001
,
0100
0000
0000
1000
0000
0000
0010
0000
0020
0000
0000
0000
0031
0000
0000
0000
,
0110
0000
1000
0001
0100
0000
1000
0010
,
0010
0000
0001
0100
0020
0000
0031
0000
,
1000
0000
0000
0100
0000
0000
0010
0000
0100
0000
0000
0000
0001
0000
0001
0000
,
0010
0000
0000
1000
0000
0000
0100
0000
2000
0000
0000
3001
0000
0000
0000
0000
,
0110
0000
0000
1000
0000
0000
0010
1000
0010
0000
0000
0000
0001
0000
0010
0000
,
0100
0000
0000
0100
0000
0000
0001
0000
1000
0000
0000
0000
0011
0000
0000
0000
,
0100
0000
0000
1000
0000
0000
0010
0001
0010
0000
0000
0000
1001
0000
0010
0100
,
0010
0000
0000
0000
0101
0000
0100
0000
0010
0000
0000
0000
0001
0000
0001
0100
,
0010
0000
0000
0000
1100
0000
1000
0001
0100
0000
0000
0000
0000
0000
0100
0001
,
0010
0000
0100
1000
0001
0000
0011
0010
,
0110
0000
0000
1000
0000
0000
0100
0001
0100
0000
0000
0000
1000
0000
0010
0000
,
0100
0000
0000
0100
0000
0000
0010
0000
1000
0000
0000
0000
0110
0000
0000
0000
,
0001
0000
0000
1000
0000
0000
1000
0100
0010
0000
0000
0000
1001
0000
0010
0001
,
0010
0000
0000
1010
0000
0000
0100
0000
1000
0000
0000
0000
0010
0000
1000
0100
,
1000
0000
0000
0000
0101
0000
0010
0100
0010
0000
0000
0000
0101
0000
0010
0001
,
0100
0000
0000
0000
1000
0000
1000
0100
0001
0000
0000
0000
0101
0000
0000
0000
,
0011
0000
0000
0000
1000
0000
0001
0100
0010
0000
0000
0000
1100
0000
1000
0001
,
1000
0000
0000
0000
0110
0000
1000
0000
0010
0000
0000
0000
0100
0000
1000
0100
,
0001
0000
0000
0101
0000
0000
0010
1000
0010
0000
0000
0000
0110
0000
1000
0001
,
0100
0000
0000
0001
0000
0000
0010
0000
0100
0000
0000
0000
0001
0000
1000
0000
,
0100
0000
0000
0010
0000
0000
0001
0100
0001
0000
0000
0000
0110
0000
1000
0001
,
1000
0000
0000
1001
0000
0000
0001
0000
0100
0000
0000
0000
0001
0000
0010
1000
,
0100
0000
0000
0000
0011
0000
0100
0001
0010
0000
0000
0000
0001
0000
1000
0100
,
0001
0000
0000
0000
0001
0000
0100
0000
0010
0000
0000
1000
0000
0000
0100
0000
,
0001
0000
0000
0000
0010
0000
1000
0001
0010
0000
0000
0000
0101
0000
1000
0001
,
0100
0000
0000
0000
0110
0000
1000
0000
0010
0000
0000
0000
0001
0000
1000
0010
,
2000
0000
0000
0000
,
3000
0000
0000
0000
;

//---------------dance-single - ----------------
#NOTEDATA:;
#CHARTNAME:;
#STEPSTYPE:dance-single;
#DESCRIPTION:;
#CHARTSTYLE:;
#DIFFICULTY:Easy;
#METER:6;
#RADARVALUES:0.249651,0.267320,0.127675,0.015959,0.000000,201.000000,16.000000,2.000000,0.000000,0.000000,0.000000,0.000000,0.000000,0.249651,0.267320,0.127675,0.015959,0.000000,201.000000,16.000000,2.000000,0.000000,0.000000,0.000000,0.000000,0.000000;
#CREDIT:;
#NOTES:
0000
0000
0000
0000
,
0000
0000
0000
0000
,
0000
0000
0000
0000
,
0000
0000
0000
0000
,
0010
0000
0010
0000
,
0100
0000
0010
0000
,
1000
0000
0100
0000
,
0010
0000
0011
0000
,
0010
0100
1000
0001
,
1001
0000
1001
0000
,
0001
0010
0100
1000
,
1001
0000
1001
0000
,
0010
1000
0100
0001
,
0101
0000
1100
0000
,
1000
0010
0001
0010
,
0011
0000
1010
0000
,
1000
0001
1000
0100
,
0001
1000
0001
0000
,
1000
0001
1000
0010
,
0001
1000
0001
0000
,
0100
0010
0100
0001
,
0010
0100
0010
0000
,
0100
0010
0100
1000
,
0010
0100
0010
0000
,
0100
0000
0100
0000
,
0010
0000
0100
0000
,
0001
0000
0010
0000
,
1000
0000
0010
0000
,
0100
0000
0100
0000
,
0010
0000
0100
0000
,
1000
0000
0010
0000
,
0001
0000
0010
0000
,
0100
0100
0001
0100
,
0010
1000
0010
0000
,
0100
0001
0010
0100
,
1000
0100
1000
0000
,
0100
0100
1000
0100
,
0010
0001
0010
0000
,
0100
1000
0010
0100
,
0001
0100
0001
0000
,
0101
0001
1000
0001
,
1000
0100
0010
0001
,
1001
1000
0010
1000
,
0001
0010
0100
1000
,
0010
0001
1000
0100
,
0010
1000
0001
0100
,
0010
1000
0001
0010
,
0100
0010
0110
0110
,
1001
1000
0100
1000
,
0001
0100
1000
0100
,
0001
0010
0001
0010
,
1000
0010
0001
0100
,
1000
0100
0010
1000
,
0001
0010
0100
0001
,
1000
0010
0001
0100
,
0010
0010
0100
0100
,
1001
0010
0100
0010
,
1000
0001
0010
0100
,
1000
0100
0010
0100
,
0010
0001
0100
1000
,
0001
0010
0100
1000
,
0100
0010
1000
0001
,
0010
0100
0010
0100
,
1000
0100
0010
0001
,
2002
0000
0000
0000
,
0000
0000
0000
0000
,
0000
0000
0000
0000
,
3003
0000
0000
0000
;

//---------------dance-single - ----------------
#NOTEDATA:;
#CHARTNAME:;
#STEPSTYPE:dance-single;
#DESCRIPTION:;
#CHARTSTYLE:;
#DIFFICULTY:Beginner;
#METER:1;
#RADARVALUES:0.071817,0.103736,0.031919,0.015959,0.000000,57.000000,4.000000,2.000000,0.000000,0.000000,0.000000,0.000000,0.000000,0.071817,0.103736,0.031919,0.015959,0.000000,57.000000,4.000000,2.000000,0.000000,0.000000,0.000000,0.000000,0.000000;
#CREDIT:;
#NOTES:
// measure 0
0000
0000
0000
0000
,  // measure 1
0000
0000
0000
0000
,  // measure 2
0000
0000
0000
0000
,  // measure 3
0000
0000
0000
0000
,  // measure 4
1000
0000
0000
0000
,  // measure 5
0100
0000
0000
0000
,  // measure 6
0010
0000
0000
0000
,  // measure 7
0001
0000
0000
0000
,  // measure 8
1001
0000
0000
0000
,  // measure 9
0010
0000
0000
0000
,  // measure 10
0100
0000
0000
0000
,  // measure 11
0001
0000
0000
0000
,  // measure 12
0010
0000
0000
0000
,  // measure 13
0100
0000
0000
0000
,  // measure 14
1000
0000
0000
0000
,  // measure 15
0001
0000
0000
0000
,  // measure 16
1000
0000
0000
0000
,  // measure 17
1000
0000
0000
0000
,  // measure 18
0010
0000
0000
0000
,  // measure 19
0010
0000
0000
0000
,  // measure 20
0100
0000
0000
0000
,  // measure 21
0100
0000
0000
0000
,  // measure 22
0001
0000
0000
0000
,  // measure 23
0001
0000
0000
0000
,  // measure 24
1000
0000
0000
0000
,  // measure 25
1000
0000
0000
0000
,  // measure 26
0001
0000
0000
0000
,  // measure 27
0001
0000
0000
0000
,  // measure 28
0100
0000
0000
0000
,  // measure 29
0100
0000
0000
0000
,  // measure 30
0010
0000
0000
0000
,  // measure 31
0010
0000
0000
0000
,  // measure 32
1000
0000
0000
0000
,  // measure 33
0000
0000
0000
0000
,  // measure 34
0001
0000
0000
0000
,  // measure 35
0000
0000
0000
0000
,  // measure 36
0100
0000
0000
0000
,  // measure 37
0000
0000
0000
0000
,  // measure 38
0010
0000
0000
0000
,  // measure 39
0000
0000
0000
0000
,  // measure 40
1000
0000
0000
0000
,  // measure 41
0100
0000
0000
0000
,  // measure 42
0010
0000
0000
0000
,  // measure 43
0001
0000
0000
0000
,  // measure 44
1000
0000
0000
0000
,  // measure 45
0010
0000
0000
0000
,  // measure 46
0100
0000
0000
0000
,  // measure 47
0001
0000
0000
0000
,  // measure 48
1001
0000
0000
0000
,  // measure 49
0100
0000
0000
0000
,  // measure 50
0010
0000
0000
0000
,  // measure 51
0001
0000
0000
0000
,  // measure 52
0100
0000
0000
0000
,  // measure 53
0010
0000
0000
0000
,  // measure 54
1000
0000
0000
0000
,  // measure 55
0001
0000
0000
0000
,  // measure 56
0110
0000
0000
0000
,  // measure 57
0100
0000
0000
0000
,  // measure 58
1000
0000
0000
0000
,  // measure 59
0001
0000
0000
0000
,  // measure 60
0100
0000
0000
0000
,  // measure 61
0010
0000
0000
0000
,  // measure 62
1000
0000
0000
0000
,  // measure 63
0001
0000
0000
0000
,  // measure 64
2002
0000
0000
0000
,  // measure 65
3003
0000
0000
0000
;

//---------------dance-single - ----------------
#NOTEDATA:;
#CHARTNAME:;
#STEPSTYPE:dance-single;
#DESCRIPTION:;
#CHARTSTYLE:;
#DIFFICULTY:Medium;
#METER:9;
#RADARVALUES:0.438883,0.419732,0.311208,0.279289,0.159594,311.000000,39.000000,35.000000,0.000000,0.000000,0.000000,0.000000,0.000000,0.438883,0.419732,0.311208,0.279289,0.159594,311.000000,39.000000,35.000000,0.000000,0.000000,0.000000,0.000000,0.000000;
#CREDIT:;
#NOTES:
2000
3000
0002
0003
,
0020
0030
0200
0300
,
0020
0030
0200
0300
,
2000
3000
0002
0003
,
0100
0000
0000
0100
0000
0000
0010
0000
1000
0000
0000
1000
0000
0000
0001
0000
,
0010
0000
0000
0010
0000
0000
0100
0000
1000
0000
0000
1000
0000
0000
0001
0000
,
0100
0000
0000
0100
0000
0000
0010
0000
1000
0000
0000
1000
0000
0000
0001
0000
,
1000
0010
0000
0000
0110
0000
0000
0000
,
0100
0000
0000
0001
0000
0000
0100
0000
0001
0000
0000
0000
1000
0000
0001
0000
,
1000
0000
0000
0100
0000
0000
1000
0000
0100
0000
0000
0000
0010
0000
0100
0000
,
0010
0000
0000
0100
0000
0000
0010
0000
0100
0000
0000
0000
0010
0000
0001
0000
,
0100
0000
0000
0010
0000
0000
0100
0000
0010
0000
0000
0000
1000
0000
0001
0000
,
1000
0000
0000
0100
0000
0000
0001
0000
0100
0000
0000
0000
1000
0000
0001
0000
,
1000
0000
0000
0010
0000
0000
0001
0000
0010
0000
0000
0000
0100
0000
0010
0000
,
0100
0000
0000
0001
0000
0000
0100
0000
1000
0000
0000
0000
0100
0000
0010
0000
,
0010
0000
0000
0001
0000
0000
0010
0000
1000
0000
0000
0000
0001
0000
0000
0000
,
0100
0000
0000
0100
0000
0000
0010
0000
0100
0000
0000
0000
0010
0000
1000
0000
,
0001
0000
0000
0010
0000
0000
0001
0000
1000
0000
0000
1000
0000
0000
0000
0000
,
0100
0000
0010
0100
0010
0000
0100
1000
,
0001
0000
0000
0100
0000
0000
0010
0000
1000
0000
0000
0000
1001
0000
0000
0000
,
1000
0000
0100
0010
0001
0000
0010
0100
,
0001
0000
0000
0100
0000
0000
1000
0000
0010
0000
0000
0000
1010
0000
0000
0000
,
1000
0000
0001
1000
0001
0000
0020
0000
,
0130
0000
0010
0100
0010
0000
0110
0000
,
0200
0000
2300
0000
,
3002
0000
0203
0000
,
0320
0000
2030
0000
,
3002
0000
0023
0000
,
0230
0000
2300
0000
,
3020
0000
0032
0000
,
0203
0000
2300
0000
,
3020
0000
0032
0000
,
0103
0000
0000
0010
0000
0000
0100
0000
0010
0000
0000
0000
0100
0000
1000
0000
,
0001
0000
0000
0001
0000
0000
0010
0000
0100
0000
0000
0110
0000
0000
0000
0000
,
0100
0000
0000
1000
0000
0000
0001
0000
0100
0000
0000
0000
0010
0000
1000
0000
,
0010
0000
0000
0100
0000
0000
0010
0000
1000
0000
0000
0000
0001
0000
0000
0000
,
0010
0000
0100
1000
1010
0000
0100
0001
,
0011
0000
0011
0010
0200
0000
0301
0000
,
0100
0000
1000
0100
0010
0000
0110
0000
,
0010
0000
0001
0100
0010
0000
0110
0000
,
0010
0000
0000
1000
0000
0000
0001
0000
1000
0000
0000
0000
0100
0000
0010
0000
,
0100
0000
0000
0010
0000
0000
0001
0000
0100
0000
0000
0000
1001
0000
0000
0000
,
0110
0000
0000
0010
0000
0000
1000
0000
0100
0000
0000
0000
0010
0000
0001
0000
,
0010
0000
0000
0001
0000
0000
0100
0000
0010
0000
0000
0000
0110
0000
0000
0000
,
0010
0000
1000
0001
1000
0000
0100
0010
,
0100
0000
0000
1100
0000
0000
1000
0000
0010
0000
0000
0000
0110
0000
0000
0000
,
0100
0000
0001
0100
1000
0000
0002
0000
,
0013
0000
0001
0010
1000
0000
1001
0000
,
1000
0000
0000
0100
0000
0000
1000
0000
1010
0000
0000
0000
0010
0000
0100
0000
,
0001
0000
0000
0100
0000
0000
0001
0000
0011
0000
0000
0000
0110
0000
0000
0000
,
1100
0000
0000
1000
0000
0000
0001
0000
0101
0000
0000
0000
0100
0000
0010
0000
,
0100
0000
0000
0010
0000
0000
1000
0000
0001
0000
0000
0000
0010
0000
0000
0000
,
0110
0000
0100
1000
0001
0000
0100
0001
,
1000
0000
0000
1010
0000
0000
0010
0000
0100
0000
0000
0000
0110
0000
0000
0000
,
0010
0000
1000
0001
1000
0000
0100
0000
,
0001
0000
1000
0001
1000
0000
0001
0000
,
0110
0000
0000
0010
0000
0000
0001
0000
0100
0000
0000
0000
0010
0000
1000
0000
,
0001
0000
0000
0001
0000
0000
1000
0000
0010
0000
0000
0110
0000
0000
0000
0000
,
0100
0000
0000
0100
0000
0000
0001
0000
1000
0000
0000
0000
0100
0000
0010
0000
,
0100
0000
0000
1000
0000
0000
0010
0000
0100
0000
0000
0000
0101
0000
0000
0000
,
0001
0000
0010
0100
1000
0000
0010
0100
,
0101
0000
0000
1001
0000
0000
1100
0000
0110
0000
0000
0000
0110
0000
0000
0000
,
0010
0000
0001
0010
1000
0000
0101
0000
,
1100
0000
1000
0010
0001
0000
1100
0000
,
0202
0303
0022
0033
,
2200
3300
2020
3030
;

//---------------dance-single - ----------------
#NOTEDATA:;
#CHARTNAME:;
#STEPSTYPE:dance-single;
#DESCRIPTION:;
#CHARTSTYLE:;
#DIFFICULTY:Challenge;
#METER:14;
#RADARVALUES:0.668015,0.648351,0.694234,0.430904,0.434894,445.000000,87.000000,54.000000,0.000000,0.000000,0.000000,0.000000,0.000000,0.668015,0.648351,0.694234,0.430904,0.434894,445.000000,87.000000,54.000000,0.000000,0.000000,0.000000,0.000000,0.000000;
#CREDIT:;
#NOTES:
0000
0000
0000
0000
,
0000
0000
0000
0000
,
0000
0000
0000
0000
,
0000
0000
0000
0000
,
1100
0000
0100
0010
0000
0000
0001
0000
0011
0000
1000
0010
0000
0000
0100
0000
,
0101
0000
0010
1000
0000
0000
0100
0000
0110
0000
0001
1000
0000
0000
0010
0000
,
0110
0000
0010
1000
0000
0000
1010
0000
0011
0000
0100
1000
0000
0000
1100
0000
,
0101
0000
0010
0000
1000
0000
0100
0000
0001
0100
0010
0001
1000
0010
0100
1000
,
0100
0000
0000
0000
0000
1010
0000
0000
0000
0001
0000
0010
0001
0000
0000
0000
0000
0000
0001
0000
0000
0100
0000
0010
,
0001
0000
0000
0000
0000
0010
0000
0000
0000
0101
0000
0000
1010
0000
0000
0000
0000
0000
0001
0000
0000
0010
0000
0100
,
0010
0000
0000
0000
0000
0001
0000
0000
0000
0100
0000
0010
1000
0000
0000
0000
0000
0000
1010
0000
0000
0010
0000
1000
,
0001
0000
0000
0000
0000
0010
0000
0000
0000
1100
0000
0000
0011
0000
0000
0000
0000
0000
0001
0000
0000
0010
0000
0001
,
0010
0000
0000
0000
0000
0100
0000
0000
0000
1000
0000
0001
0100
0000
0000
0000
0000
0000
1000
0000
0000
0100
0000
0010
,
1000
0000
0000
0000
0000
0001
0000
0000
0000
0011
0000
0000
1100
0000
0000
0000
0000
0000
0001
0000
0000
0100
0000
0010
,
1000
0000
0000
0000
0000
0001
0000
0000
0000
0010
0000
0001
0010
0000
0000
0000
0000
0000
0010
0000
0000
0100
0000
0010
,
0001
0000
0000
0000
0000
1000
0000
0000
0000
0010
0000
0000
0200
0000
0000
0000
0000
0000
0320
0000
0000
0000
0000
0000
,
1030
0000
0000
0000
0000
0000
0001
0000
0000
0010
0000
0000
0000
0000
0000
0010
0000
0000
0001
0000
0000
0000
0000
0000
1100
0000
0000
0000
0000
0000
0000
0000
0000
0000
0000
0000
0001
0000
0000
0000
0000
0000
0100
0000
0000
0000
0010
0000
,
1000
0000
0000
0010
0000
0000
0001
0000
0010
0000
0000
0010
0000
0000
0000
0000
,
1000
0000
0000
0010
0000
0000
0000
0000
0000
0010
0000
0000
0100
0000
0000
0000
0000
0000
0001
0000
0000
0000
0000
0000
0102
0000
0000
0000
0000
0000
0000
0000
0000
0000
0000
0000
0013
0000
0000
0000
0000
0000
0100
0000
0000
0000
1000
0000
,
0001
0000
0000
0000
0000
0000
0100
0000
0000
0010
0000
0000
0000
0000
0000
0010
0000
0000
1000
0000
0000
0000
0000
0000
0001
0000
0000
0000
0000
0000
0010
0000
0000
0000
0000
0000
0100
0000
0000
0000
0000
0000
1000
0000
0000
0000
0010
0000
,
0200
0000
0000
0000
0000
0000
0301
0000
0000
0100
0000
0010
2000
0000
0000
0000
0000
0000
3001
0000
0000
0010
0000
0100
,
1000
0000
0001
0100
0000
0010
1000
0000
0101
0000
0000
0000
1001
0000
0000
0000
,
1100
0000
1000
0100
0011
0000
1001
0000
,
0101
0000
0001
0100
1010
0000
0110
1000
,
0002
0000
2003
0000
,
3020
0000
0000
0000
0000
0100
0000
0000
0000
0100
0000
0000
2030
0000
0000
0000
0000
0010
0000
0000
0000
0000
0000
0000
,
3002
0000
0000
0000
0000
0000
0000
0000
0000
0000
0010
0000
0000
0000
0000
0003
0000
0000
0010
0000
0000
0000
0000
0000
0100
0000
0000
0000
0000
0000
0000
0000
0000
0000
0000
0000
1000
0000
0000
0000
0000
0000
0010
0000
0000
0000
0000
0000
,
0100
0000
0000
0000
0000
0000
0000
0000
0000
0110
0000
0000
0000
0000
0000
0000
0000
0000
0001
0000
0000
0000
0000
0000
2000
0000
0000
0000
0000
0000
0000
0000
0000
0000
0000
0000
3100
0000
0000
0000
0000
0000
0001
0000
0000
0000
0100
0000
,
0010
0000
0000
0000
0000
0000
0010
0000
0000
0100
0000
1000
0002
0000
0000
0000
0000
0000
0103
0000
0000
1000
0000
0100
,
0010
0000
0010
1000
2200
3300
0022
0033
,
0201
0000
1000
0310
1010
0000
0011
0000
,
1200
0000
0001
0310
0011
0000
1010
0000
,
1001
0000
0000
0000
0000
0000
1000
0000
0000
0100
0000
0000
0000
0000
0000
0001
0000
0000
0100
0000
0000
0000
0000
0000
1100
0000
0000
0000
0000
0000
0000
0000
0000
0000
0000
0000
0011
0000
0000
0000
0000
0000
1000
0000
0000
0000
0010
0000
,
0100
0000
0000
0020
0000
0000
0001
0000
0130
0000
0000
0120
0000
0000
0000
0000
,
1030
0000
0000
1010
0000
0000
0001
0000
0020
0000
0000
0000
0130
0000
1000
0000
,
0001
0000
0000
0000
0000
0000
0000
0000
0000
0101
0000
0000
0000
0000
0000
0000
0000
0000
0010
0000
0000
0000
0000
0000
2010
0000
0000
0000
0000
0000
0000
0000
0000
0000
0000
0000
3001
0000
0000
0000
0000
0000
0010
0000
0000
0000
0001
0000
,
0020
0000
0000
0000
0000
0000
0130
0000
0000
1000
0000
0100
2000
0000
0000
0000
0000
0000
3001
0000
0000
0100
0000
0010
,
2000
0000
0000
0000
0000
0000
3001
0000
0000
0010
0000
0000
1100
0000
0000
0000
0000
0000
0101
0000
0000
0001
0000
0100
,
0020
0000
0000
0000
0000
0000
1030
0000
0000
0100
0000
0010
0002
0000
0000
0003
0000
0000
0011
0000
0000
0000
0000
0000
,
1020
0000
0000
0000
0000
0000
0031
0000
0000
0010
0000
0000
1010
0000
0000
0000
0000
0000
0011
0000
0000
1000
0000
0010
,
0100
0000
0000
0000
0000
0000
1000
0000
0000
0100
0000
0000
0000
0000
0000
0001
0000
0000
0010
0000
0000
0000
0000
0000
1200
0000
0000
0000
0000
0000
0000
0000
0000
0000
0000
0000
0301
0000
0000
0000
0000
0000
0100
0000
0000
0000
0010
0000
,
0002
0000
0000
1000
0000
0000
0103
0000
0101
0000
0000
0110
0000
0000
0010
1000
,
1100
0000
0100
0010
0000
0010
0001
0000
0021
0000
0000
0000
0230
0000
1000
0000
,
0310
0000
0000
0000
0000
0000
0001
0000
0000
0010
0000
0000
0000
0000
0000
0100
0000
0000
0001
0000
0000
0000
0000
0000
0100
0000
0000
0000
0000
0000
0000
0000
0000
0000
0000
0000
0010
0000
0000
0000
0000
0000
0001
0000
0000
0000
1000
0000
,
0200
0000
0000
0000
0000
0000
0310
0000
0000
0001
0000
0100
0020
0000
0000
0000
0000
0000
1030
0000
0000
0100
0000
0010
,
0001
0000
0000
0000
0000
0000
0011
0000
0000
1100
0000
0000
1002
0000
0000
0000
0000
0000
0103
0000
0000
1000
0000
0100
,
0020
0000
2030
0010
3200
0000
0310
0000
,
0011
0000
0000
1000
0010
0000
0100
0000
0020
0000
0000
0000
1030
0000
0001
0010
,
0011
0000
0100
1000
0001
0000
0100
0000
0210
0000
0000
0000
1300
0000
0100
0010
,
2000
0000
0000
0000
0000
0000
0000
0000
0000
3002
0000
0000
0000
0000
0000
0000
0000
0000
0013
0000
0000
0000
0000
0000
0210
0000
0000
0000
0000
0000
0000
0000
0000
0000
1300
0000
0000
0000
0000
0000
0000
0000
0001
0000
0000
0000
0100
0000
,
0010
0000
0000
0000
0000
1000
0000
0000
0000
0001
0000
0010
0200
0000
0000
0000
0000
0000
0301
0000
0000
0100
0000
0000
,
0020
0000
0000
0000
0000
0000
0000
0000
0000
0031
0000
0000
0000
0000
0000
0000
0000
0000
0100
0000
0000
0000
0000
0000
2010
0000
0000
0000
0000
0000
0000
0000
0000
0000
0000
0000
3001
0000
0000
0000
0000
0000
0010
0000
0000
0000
0100
0000
,
0002
0000
0000
0000
0000
0000
0103
0000
0000
0010
0000
0001
1000
0000
0000
0000
0000
0000
0010
0000
0000
0100
0000
1000
,
0200
0000
0301
0010
1100
0000
0101
0000
,
1010
0000
0100
0001
0000
1000
0100
0000
0021
0000
0000
0000
0130
0000
0000
0000
,
0011
0000
0000
1000
0010
0000
0100
0000
1010
0000
0100
0000
0101
0000
1000
0000
,
1100
0000
0010
0001
1000
0000
0010
0000
0100
0000
1000
0100
0010
0000
1000
0000
,
0100
0000
0010
0001
1000
0000
0010
0100
0001
0000
0000
1200
0000
0000
0310
1000
,
0010
0000
0100
1000
0001
0000
0100
0000
1010
0000
0100
0010
1000
0100
0010
0000
,
0001
0010
0000
0001
0100
0000
1010
0000
1100
0000
0001
0000
0101
0000
0010
0000
,
1000
0010
0000
0001
0010
0000
1000
0000
0001
0010
0000
1000
0010
0000
0001
0000
,
0101
1000
1100
0101
1010
0001
0011
0100
,
1200
0001
0310
0001
1100
1000
1001
0001
,
0201
1000
0310
1000
0101
1000
1100
0001
,
2002
0000
0000
0000
,
3003
0000
0000
0000
;
