#TITLE:Faster Than You Know;
#SUBTITLE:;
#ARTIST:BLACKGRYPH0N & Baasik;
#TITLETRANSLIT:;
#SUBTITLETRANSLIT:;
#ARTISTTRANSLIT:;
#GENRE:Pop;
#CREDIT:;
#BANNER:Faster Than You Know.png;
#BACKGROUND:Faster Than You Know-bg.png;
#LYRICSPATH:;
#CDTITLE:;
#MUSIC:Faster Than You Know.mp3;
#OFFSET:-0.088222;
#SAMPLESTART:45.840000;
#SAMPLELENGTH:15.000000;
#SELECTABLE:YES;
#BPMS:0.000000=82.500000
;
#STOPS:
;
#BGCHANGES:;
#KEYSOUNDS:;
#ATTACKS:;

//---------------dance-single - ----------------
#NOTES:
     dance-single:
     :
     Easy:
     4:
     0.170031,0.133802,0.132246,0.015558,0.000000,134.000000,17.000000,2.000000,0.000000,0.000000,0.000000,0.170031,0.133802,0.132246,0.015558,0.000000,134.000000,17.000000,2.000000,0.000000,0.000000,0.000000:
0000
0000
0000
0000
,
0000
0000
0000
0000
,
0000
0000
0000
0000
,
0000
0000
0000
0000
,
0010
0010
0000
1010
,
1000
1000
0000
1001
,
0001
0001
0000
0011
,
0010
0010
0000
0110
,
0100
0100
0000
1100
,
1000
1000
0000
1010
,
0010
0010
0000
0011
,
0001
0001
0000
0101
,
0100
0100
0010
0010
,
1000
1000
0001
0001
,
0010
0010
0100
0100
,
2000
0000
0000
3001
,
1000
0010
0100
0001
,
0000
1000
0100
1000
,
0001
0010
0100
1000
,
0000
0010
1000
0010
,
0100
0001
1000
0001
,
0010
0001
1000
0001
,
1000
0010
0100
0001
,
0000
1000
0100
1000
,
0010
0010
0000
0110
,
0100
0100
0000
0101
,
0001
0001
0000
1001
,
1000
1000
0000
1100
,
0100
0100
0000
0101
,
1000
1000
0000
1010
,
0001
0001
0000
0011
,
0100
0100
0000
1100
,
1000
1000
0001
0001
,
0100
0100
0010
0010
,
1000
1000
0010
0010
,
0200
0000
0000
0301
,
0100
0100
0010
0010
,
1000
0100
0010
0001
,
0100
0100
0010
0010
,
1000
0010
0100
0001
,
1000
0100
0001
0100
,
1000
0010
0001
0010
,
0100
0100
0001
0001
,
1001
0000
0000
0000
;

//---------------dance-single - ----------------
#NOTES:
     dance-single:
     :
     Beginner:
     1:
     0.050009,0.050176,0.000000,0.054454,0.000000,38.000000,0.000000,7.000000,0.000000,0.000000,0.000000,0.050009,0.050176,0.000000,0.054454,0.000000,38.000000,0.000000,7.000000,0.000000,0.000000,0.000000:
0000
0000
0000
0000
,
0000
0000
0000
0000
,
0000
0000
0000
0000
,
0000
0000
0000
0000
,
0000
0010
0000
0000
,
0000
1000
0000
0000
,
0000
0001
0000
0000
,
0000
0100
0000
0000
,
0000
0010
0000
0000
,
0000
1000
0000
0000
,
0000
0001
0000
0000
,
0000
0010
0000
0000
,
0100
0000
0100
0000
,
0100
0000
0000
0000
,
1000
0000
1000
0000
,
1000
0000
0000
0000
,
0002
0000
0000
0000
,
0003
0000
0000
0000
,
0200
0000
0000
0000
,
0300
0000
0000
0000
,
0010
0000
0010
0000
,
0010
0000
0000
0000
,
2000
0000
0000
0000
,
3000
0000
0000
0000
,
0000
0001
0000
0000
,
0000
0010
0000
0000
,
0000
0100
0000
0000
,
0000
1000
0000
0000
,
0000
0010
0000
0000
,
0000
1000
0000
0000
,
0000
0001
0000
0000
,
0000
0010
0000
0000
,
0100
0000
0100
0000
,
0100
0000
0000
0000
,
1000
0000
1000
0000
,
1000
0000
0000
0000
,
0002
0000
0000
0000
,
0003
0000
0000
0000
,
0020
0000
0000
0000
,
0030
0000
0000
0000
,
0200
0000
0000
0000
,
0300
0000
0000
0000
,
2000
0000
0000
0000
,
3000
0000
0000
0000
;

//---------------dance-single - ----------------
#NOTES:
     dance-single:
     :
     Medium:
     7:
     0.284496,0.250879,0.038896,0.085571,0.070013,240.000000,5.000000,11.000000,0.000000,0.000000,0.000000,0.284496,0.250879,0.038896,0.085571,0.070013,240.000000,5.000000,11.000000,0.000000,0.000000,0.000000:
0000
0000
0000
0000
,
0000
0000
0000
0000
,
0000
0000
0000
0000
,
0000
0000
0000
0000
,
1000
0000
1000
0000
0001
0000
0000
0010
0000
0000
0010
0000
0100
0000
0000
0000
,
1000
0000
1000
0000
0010
0000
0000
0100
0000
0000
0100
0000
0001
0000
0000
0000
,
0010
0000
0010
0000
0100
0000
0000
1000
0000
0000
1000
0000
0001
0000
0000
0000
,
0100
0000
0100
0000
0010
0000
0000
1000
0000
0000
1000
0000
0100
0000
0000
0000
,
0010
0000
0010
0000
0001
0000
0000
1000
0000
0000
1000
0000
0010
0000
0000
0000
,
0100
0000
0100
0000
0001
0000
0000
0001
0000
0000
1000
0000
0100
0000
0000
0000
,
0010
0000
0010
0000
0100
0000
0000
1000
0000
0000
0001
0000
0100
0000
0000
0000
,
0010
0000
0010
0000
1000
0000
0000
0001
0000
0000
0100
0000
0010
0000
1000
0000
,
0001
0000
0010
0000
0001
0010
0100
0010
,
0100
0000
0010
0000
0100
0010
0100
1000
,
0010
0000
0010
0000
0100
0010
0100
0001
,
2000
0002
0000
0000
0000
3003
1001
0000
,
1000
0000
0010
0010
0100
0100
0002
0013
,
0000
0001
0010
0100
1000
0001
0100
0001
,
1000
0000
0010
0010
1000
1000
0200
1300
,
0000
0100
0010
0100
1000
0001
1000
0010
,
0100
0000
0010
0100
0001
0010
0100
0000
,
0000
0010
0100
1000
0010
0100
0001
0100
,
0001
0000
0010
0010
0100
0100
2000
3001
,
0000
1000
0010
0100
0001
1000
0001
0100
,
1000
0000
1000
0000
0100
0000
0000
0001
0000
0000
0001
0000
0010
0000
0000
0000
,
0100
0000
0100
0000
0010
0000
0000
0001
0000
0000
0001
0000
1000
0000
0000
0000
,
0010
0000
0010
0000
1000
0000
0000
0001
0000
0000
0100
0000
0001
0000
0000
0000
,
0010
0000
0010
0000
0001
0000
0000
1000
0000
0000
0100
0000
1000
0000
0000
0000
,
0010
0000
0010
0000
0001
0000
0000
0010
0000
0000
1000
0000
0100
0000
0000
0000
,
0010
0000
0010
0000
0100
0000
0000
1000
0000
0000
0001
0000
1000
0000
0000
0000
,
0100
0000
0100
0000
1000
0000
0000
0001
0000
0000
0010
0000
0001
0000
0000
0000
,
0100
0000
0100
0000
0001
0000
0000
1000
0000
0000
0010
0000
1000
0000
0000
0000
,
0100
0000
0100
0000
0010
0100
0010
0001
,
0010
0000
0010
0000
0001
0100
0001
0010
,
0001
0000
0001
0000
0100
0001
0100
0010
,
2000
0002
0000
0000
0000
3003
1001
0000
,
1000
0000
0010
0010
0100
0100
0002
1003
,
0000
0001
0010
0100
1000
0001
0100
0001
,
1000
0000
0010
0010
0100
0100
0020
1030
,
0000
0010
1000
0100
0001
0100
1000
0010
,
0200
0000
0301
0100
0010
0010
2000
3001
,
1000
0000
1000
0000
0100
0000
0000
0010
0000
0000
0110
0000
0000
0000
0000
0000
,
0001
0000
0001
0000
0010
0000
0000
0100
0000
0000
1100
0000
0000
0000
0000
0000
,
1001
0000
0000
0000
;

//---------------dance-single - ----------------
#NOTES:
     dance-single:
     :
     Hard:
     13:
     0.546766,0.518483,0.427856,0.163363,0.505648,416.000000,55.000000,21.000000,0.000000,0.000000,0.000000,0.546766,0.518483,0.427856,0.163363,0.505648,416.000000,55.000000,21.000000,0.000000,0.000000,0.000000:
// measure 0
0000
0000
0000
0000
,  // measure 1
0000
0000
0000
0000
,  // measure 2
0000
0000
0000
0000
,  // measure 3
0000
0000
0000
0000
,  // measure 4
1000
0001
0010
0001
0100
0000
0010
0100
0000
0010
0100
0000
0101
0000
0001
0000
,  // measure 5
1000
0000
0100
0010
0000
0100
0010
0001
0100
0000
0010
1000
0000
0010
1000
0010
,  // measure 6
1000
0001
0100
0001
0010
0000
0100
0010
0000
0100
0010
0000
0011
0000
0001
0000
,  // measure 7
1000
0000
0000
0000
0010
0000
1000
0000
0000
0000
1000
0000
0001
0000
0000
0000
0010
0000
0000
0100
0010
0000
0001
0000
1001
0000
0000
0000
1000
0000
0010
0000
,  // measure 8
0100
0000
0001
0000
1000
0000
0001
0010
0100
0010
0100
0000
1100
0000
1000
0000
,  // measure 9
0001
0000
0100
0001
0000
0010
0001
0010
0100
0000
1000
0010
0000
1000
0100
1000
,  // measure 10
0001
0100
1000
0100
0010
0000
1000
0010
0000
1000
0001
0000
0010
0000
0100
0000
,  // measure 11
0110
0000
0000
0000
0100
0000
1000
0000
0000
0000
1000
0000
0001
0000
0000
0000
0100
0000
0000
0010
0100
0000
0001
0000
1001
0000
0000
0000
1000
0000
0000
0000
,  // measure 12
1100
0000
1100
0000
0100
0000
0010
0000
0100
1000
0100
1000
0000
0001
0000
0000
,  // measure 13
0101
0000
0101
0000
0200
0000
0310
0000
1000
0010
1000
0000
0001
0000
0010
0000
,  // measure 14
0110
0000
0110
0000
0010
0000
0001
0000
1000
0001
0100
0001
0000
0100
0010
0100
,  // measure 15
0010
0000
0000
0000
1000
0000
0000
0000
1001
0000
0000
0000
0001
0000
0000
0000
0010
0000
0000
0100
0010
0000
0001
0000
0011
0000
0000
0000
0110
0000
0000
0000
,  // measure 16
0200
0000
0301
0000
1010
0000
1010
0000
0010
0010
0010
0000
0002
0000
1003
0000
,  // measure 17
0001
0100
0001
0000
1000
0000
0100
0000
0010
0000
0100
0000
1000
0000
0001
0000
,  // measure 18
0200
0000
1300
0000
0011
0000
0011
0000
0010
0010
0010
0000
2000
0000
3001
0000
,  // measure 19
1000
0000
0100
0000
1000
0000
0000
0000
0001
0000
0000
0000
0100
0000
0000
0000
0010
0000
0000
0010
0100
0000
0100
0000
0001
0000
0000
0000
1000
0000
0000
0000
,  // measure 20
1200
0310
0100
1000
1001
0101
0110
0100
,  // measure 21
0010
1010
1001
0011
0110
1100
1002
0103
,  // measure 22
0020
0000
1030
0000
0101
0000
0101
0000
0100
0100
0100
0000
2000
0000
3001
0000
,  // measure 23
1000
0000
0000
0000
0100
0000
0000
0000
0001
0000
0000
0000
0010
0000
0000
0000
0100
0000
0000
0010
0100
0000
1000
0000
1001
0000
0000
0000
1000
0000
0000
0000
,  // measure 24
0010
1000
0100
0001
0100
0010
0100
0010
0001
0010
0100
1000
0001
0010
0100
1000
,  // measure 25
0010
1000
0001
0100
0001
0010
0001
0100
1000
1000
1100
0000
0001
0000
0101
0000
,  // measure 26
0001
0010
0100
0001
1000
0010
0001
0100
0010
0100
0001
1000
0010
0100
0001
1000
,  // measure 27
0100
0000
0000
0000
0010
0000
0100
0000
0010
0000
0000
0000
0100
0000
1000
0000
0100
0000
0000
0100
1000
0000
0001
0000
0002
0000
0010
0000
0100
0000
1003
0000
,  // measure 28
0001
0100
0001
1000
0100
0001
1000
0010
0001
0100
0010
1000
0001
0100
0010
1000
,  // measure 29
0001
0010
0001
0100
0010
1000
0100
0001
0100
0100
0101
0000
0100
0000
1100
0000
,  // measure 30
1000
0001
1000
0010
0100
0010
1000
0100
0010
0001
0100
0010
1000
0010
0100
0001
,  // measure 31
0001
0000
0000
0000
0100
0000
0001
0000
0100
0000
0000
0000
0010
0000
0100
0000
0010
0000
0000
0010
1000
0000
0010
0000
2000
0000
0010
0000
0100
0000
3001
0000
,  // measure 32
1001
0000
1001
0000
1000
0000
0000
0000
0100
0010
0110
0000
0000
0010
0000
0000
,  // measure 33
0011
0011
0002
0000
1003
1001
1000
0010
,  // measure 34
0110
0000
0110
0000
0200
0000
0000
0000
0301
0100
0101
0000
0000
0100
0000
0000
,  // measure 35
0220
0000
0000
0000
0330
0000
0010
1000
,  // measure 36
0200
0000
0301
0000
1010
0000
1010
0000
0010
0010
0010
0000
0002
0000
1003
1000
,  // measure 37
0001
0000
0100
0000
0001
0000
1000
0100
0000
0100
0001
0000
1000
0000
0010
0010
,  // measure 38
0200
0000
1300
0000
0011
0000
0011
0000
0010
0010
0010
0000
2000
0000
3001
1000
,  // measure 39
0010
0000
0000
0000
0100
0000
0000
0000
0010
0000
0000
0000
0001
0000
0000
0000
1000
0000
0000
0010
1000
0000
0001
0000
0010
0000
0000
0000
0100
0000
0010
0000
,  // measure 40
0200
0000
0301
0000
1010
0000
1010
0000
0010
0010
0010
0000
0002
0000
1003
1000
,  // measure 41
0001
0000
0100
0000
0010
0000
0100
0010
0000
0010
1000
0000
1001
0000
0001
0001
,  // measure 42
0010
0000
0010
0000
0110
0000
0100
1000
0000
1000
0001
0000
0100
0000
0010
0100
,  // measure 43
0110
0000
0000
0000
;
