#VERSION:0.83;
#TITLE:FOREVER;
#SUBTITLE:;
#ARTIST:General Mumble;
#TITLETRANSLIT:;
#SUBTITLETRANSLIT:;
#ARTISTTRANSLIT:;
#GENRE:Drum 'n Bass;
#ORIGIN:;
#CREDIT:;
#BANNER:FOREVER.png;
#BACKGROUND:FOREVER-bg.png;
#PREVIEWVID:;
#JACKET:FOREVER-jacket.png;
#CDIMAGE:;
#DISCIMAGE:;
#LYRICSPATH:;
#CDTITLE:;
#MUSIC:FOREVER.mp3;
#OFFSET:-9.200000;
#SAMPLESTART:54.320000;
#SAMPLELENGTH:12.000000;
#SELECTABLE:YES;
#BPMS:0.000=105.000;
#STOPS:;
#DELAYS:;
#WARPS:;
#TIMESIGNATURES:0.000=4=4;
#TICKCOUNTS:0.000=4;
#COMBOS:0.000=1;
#SPEEDS:0.000=1.000=0.000=0;
#SCROLLS:0.000=1.000;
#FAKES:;
#LABELS:0.000=Song Start;
#BGCHANGES:;
#KEYSOUNDS:;
#ATTACKS:
;

//---------------dance-single - ----------------
#NOTEDATA:;
#CHARTNAME:;
#STEPSTYPE:dance-single;
#DESCRIPTION:;
#CHARTSTYLE:;
#DIFFICULTY:Hard;
#METER:11;
#RADARVALUES:0.427195,0.390047,0.089386,0.284409,0.446929,368.000000,357.000000,11.000000,35.000000,0.000000,0.000000,0.000000,0.000000,0.000000,0.427195,0.390047,0.089386,0.284409,0.446929,368.000000,357.000000,11.000000,35.000000,0.000000,0.000000,0.000000,0.000000,0.000000;
#CREDIT:;
#NOTES:
0010
1000
1100
0000
0010
0001
0101
0000
,
0100
0010
0110
0000
0100
0001
1001
0000
,
1000
0100
0110
0000
0010
0001
1001
0000
,
1000
0010
0110
0000
0100
0001
1001
0000
,
1000
0000
1000
0001
0000
0001
1000
0000
0001
1000
0000
1000
,
0001
0000
0001
1000
0000
1000
0001
0000
1000
0001
0000
0001
,
0100
0000
0100
0010
0000
0010
0100
0000
0010
0100
0000
0100
,
0010
0000
0010
0100
0000
0100
0010
0000
0100
0010
0000
1000
,
0100
0000
0010
0001
0000
0001
1000
0000
1000
0010
0000
0100
,
0001
0000
0010
0100
0000
1000
0001
0000
0001
0100
0000
0100
,
0010
0000
1000
0100
0000
0010
0001
0000
0001
1000
0000
1000
,
0010
0000
0100
0001
0000
1000
0100
0000
0100
0010
0000
0010
,
0001
0100
0010
1000
0001
0010
0100
1000
,
0001
0100
0010
1000
0001
0010
0100
1000
,
0100
0010
0001
1000
0010
0100
0001
1000
,
0100
0001
0100
0010
0001
1000
0010
0100
,
0001
0100
1000
0100
0001
0100
1000
0100
,
0001
0010
1000
0010
0001
0010
1000
0010
,
0001
0100
0010
0100
0001
0010
0100
0010
,
0001
0000
0000
1000
0000
0000
0010
0000
0000
1000
0000
0000
0001
0000
0100
0000
0010
0000
2000
0000
0000
0000
0000
0000
,
3001
0000
0001
0100
0000
0100
0010
0000
0010
1000
0000
1000
,
0100
0000
0100
0010
0000
0010
0001
0000
0001
1000
0000
1000
,
0010
0100
0001
0100
0000
0100
0010
0000
0010
1000
0000
1000
,
0100
0000
0100
0001
0000
0001
0100
0000
0100
1000
0000
1000
,
0001
0100
0010
1000
0000
1000
0100
0000
0100
0001
0000
0001
,
1000
0000
1000
0001
0000
0001
0100
0000
0100
0010
0000
0010
,
0001
1000
0010
0100
0000
0100
0001
0000
0001
0010
0000
0010
,
0100
0000
0100
1000
0000
1000
0001
0000
0001
0100
0010
0100
,
0001
1000
0000
0001
1000
0000
0000
0000
0010
0000
0000
0000
0100
0000
0000
0000
,
0001
0010
0000
0001
0010
0000
0000
0000
0200
0000
0000
0000
2300
0000
0000
0000
,
3001
0100
0000
0001
0100
0000
0000
0000
0020
0000
0000
0000
2030
0000
0000
0000
,
3100
1000
0000
0100
1000
0000
0000
0000
0200
0000
0000
0000
0320
0000
0000
0000
,
0031
0100
0000
0001
0010
0000
0100
0000
1000
0000
0000
0000
0001
0000
0100
0000
,
0010
1000
0000
1000
0100
0000
0000
0000
0200
0000
0000
0000
0320
0000
0000
0000
,
0031
0100
0000
0100
0020
0000
0000
0000
2030
0000
0000
0000
3200
0000
0000
0000
,
1300
0001
0000
0100
0020
0000
0000
0000
0230
0000
0000
0000
0302
0000
0000
0000
,
1003
0100
0000
0010
0002
0000
0000
0000
2003
0000
0000
0000
3020
0000
0000
0000
,
0130
0001
0000
0010
0200
0000
0000
0000
0320
0000
0000
0000
0032
0000
0000
0000
,
1003
0010
0000
0100
0002
0000
0000
0000
2003
0000
0000
0000
3200
0000
0000
0000
,
0310
0100
0000
1000
0002
0000
0000
0000
0203
0000
0000
0000
0320
0000
0000
0000
,
1030
0100
1000
0000
0010
0000
0100
0001
0100
0000
0010
0000
2001
0000
0000
0000
,
3001
0010
0001
0010
0002
0000
0000
0000
0103
0000
0000
0000
0110
0000
0000
0000
,
0010
1000
0100
1000
0020
0000
0000
0000
0230
0000
0000
0000
0302
0000
0000
0000
,
1003
0100
0001
0100
2000
0000
0000
0000
3020
0000
0000
0000
0230
0000
0000
0000
,
0301
0100
0000
0001
0100
0000
0010
0000
1000
0000
0000
0000
0100
0000
0100
0000
,
1000
0100
0000
1000
0100
0000
0010
0000
0001
0000
0000
0000
0100
0000
0100
0000
,
0010
0100
0000
0001
1000
0000
0100
0000
0001
0000
0000
0000
0100
0000
0100
0000
,
0010
0000
0001
1000
0000
0010
1000
0000
0001
0000
0001
0000
0100
0000
0000
0000
,
0110
0000
0000
0000
;

//---------------dance-single - ----------------
#NOTEDATA:;
#CHARTNAME:;
#STEPSTYPE:dance-single;
#DESCRIPTION:;
#CHARTSTYLE:;
#DIFFICULTY:Medium;
#METER:7;
#RADARVALUES:0.279766,0.273033,0.048756,0.243780,0.044693,241.000000,235.000000,6.000000,30.000000,0.000000,0.000000,0.000000,0.000000,0.000000,0.279766,0.273033,0.048756,0.243780,0.044693,241.000000,235.000000,6.000000,30.000000,0.000000,0.000000,0.000000,0.000000,0.000000;
#CREDIT:;
#NOTES:
0010
0000
1000
0000
0100
1000
0001
0000
,
0100
0000
0010
0000
0100
0001
1000
0000
,
0100
0000
0010
0000
0001
1000
0100
0000
,
0001
0000
0100
0000
1000
0001
0010
0000
,
0100
0000
1000
0000
0001
0100
0010
0000
,
0100
0000
0001
0000
1000
0100
0010
0000
,
0001
0000
0100
0000
0010
1000
0010
0000
,
0100
0000
0001
0000
1000
0100
0001
0000
,
0100
0000
1000
0000
0001
0100
0010
0000
,
0100
0000
0001
0000
1000
0100
0010
0000
,
0001
0000
1000
0000
0010
0100
0001
0000
,
1000
0000
0100
0000
0010
0001
0100
0000
,
0010
0010
1000
1000
,
0100
0100
0001
0001
,
0010
0010
1000
1000
,
0100
0100
0010
0010
,
0001
0100
0010
1010
,
1000
0100
0010
0011
,
0001
0100
1000
1100
,
1000
0000
0000
0100
0000
0000
0001
0100
0010
2000
0000
0000
,
3001
0010
0100
1000
,
0001
0100
0010
1000
,
0100
0010
0100
0010
0000
0000
0001
0000
0000
1000
0000
0000
,
0010
0100
0001
1000
,
0100
0001
0100
0001
0000
0000
0100
0000
0000
1000
0000
0000
,
0001
0100
1000
0100
,
0010
1000
0010
1000
0000
0000
0001
0000
0000
0010
0000
0000
,
0100
1000
0001
0100
,
0010
0010
0020
0000
1030
0000
0100
0000
,
1000
1000
2000
0000
3001
0000
0100
0000
,
0010
0100
0020
0000
1030
0000
0100
0000
,
0001
0001
0200
0000
0310
0000
0001
0000
,
0101
0100
0120
1030
,
0001
0010
0002
0000
1003
0000
0020
0000
,
0130
0001
2000
0000
3100
0000
2000
0000
,
3010
0100
0002
0000
0013
0000
0200
0000
,
0301
0100
1000
0000
0001
0000
0200
0000
,
0310
1000
0200
0000
1300
0000
0002
0000
,
0103
0010
0200
0000
0301
0000
2000
0000
,
3100
1000
0002
0000
0103
0000
0020
0000
,
0130
0001
0020
0000
0130
0001
0200
0000
,
1300
0001
0200
0000
0310
0000
2000
0000
,
3100
0010
0200
0000
1300
0000
0020
0000
,
0130
0001
0200
0000
0310
0000
2000
0000
,
3100
0000
0000
1000
0000
0000
0100
0000
1000
0000
0000
0000
0020
0000
0000
0000
,
0130
0000
0000
0001
0000
0000
0100
0000
0001
0000
0000
0000
0020
0000
0000
0000
,
0031
0000
0000
0100
0000
0000
0010
0000
2000
0000
0000
0000
3100
0000
0000
0000
,
0010
0100
1000
0010
0100
0001
1000
0000
,
1001
0000
0000
0000
;

//---------------dance-single - ----------------
#NOTEDATA:;
#CHARTNAME:;
#STEPSTYPE:dance-single;
#DESCRIPTION:;
#CHARTSTYLE:;
#DIFFICULTY:Easy;
#METER:4;
#RADARVALUES:0.193863,0.195024,0.040630,0.268158,0.000000,167.000000,162.000000,5.000000,33.000000,0.000000,0.000000,0.000000,0.000000,0.000000,0.193863,0.195024,0.040630,0.268158,0.000000,167.000000,162.000000,5.000000,33.000000,0.000000,0.000000,0.000000,0.000000,0.000000;
#CREDIT:;
#NOTES:
1000
0100
1000
1000
,
0001
0010
0001
0001
,
0100
0010
0100
0100
,
0010
0100
0010
0010
,
1000
0100
0001
0100
,
1000
0001
0100
0010
,
1000
0001
0010
0100
,
1000
0001
0100
0010
,
0100
0001
1000
0100
,
0010
0001
1000
0010
,
0100
1000
0100
0010
,
1000
0100
0001
0100
,
2000
0000
3020
0000
,
0230
0000
0302
0000
,
0023
0000
0230
0000
,
2300
0000
3002
0000
,
0203
0010
0000
0010
,
0320
1000
0000
1000
,
2030
0001
0000
0001
,
3002
0100
0000
0103
,
0100
0010
1000
0100
,
1000
0001
0100
0010
,
2000
3100
1000
0010
,
0100
0001
1000
0100
,
0020
0031
0100
0010
,
0100
0001
1000
0010
,
0200
1300
0100
0001
,
1000
0100
0010
0100
,
0002
0003
0100
0100
,
2000
3000
0010
0010
,
0200
0300
0001
0001
,
0020
0030
0100
0100
,
1000
0001
2002
3003
,
2000
3000
0010
0010
,
0200
0300
0001
0001
,
2000
3000
0100
0100
,
0020
0030
0001
0001
,
0200
0300
0010
0010
,
2000
3000
0100
0100
,
2000
3000
0001
0001
,
0200
0000
0300
0020
0000
0030
0100
0000
,
0002
0003
1000
1000
,
0200
0300
1000
1000
,
0020
0030
0100
0100
,
0001
1000
1001
0000
,
0100
0010
0110
0000
,
0001
1000
1001
0000
,
0100
0010
0100
0010
,
1001
0000
0000
0000
;

//---------------dance-single - ----------------
#NOTEDATA:;
#CHARTNAME:;
#STEPSTYPE:dance-single;
#DESCRIPTION:;
#CHARTSTYLE:;
#DIFFICULTY:Beginner;
#METER:1;
#RADARVALUES:0.071973,0.117014,0.040630,0.000000,0.000000,62.000000,57.000000,5.000000,0.000000,0.000000,0.000000,0.000000,0.000000,0.000000,0.071973,0.117014,0.040630,0.000000,0.000000,62.000000,57.000000,5.000000,0.000000,0.000000,0.000000,0.000000,0.000000,0.000000;
#CREDIT:;
#NOTES:
1000
0000
0000
0000
,
0010
0000
0000
0000
,
0100
0000
0000
0000
,
0001
0000
0000
0000
,
1000
0000
0000
0000
,
1000
0000
0000
0000
,
0010
0000
0000
0000
,
0010
0000
0000
0000
,
0100
0000
0000
0000
,
0100
0000
0000
0000
,
0001
0000
0000
0000
,
0001
0000
0000
0000
,
1001
0000
0000
0000
,
0100
0000
0000
0000
,
0100
0000
0000
0000
,
0100
0000
0000
0000
,
0110
0000
0000
0000
,
0010
0000
0000
0000
,
0010
0000
0000
0000
,
0010
0000
0000
0000
,
0010
0000
0000
0000
,
0010
0000
0000
0000
,
0010
0000
0000
0000
,
1000
0000
0000
0000
,
1000
0000
0000
0000
,
1000
0000
0000
0000
,
0001
0000
0000
0000
,
0001
0000
0000
0000
,
0001
0000
1000
0000
,
0001
0000
0000
0000
,
0100
0000
0010
0000
,
0100
0000
0000
0000
,
1001
0000
0000
0000
,
0001
0000
1000
0000
,
0001
0000
0000
0000
,
0010
0000
0100
0000
,
0010
0000
0000
0000
,
0001
0000
1000
0000
,
0001
0000
0000
0000
,
0100
0000
0010
0000
,
0100
0000
0110
0000
,
0010
0000
0000
0000
,
0100
0000
0001
0000
,
0100
0000
0000
0000
,
0010
0000
0000
0000
,
1000
0000
0000
0000
,
0001
0000
0000
0000
,
0100
0000
0000
0000
,
1001
0000
0000
0000
;

//---------------dance-single - ----------------
#NOTEDATA:;
#CHARTNAME:;
#STEPSTYPE:dance-single;
#DESCRIPTION:;
#CHARTSTYLE:;
#DIFFICULTY:Challenge;
#METER:16;
#RADARVALUES:0.791703,0.882177,0.503811,0.040630,1.369229,682.000000,620.000000,62.000000,5.000000,0.000000,0.000000,0.000000,0.000000,0.000000,0.791703,0.882177,0.503811,0.040630,1.369229,682.000000,620.000000,62.000000,5.000000,0.000000,0.000000,0.000000,0.000000,0.000000;
#CREDIT:;
#NOTES:
// measure 0
1000
0000
0100
0000
1100
0000
0010
0000
0100
1000
0001
0000
1010
0000
0001
0010
,  // measure 1
0110
0000
1000
0000
1100
0000
0010
0000
0010
0001
1000
0000
1010
0000
1000
0010
,  // measure 2
0101
0000
0010
0000
1010
0000
0100
0000
0001
1000
0100
0000
0110
0000
1000
0001
,  // measure 3
0101
0000
1000
0000
1100
0000
0010
0000
1000
0010
0001
0000
0011
0000
0001
1000
,  // measure 4
1100
1000
0100
0010
0001
0010
0001
1000
0010
0100
0001
0100
,  // measure 5
0001
1000
0100
0010
0100
1000
0001
0100
0010
0100
0001
1000
,  // measure 6
0001
0010
0100
1000
0001
1000
0001
0100
0010
1000
0010
1000
,  // measure 7
0001
0010
0100
1000
0001
1000
0001
0100
0010
1000
0001
1000
,  // measure 8
0100
0001
0100
0010
0001
0010
0001
0100
1000
0100
0010
1000
,  // measure 9
0010
0001
0010
0100
0001
0100
0001
0010
1000
0010
0100
1000
,  // measure 10
0100
0010
0001
0010
1000
0010
0001
0100
0010
1000
0010
0001
,  // measure 11
0010
0100
1000
0100
0001
1000
0100
0001
0100
0010
1000
0010
,  // measure 12
0100
1000
1000
0100
0100
0100
0010
0010
0010
0001
0001
0001
,  // measure 13
1000
1000
1000
0010
0010
0010
0100
0100
0100
0001
0001
0001
,  // measure 14
1000
0010
0100
0010
0010
0010
1000
0100
0001
0100
0100
0100
,  // measure 15
1000
0000
0010
0000
0001
0000
0010
0000
0010
0000
0010
0000
1010
0000
1000
0000
0010
0000
1010
0000
1000
0000
1000
0010
,  // measure 16
1000
0000
0001
0000
0010
0000
0100
0000
0100
0000
0100
0000
0011
0000
0001
0000
0100
0000
1010
0000
1000
0000
1000
0010
,  // measure 17
0100
0000
0001
0000
0100
0000
0010
0000
0010
0000
0010
0000
1010
0000
0010
0000
0100
0000
0101
0000
0001
0000
0001
0010
,  // measure 18
0100
0000
0010
0000
0100
0000
1000
0000
1000
0000
1000
0000
1100
0000
0001
0000
0100
0000
1010
0000
0010
0000
0010
1000
,  // measure 19
0100
0000
1000
0000
0100
0000
0010
0000
0010
0000
0010
0000
0011
0000
1100
0000
1001
0000
0220
0000
0000
0330
0000
0000
,  // measure 20
1010
0001
0010
1000
0010
0100
0010
0001
0100
0010
0100
0001
,  // measure 21
1000
0100
0010
0001
0100
0010
1000
0100
0010
0001
0010
1000
,  // measure 22
0110
0000
1100
0000
0011
0000
0010
0000
0001
0000
0001
0010
1000
0000
0010
0000
0100
0000
0010
0000
0100
0000
1000
0001
,  // measure 23
0100
0000
0010
0000
0001
0000
0010
0000
0100
0000
1000
0100
0010
0000
1000
0000
0100
0000
0010
0000
0001
0000
0010
0000
,  // measure 24
0110
0000
0011
0000
1100
0000
0001
0000
0100
0000
1000
0100
0010
0000
1000
0001
0010
0000
0001
0000
0100
0000
0100
0010
,  // measure 25
1000
0000
0001
0010
0100
0000
1000
0000
1000
0000
0010
1000
0001
0000
1000
0100
0010
0000
0001
0000
1000
0000
0010
0000
,  // measure 26
1010
0000
1001
0000
0101
0000
0010
0000
0001
0000
0010
0100
0001
0000
1000
0100
0010
0000
0011
0000
0001
0000
1000
0010
,  // measure 27
0100
0000
1000
0100
0010
0000
1010
0000
0001
0000
0010
0100
0001
0000
0100
0010
0001
0000
0011
0000
0001
0000
1000
0000
,  // measure 28
0010
0100
1000
0100
0010
0000
1000
0000
0101
0000
0001
0000
1100
0000
0000
0000
,  // measure 29
1000
0010
0001
0010
0100
0000
0001
1000
0100
0000
1000
0001
0100
0000
0000
0000
,  // measure 30
0001
0100
0010
1000
0100
0000
1000
1000
1100
0000
0001
0001
0101
0000
0000
0000
,  // measure 31
0010
1000
0010
0000
0100
0000
0001
0000
1000
0000
0000
0000
0001
0000
0010
0000
0100
0000
0000
0000
0010
0000
0100
0000
1000
0000
0000
0000
0001
0000
0000
0000
,  // measure 32
1000
0000
1100
0000
0000
0000
0001
0000
0101
0000
0000
0000
0010
1000
0010
1000
0001
0000
0000
0000
0000
0000
0000
0000
0010
0001
0010
0001
1000
0100
1000
0100
,  // measure 33
0010
0001
0100
0010
1000
0000
0010
1000
0001
0000
0010
0001
1000
0000
0100
0000
,  // measure 34
0010
0001
0010
0100
1000
0000
0001
0100
0010
0000
1000
0100
0010
0000
0001
0000
,  // measure 35
0010
0001
0100
0010
1000
0000
1000
0100
0001
0000
1000
0010
0001
0000
1001
0000
,  // measure 36
1000
0100
1000
0001
0100
0000
0001
0100
1000
0001
1000
0100
0001
0000
1010
0000
,  // measure 37
1000
0001
0010
0100
1000
0000
1000
0100
0001
1000
0001
0100
1000
0000
0011
0000
,  // measure 38
0001
0100
0010
1000
0001
0000
1000
0100
0001
0100
0010
0001
1000
0000
0101
0000
,  // measure 39
1000
0100
0010
0001
1000
0000
0001
0100
1000
0100
0010
1000
0001
0000
1100
0000
,  // measure 40
0001
0100
0001
0000
1000
0000
0100
0000
0010
0000
0000
0000
0100
1000
0100
0000
0010
0000
0001
1000
0001
1000
0001
0000
0100
0000
0000
0000
1010
0000
0000
0000
,  // measure 41
0010
1000
0010
0000
0100
0000
0001
0000
1000
0000
0001
0000
1000
0000
0100
0000
0010
0000
0001
0000
0100
0000
0010
0000
0001
0000
0000
0000
0110
0000
0000
0000
,  // measure 42
0010
0010
0100
0001
0100
0000
0010
1000
0100
0000
0010
0001
0100
0000
0001
0000
,  // measure 43
1010
0010
0100
0001
1001
0000
1000
0001
0101
0000
0001
1000
1100
0000
1001
0000
,  // measure 44
0001
0000
0101
0000
0000
0000
1000
0000
1100
0000
0000
0000
0010
0001
0010
0001
1000
0000
0000
0000
0000
0000
0000
0000
0010
1000
0010
1000
0001
0100
0001
0100
,  // measure 45
0010
0000
1010
0000
0000
0000
0001
0000
0011
0000
0000
0000
1000
0010
1000
0010
0100
0000
0000
0000
0000
0000
0000
0000
0010
1000
0010
1000
0001
0010
0001
0010
,  // measure 46
0001
0000
1100
0000
0000
0000
1000
0000
0101
0000
0000
0000
0001
1000
0001
1000
0100
0000
0000
0000
0000
0000
0000
0000
0010
0001
0010
0000
0100
1000
0100
1000
,  // measure 47
0001
0000
0100
0000
1000
0000
0100
0000
0010
0000
0001
0000
0010
0100
0010
0100
0001
1000
0100
1000
0001
0100
0010
1000
0200
0000
0000
0000
0000
0000
0300
0000
,  // measure 48
2002
3003
0000
0000
;
