#TITLE:FOREVER (JackTHerbert Remix);
#SUBTITLE:;
#ARTIST:General Mumble;
#TITLETRANSLIT:;
#SUBTITLETRANSLIT:;
#ARTISTTRANSLIT:;
#GENRE:Industrial Speed;
#CREDIT:;
#BANNER:FOREVER (JackTHerbert Remix).png;
#BACKGROUND:FOREVER (JackTHerbert Remix)-bg.png;
#LYRICSPATH:;
#CDTITLE:;
#MUSIC:FOREVER (JackTHerbert Remix).mp3;
#OFFSET:-5.602000;
#SAMPLESTART:38.000000;
#SAMPLELENGTH:15.000000;
#SELECTABLE:YES;
#BPMS:0.000000=175.000000
;
#STOPS:
;
#BGCHANGES:;
#KEYSOUNDS:;
#ATTACKS:;

//---------------dance-single - ----------------
#NOTES:
     dance-single:
     :
     Hard:
     17:
     0.955060,0.808193,0.326843,0.099043,1.000000,632.000000,33.000000,10.000000,0.000000,0.000000,0.000000,0.955060,0.808193,0.326843,0.099043,1.000000,632.000000,33.000000,10.000000,0.000000,0.000000,0.000000:
0010
0000
1000
0000
1100
0000
0000
0000
0100
0001
0100
0000
1000
0000
0010
0000
,
0100
0000
0001
0000
0011
0000
0000
0000
0001
0100
0001
0000
0100
0000
0010
0000
,
1000
0000
0100
0000
1100
0000
0000
0000
1000
0001
1000
0000
0001
0000
0100
0000
,
0010
0000
0100
0000
0101
0000
0000
0000
0001
0010
0001
0000
0010
0000
0100
0000
,
1000
0000
0010
0000
0110
0000
0000
0000
0100
0001
0100
0000
0001
0000
0010
0000
,
0100
0000
1000
0000
1001
0000
0000
0000
0001
0100
0001
0000
0100
0000
0010
0000
,
1000
0000
0100
0000
0110
0000
0000
0000
0010
0100
0010
0000
0100
0000
1000
0000
,
0010
0000
0100
0000
1100
0000
0000
0000
0100
1000
0100
0000
0001
0000
0010
0000
,
0100
1000
0100
0010
0001
0100
0010
0100
0001
0010
0100
1000
,
0001
0100
0010
1000
0001
0010
0100
1000
0001
0100
1000
0100
,
0001
0010
0100
0010
0001
0100
0010
1000
0001
0010
1000
0010
,
0001
0100
0010
0100
0001
0010
0100
0001
0100
0010
0001
1000
,
0010
0100
0001
0100
0010
1000
0001
0010
0100
1000
0001
0100
,
1000
0100
0001
0010
0100
1000
0100
0010
0001
0100
0010
0100
,
0001
0010
0100
1000
0100
0010
0001
0100
0010
1000
0100
0010
,
0100
1000
0001
0100
0010
1000
0001
0010
0100
1000
0010
0100
,
0001
0100
0001
0100
0010
1000
0010
1000
,
0001
0010
0001
0010
0100
1000
0100
1000
,
0001
0100
0001
0100
0010
1000
0010
1000
,
0001
0010
0001
0010
0100
1000
0100
1000
,
0001
0100
1000
0100
0001
0100
1100
0100
,
0001
0010
1000
0010
0001
0010
1010
0010
,
0001
0100
0010
0100
0001
0100
0110
0010
,
1000
0100
0010
0100
1000
0100
0110
1001
,
0100
0010
1000
0100
0010
0001
0100
1000
,
0100
0000
0000
0000
0000
0000
0000
0000
0001
0000
0000
0000
0000
0000
0000
0000
0010
0000
0000
0000
0000
0000
0000
0000
1000
0000
0000
0000
0000
0000
0000
0000
0010
0000
0000
0000
0000
0000
0000
0000
0001
0000
0000
0000
0000
0000
0000
0000
0100
0000
0000
0000
0000
0000
0000
0000
0000
0000
0000
0010
0000
0000
0000
0000
,
1000
0000
0100
0000
0010
0000
0001
0000
0000
0100
0000
0000
0010
0000
0000
0100
0000
0000
0001
0000
0000
1000
0000
0000
,
0100
0000
0000
0000
0000
0000
0000
0000
0010
0000
0000
0000
0000
0000
0000
0000
0001
0000
0000
0000
0000
0000
0000
0000
0100
0000
0000
0000
0000
0000
0000
0000
1000
0000
0000
0000
0000
0000
0000
0000
0100
0000
0000
0000
0000
0000
0000
0000
0001
0000
0000
0000
0000
0000
0000
0000
0000
0000
0000
0010
0000
0000
0000
0000
,
0100
0000
1000
0000
0001
0000
0100
0000
0000
0010
0000
0000
1000
0000
0000
0100
0000
0000
0010
0000
0000
0100
0000
0000
,
0001
0000
0000
0000
0000
0000
0000
0000
0100
0000
0000
0000
0000
0000
0000
0000
1000
0000
0000
0000
0000
0000
0000
0000
0001
0000
0000
0000
0000
0000
0000
0000
0100
0000
0000
0000
0000
0000
0000
0000
1000
0000
0000
0000
0000
0000
0000
0000
0010
0000
0000
0000
0000
0000
0000
0000
0000
0000
0000
0100
0000
0000
0000
0000
,
0001
0000
0010
0000
0010
0000
0001
0000
0000
0100
0000
0000
0010
0000
0000
1000
0000
0000
0100
0000
0000
0001
0000
0000
,
0100
0000
0000
0000
0000
0000
0000
0000
0010
0000
0000
0000
0000
0000
0000
0000
0001
0000
0000
0000
0000
0000
0000
0000
0100
0000
0000
0000
0000
0000
0000
0000
1000
0000
0000
0000
0000
0000
0000
0000
0100
0000
0000
0000
0000
0000
0000
0000
0010
0000
0000
0000
0000
0000
0000
0000
0000
0000
0000
1000
0000
0000
0000
0000
,
0100
0100
1100
1000
,
0010
0000
0000
0010
0000
0000
0110
0000
0000
0100
0000
0100
,
0001
0001
0011
0010
,
0100
0000
0000
0100
0000
0000
1100
0000
0000
1000
0000
1000
,
0001
0100
0110
0010
,
1000
0000
0000
0001
0000
0000
0011
0000
0000
0010
0000
0010
,
0001
0100
1000
0100
0001
0010
1000
0010
,
0100
1000
0100
1000
0001
0010
0001
0010
0100
1000
0010
0100
0001
1000
0100
0010
,
0001
0010
0100
1000
0001
0100
0010
1000
0001
0010
0100
1000
,
0100
0010
0001
1000
0010
0100
0001
0010
0100
1000
0010
0100
,
1000
0100
0001
1000
0100
0001
1000
0010
0001
1000
0010
0001
,
0010
0100
0001
0010
0100
0001
0100
1000
0001
0100
1000
0001
,
0010
0100
0000
0001
1000
0000
0100
0000
0210
0000
0000
0000
0310
0001
0010
0001
,
0010
0100
1000
0010
0100
1000
0001
0010
1000
0001
0010
1000
,
0001
0100
0010
0001
0100
0010
0001
1000
0100
0001
1000
0100
,
0001
1000
0010
0001
1000
0010
0001
1000
0100
0001
1000
0100
,
0010
0001
0010
0000
0100
1000
0100
0000
1000
0010
1000
0000
0001
0100
0001
0000
,
1000
0100
0010
0001
0010
0100
1000
0010
0100
0001
0100
0010
,
1000
0001
1000
0000
0010
0100
0010
0000
0100
0001
0100
0000
0010
1000
0010
1000
,
0020
0000
0000
0000
0230
0000
0000
0000
0301
0010
0100
1000
0010
0100
0001
0000
,
1000
0100
1000
0000
0001
0100
0001
0000
1000
0010
1000
0000
0001
0010
0001
0000
,
0100
0010
1000
0001
0010
0100
1000
0100
0010
0001
0100
0010
,
1000
0100
1000
0000
0001
0100
0001
0000
1000
0010
1000
0000
0001
0010
0001
0010
,
0002
0000
0000
0000
0203
0000
0000
0000
0310
1000
0001
0100
0001
1000
0010
0000
,
1000
0010
1000
0000
0001
0100
0001
0000
1001
0000
0000
0000
0110
0000
0000
0000
,
0010
1000
0010
0000
0100
0001
0100
0000
0101
0000
0000
0000
1100
0000
0000
0000
,
0010
0100
0010
0000
1000
0001
1000
0000
1100
0000
0000
0000
0011
0000
0000
0000
,
0001
0010
0001
0000
1000
0100
1000
0000
1001
0000
0000
0000
0110
0000
0000
0000
,
0010
1000
0010
0000
0100
0001
0100
0000
0010
1000
0000
0000
0001
0010
0000
0000
,
0100
1000
0100
0000
0010
0001
0010
0000
0001
0100
0000
0000
0010
1000
0000
0000
,
0001
0010
0001
0000
1000
0100
1000
0000
0010
0100
0000
0000
0001
1000
0000
0000
,
0200
0000
0000
0000
0320
0000
0000
0000
0031
0010
0001
0000
1000
0100
1000
0000
,
0001
0100
0000
0010
1000
0000
0001
0000
0012
0000
0000
0000
0103
0000
0100
0000
,
0010
1000
0000
0100
1000
0000
0010
0000
0210
0000
0000
0000
0301
0000
0100
0000
,
0010
1000
0000
0001
0010
0000
0100
0000
2100
0000
0000
0000
3010
0000
0100
0000
,
0001
0100
0010
1000
0000
0001
0000
0010
0100
0000
1000
0000
1001
0000
0000
0000
,
0110
0000
0000
0000
;

//---------------dance-single - ----------------
#NOTES:
     dance-single:
     :
     Medium:
     12:
     0.625387,0.538795,0.188182,0.079235,0.267417,415.000000,19.000000,8.000000,0.000000,0.000000,0.000000,0.625387,0.538795,0.188182,0.079235,0.267417,415.000000,19.000000,8.000000,0.000000,0.000000,0.000000:
0010
0000
1000
0000
0100
1000
0001
0000
,
0100
0000
0010
0000
1000
0100
0010
0000
,
0100
0000
1000
0000
0010
0100
0001
0000
,
0010
0000
0100
0000
0001
0100
1000
0000
,
0001
0000
0100
0000
0010
1000
0001
0000
,
0010
0000
0100
0000
1000
0010
0100
0000
,
0001
0000
0100
0000
0010
1000
0001
0000
,
0010
0000
0100
0000
1000
0010
0100
0000
,
0001
0000
0010
0001
0000
0010
0001
0000
0010
0001
0000
1000
,
0100
0000
1000
0100
0000
1000
0100
0000
1000
0100
0000
1000
,
0010
0000
1000
0010
0000
1000
0010
0000
1000
0010
0000
0100
,
0001
0000
0100
0001
0000
0100
0001
0000
0100
0001
0000
0010
,
0001
0000
0100
0010
0000
1000
0001
0000
0010
0100
0000
1000
,
0001
0000
0100
0010
0000
1000
0001
0000
0010
0100
0000
1000
,
0100
0000
0010
0001
0000
1000
0010
0000
0100
0001
0000
0100
,
0010
0000
1000
0001
0000
0010
0100
0000
1000
0001
0000
0100
,
0010
1000
0010
1000
0010
1000
0010
0000
,
0100
0001
0100
0001
0100
0001
0100
0000
,
0001
0010
0001
0010
0001
0010
0001
0000
,
1000
0100
1000
0100
1000
0100
1000
0000
,
0010
1000
0100
0001
0100
1000
0010
0000
,
0010
1000
0100
0001
0100
1000
0010
0000
,
0010
1000
0100
0001
0100
0010
0001
0000
,
0010
0001
0100
1000
0200
0000
0310
0010
,
1000
0100
0010
0000
0010
0001
0100
0000
,
0100
0010
1000
0100
0010
0100
1000
0001
,
0100
0000
0000
0000
0100
0000
0010
0000
0000
1000
0000
0000
0100
0000
0000
1000
0000
0000
0010
0000
0000
0000
0000
0000
,
0010
0100
0001
1000
0100
0010
0001
0100
,
0010
0000
0000
0000
0010
0000
0100
0000
0000
0001
0000
0000
0010
0000
0000
0100
0000
0000
1000
0000
0000
0000
0000
0000
,
1000
0100
0001
0100
1000
0010
0100
0001
,
0010
0000
0000
0000
0010
0000
0001
0000
0000
0100
0000
0000
0010
0000
0000
1000
0000
0000
0001
0000
0000
0000
0000
0000
,
0001
1000
0010
0100
0001
0010
0100
0100
,
1000
0100
1100
1000
,
0001
0000
0000
0100
0000
0000
0101
0000
0000
0001
0000
0001
,
0010
0100
0110
0010
,
0001
0000
0000
1000
0000
0000
1001
0000
0000
1000
0000
1000
,
0010
0100
0101
0001
,
0010
0000
0000
0100
0000
0000
1100
0000
0000
1000
0000
1000
,
0001
1000
0001
1000
0001
1000
0001
0000
,
0100
0010
1000
0100
0010
0001
1000
0010
,
0100
0000
0000
0001
0000
0001
0010
0000
0010
0100
0000
0000
,
1000
0000
0000
0010
0000
0100
0001
0000
0001
0010
0000
0000
,
0100
0000
0000
1000
0000
0001
0100
0000
0100
0010
0000
0000
,
1000
0000
0000
0100
0000
0010
0001
0000
1000
0010
0000
0000
,
0100
0000
0000
0010
0000
0000
1000
0000
1001
0000
0000
0000
0002
0000
0000
0000
,
0013
0000
0000
0100
0000
0100
1000
0000
1000
0001
0000
0000
,
0100
0000
0000
0010
0000
0010
1000
0000
1000
0001
0000
0000
,
0010
0000
0000
0100
0000
0100
1000
0000
1000
0001
0000
0001
,
0100
0010
0100
0010
0100
0001
0100
0001
,
1000
0100
0010
0001
,
1000
0010
1000
0010
0100
0001
0100
0001
,
0010
0000
0010
0000
0001
0010
0001
0000
,
1000
0100
1000
0100
0010
0001
0010
0001
,
0100
0100
0010
0010
,
1000
0001
1000
0001
0010
0100
0010
0100
,
0010
0000
0001
0000
1000
0010
0100
0000
,
0010
0000
1000
0000
0100
0001
0100
0000
,
0010
0000
0001
0000
0100
1000
0100
0000
,
0010
0000
1000
0000
0100
0001
0100
0000
,
0010
0000
0001
0000
0100
1000
0100
0000
,
0010
1000
0100
0000
0110
0000
0110
0000
,
0010
0001
1000
0000
1001
0000
1001
0000
,
1000
0010
0100
0000
0101
0000
0101
0000
,
0001
0010
0100
0000
1100
0000
1010
0000
,
0001
0100
0220
0330
,
0010
1000
2002
3003
,
0001
0010
0001
0000
2002
0000
3003
0000
,
1000
0010
0100
0000
0001
0000
0010
0000
,
0110
0000
0000
0000
;

//---------------dance-single - ----------------
#NOTES:
     dance-single:
     :
     Easy:
     9:
     0.404662,0.336747,0.108948,0.009904,0.000000,274.000000,11.000000,1.000000,0.000000,0.000000,0.000000,0.404662,0.336747,0.108948,0.009904,0.000000,274.000000,11.000000,1.000000,0.000000,0.000000,0.000000:
// measure 0
1000
0010
0100
0100
,  // measure 1
0010
1000
0001
0001
,  // measure 2
0010
0100
0001
0001
,  // measure 3
0100
0010
0001
0001
,  // measure 4
1000
0010
0100
0100
,  // measure 5
0001
1000
0100
0100
,  // measure 6
0010
0001
1000
1000
,  // measure 7
0010
0100
1000
1000
,  // measure 8
0100
0010
0100
0010
,  // measure 9
1000
0001
1000
0001
,  // measure 10
0010
0001
0010
0001
,  // measure 11
1000
0100
1000
0100
,  // measure 12
0001
0100
1000
0100
,  // measure 13
0001
0100
1000
0100
,  // measure 14
0010
0100
1000
0100
,  // measure 15
0010
0100
1000
0010
,  // measure 16
0100
0010
0100
0010
,  // measure 17
1000
0000
0001
0000
1000
0000
0001
1000
,  // measure 18
0001
0010
0001
0010
,  // measure 19
0100
0000
1000
0000
0100
0000
1000
0001
,  // measure 20
1000
0001
0100
0110
,  // measure 21
0010
1000
0100
0110
,  // measure 22
0010
0001
1000
1001
,  // measure 23
1000
0000
0010
0000
0100
0000
0001
0001
,  // measure 24
1000
0100
0001
0100
,  // measure 25
1000
0010
0001
0010
,  // measure 26
1000
0100
1000
0000
0100
0000
0010
0000
,  // measure 27
0001
0100
0010
0100
,  // measure 28
0001
0010
0001
0000
0010
0000
0100
0000
,  // measure 29
1000
0010
0100
0001
,  // measure 30
0010
0100
0010
0000
0001
0000
1000
0000
,  // measure 31
0010
0100
0001
1000
,  // measure 32
0100
0100
0110
0010
,  // measure 33
0001
0001
1001
0000
,  // measure 34
1000
1000
1010
0010
,  // measure 35
0100
0100
0101
0000
,  // measure 36
0001
0010
0011
0001
,  // measure 37
1000
0100
1100
0000
,  // measure 38
1000
0001
1000
0001
,  // measure 39
1000
0100
0001
0100
1000
0000
0010
0000
,  // measure 40
1000
0100
0010
0001
,  // measure 41
0100
0010
1000
0001
,  // measure 42
0010
0001
0100
0010
,  // measure 43
1000
0100
1000
0010
,  // measure 44
0200
0300
0110
0000
,  // measure 45
0010
1000
0100
0010
,  // measure 46
0100
1000
0001
0100
,  // measure 47
0010
1000
0001
0010
,  // measure 48
0100
1000
0100
1000
,  // measure 49
0001
0000
0100
0000
,  // measure 50
0010
0100
0010
0100
,  // measure 51
0001
0000
1000
0000
0001
0010
1000
0000
,  // measure 52
0010
0100
0010
0100
,  // measure 53
1000
0000
0010
0000
,  // measure 54
0100
0001
0100
0001
,  // measure 55
0010
0000
0100
0000
1000
0100
0001
0000
,  // measure 56
0100
1000
0100
1000
,  // measure 57
0001
0100
0001
0100
,  // measure 58
0010
1000
0010
1000
,  // measure 59
0010
0001
0010
0001
,  // measure 60
0010
1000
0100
0001
,  // measure 61
0100
0010
0001
1000
,  // measure 62
0010
0100
0001
1000
,  // measure 63
0100
0001
0010
1000
,  // measure 64
0100
1000
0100
0000
1000
0000
0000
0000
,  // measure 65
0001
0010
0001
0000
0010
0000
0000
0000
,  // measure 66
0100
0010
0100
0000
0010
0000
0000
0000
,  // measure 67
0001
1000
0010
0100
,  // measure 68
1001
0000
0000
0000
;

//---------------dance-single - ----------------
#NOTES:
     dance-single:
     :
     Beginner:
     4:
     0.229214,0.235723,0.059426,0.009904,0.000000,155.000000,6.000000,1.000000,0.000000,0.000000,0.000000,0.229214,0.235723,0.059426,0.009904,0.000000,155.000000,6.000000,1.000000,0.000000,0.000000,0.000000:
1000
0000
0010
0000
,
0100
0000
0001
0000
,
1000
0000
0100
0000
,
0010
0000
0001
0000
,
0100
0000
0010
0000
,
1000
0000
0001
0000
,
0010
0000
0100
0000
,
1000
0000
0001
0000
,
0100
0000
0010
0000
,
0100
0100
0010
0000
,
1000
0000
0001
0000
,
1000
1000
0001
0000
,
0010
0000
0100
0000
,
0010
0010
0100
0000
,
1000
0000
0001
0000
,
1000
1000
0001
0000
,
0100
0000
0100
0000
,
0100
0100
0100
0000
,
0010
0000
0010
0000
,
0010
0010
0010
0000
,
1000
1000
1000
1000
,
1000
1000
1000
0000
,
0001
0001
0001
0001
,
0001
0001
0001
0000
,
1000
0000
0100
0100
,
0010
0010
0001
0001
,
0000
1000
0000
0010
,
0010
0100
0100
0001
,
0000
1000
0000
0100
,
0100
0010
0010
0001
,
0000
0100
0000
0010
,
0010
1000
1000
0001
,
0001
0000
0000
0000
,
0010
0000
0000
0000
,
0100
0000
0000
0000
,
1000
0000
0000
0000
,
0010
0000
0100
0000
,
0010
0000
0100
0000
,
0001
0001
0001
0001
,
0002
0000
0003
0000
,
1000
0000
0100
0000
,
0001
0000
0100
0000
,
1000
0000
0010
0000
,
0001
0000
0010
0000
,
0100
0000
0110
0000
,
0010
0000
1000
0000
,
0100
0000
0001
0000
,
0100
0000
0010
0000
,
0001
0001
0001
0001
,
0000
0000
0000
0000
,
1000
1000
1000
1000
,
1000
0000
1000
0000
,
0010
0010
0010
0010
,
0000
0000
0000
0000
,
0100
0100
0100
0100
,
0100
0000
0100
0000
,
0001
0000
0001
0000
,
1000
0000
1000
0000
,
0010
0000
0010
0000
,
0100
0000
0100
0000
,
0001
0000
1001
0000
,
1000
0000
1001
0000
,
0010
0000
0110
0000
,
0100
0000
0110
0000
,
0010
0000
0000
0000
,
1000
0000
0000
0000
,
0001
0000
0000
0000
,
0100
0000
0000
0000
,
1001
0000
0000
0000
;

//---------------dance-single - ----------------
#NOTES:
     dance-single:
     :
     Challenge:
     18:
     1.000000,1.000000,0.802250,0.079235,1.000000,714.000000,81.000000,8.000000,0.000000,0.000000,0.000000,1.000000,1.000000,0.802250,0.079235,1.000000,714.000000,81.000000,8.000000,0.000000,0.000000,0.000000:
0010
0000
1000
0000
1001
0000
0001
0000
0010
0001
0100
0000
0110
0000
0010
1000
,
0001
0000
0010
0000
0110
0000
0100
0000
1000
0001
0100
0000
0110
0000
0010
1000
,
0001
0000
0010
0000
0110
0000
0100
0000
1000
0001
1000
0000
1010
0000
0010
0100
,
0001
0000
0100
0000
0110
0000
0010
0000
1000
0001
1000
0000
1100
0000
0100
0010
,
0001
0000
0100
0000
0110
0000
0010
0000
1000
0001
1000
0000
1010
0000
0010
0100
,
0001
0000
0010
0000
0110
0000
0100
0000
1000
0001
0100
0000
0110
0000
0010
0100
,
0001
0000
0010
0000
0110
0000
0100
0000
1000
0001
0100
0000
0110
0000
0010
1000
,
0001
0000
0010
0000
0110
0000
0100
0000
1000
0001
0100
0000
0110
0000
0010
1000
,
0001
0010
1000
0001
0100
1000
0001
0100
1000
0001
0010
1000
,
0001
0010
1000
0001
0100
1000
0001
0100
1000
0001
0010
0100
,
0001
0010
0100
1000
0010
0100
1000
0001
0010
0100
0001
0010
,
0100
1000
0010
0100
1000
0100
0001
0010
0100
1000
0000
0001
,
0010
0100
1000
0100
0001
0100
0010
0001
0100
1000
0100
0001
,
0010
0100
1000
0010
0100
1000
0100
0001
0010
0100
0001
0100
,
0010
0001
0100
1000
0100
0010
1000
0001
0010
0100
0001
1000
,
0010
0100
1000
0010
0100
0001
0010
0100
1000
0010
0100
0001
,
1000
0100
0001
0100
0010
0001
0100
1000
,
0001
0010
0100
0001
1000
0100
0001
0100
,
1000
0010
0100
1000
0100
0001
0010
0100
,
1000
0010
0100
1000
0100
0001
0010
0100
,
0001
0100
1000
0100
0001
0100
1100
1000
,
0010
0001
0010
1000
0010
0001
0011
0010
,
0100
0001
0010
0100
0010
0001
0101
0100
,
0010
0000
0000
1000
0000
0000
0100
0000
0000
0010
0000
0000
0100
0000
1000
0000
0010
0000
0110
0000
0000
1001
0000
0000
,
0100
0000
0010
0000
0011
0000
0001
0000
0100
0010
0100
0000
0101
0000
0001
0010
,
0001
0000
1000
0000
1010
0000
0010
0000
0100
0001
0100
0000
0110
0000
0010
1000
,
0010
0000
0000
0000
0100
0000
0000
0000
0001
0000
0000
0000
1001
0000
0000
0000
0000
0000
0100
0000
0000
0000
0000
0000
0010
0000
0000
0001
0000
0000
0010
0000
0000
0000
0000
0000
0110
0000
0000
0000
0000
0000
0100
0000
0000
1000
0000
0000
,
0001
0000
0100
0000
1010
0000
0010
0000
0100
0001
0100
0000
0101
0000
0001
1000
,
0100
0000
0000
0000
0010
0000
0000
0000
0100
0000
0000
0000
0101
0000
0000
0000
0000
0000
0100
0000
0000
0000
0000
0000
1000
0000
0000
0010
0000
0000
1000
0000
0000
0000
0000
0000
1001
0000
0000
0000
0000
0000
0001
0000
0000
0010
0000
0000
,
0001
0000
0100
0000
1010
0000
0100
0000
0001
0010
0001
0000
0101
0000
0100
0010
,
0100
0000
0000
0000
0001
0000
0000
0000
1000
0000
0000
0000
1100
0000
0000
0000
0000
0000
0100
0000
0000
0000
0000
0000
0010
0000
0000
0001
0000
0000
1000
0000
0000
0000
0000
0000
1010
0000
0000
0000
0000
0000
0010
0000
0000
0100
0000
0000
,
1000
0000
0000
0000
0000
0000
0100
0000
0000
0000
0000
0000
0101
0000
0000
0000
0000
0000
0010
0000
0000
0000
0000
0000
0100
0000
0000
1000
0000
0000
0100
0000
0000
0000
0000
0000
1100
0000
0000
0000
0000
0000
0000
0000
1000
0000
0000
0000
,
1001
0101
0110
1100
,
0011
0000
0000
1010
0000
0000
1001
0000
0000
0011
0000
0010
,
0110
1100
0101
0110
,
0011
0000
0000
1001
0000
0000
1010
0000
0000
0110
0000
0100
,
1100
0101
0011
1010
,
0101
0000
0000
1100
0000
0000
1010
0000
0000
0101
0000
0001
,
0011
0100
1000
0100
0010
1000
0001
0010
,
0100
1000
0001
0100
1000
0100
0010
1000
0001
0010
1000
0001
0100
1000
0001
0100
,
0010
1000
0100
0010
0001
0100
0010
1000
0100
0010
0001
0100
,
0010
1000
0100
0001
0100
1000
0010
0100
1000
0001
0010
0100
,
0001
0010
0100
1100
1000
0010
0100
1000
0100
0001
0010
0100
,
0001
1000
0010
0001
0100
0010
1000
0001
0010
0100
1000
0010
,
0100
0001
0000
1000
1100
0000
0011
0000
1001
0000
0000
0000
1000
0100
0001
0100
,
1000
0010
0100
1000
0001
0010
0100
0001
0010
0100
0001
1000
,
0010
0100
1000
0010
0100
1000
0001
0010
0100
0001
0010
1000
,
0001
0100
0010
0001
1000
0010
0100
1000
0001
0010
0100
0001
,
1000
0100
0010
0001
1000
0100
0010
0001
1000
0010
0100
0001
1000
0010
0100
0000
,
0001
0010
0100
1000
0010
0100
1000
0001
0010
1000
0001
0010
,
0001
0010
0100
1000
0001
0010
0100
1000
0001
0100
0010
1000
0001
0010
0100
0000
,
1100
0000
0000
0000
1001
0000
0000
0000
0001
0100
1000
0100
0010
1000
0001
0000
,
0001
0010
1000
0010
0001
0100
1000
0100
0001
0010
1000
0010
0001
0100
1000
0000
,
0001
0010
1000
0001
0010
0100
1000
0010
0100
1000
0100
0001
,
0010
0100
1000
0001
0100
0010
1000
0001
0010
0100
0010
0001
1000
0010
0100
0000
,
0101
0000
0000
0000
1001
0000
0000
0000
1000
0010
0001
0010
0100
0001
1000
0000
,
0100
0010
0001
1000
0010
0100
0001
1000
0100
0010
0100
0000
0100
1000
0001
0000
,
0001
0100
0010
0100
0001
0010
0100
1000
0010
0100
0001
0000
0001
0100
0010
0000
,
0010
1000
0100
0001
0100
1000
0010
0100
0001
0010
0100
0000
0100
0010
0001
0000
,
0001
0100
0010
1000
0001
0010
0100
1000
0010
0100
1000
0000
1000
0100
0001
0000
,
0001
0010
0100
1000
0010
0100
0001
0100
0010
1000
1001
0000
0001
0010
0011
0000
,
0010
0100
1000
0010
0100
1000
0100
0010
1000
0100
1100
0000
0001
0010
0011
0000
,
0001
0100
0010
0100
0001
1000
0100
0010
0100
0010
0110
0000
0010
0001
1001
0000
,
1000
0000
0010
0000
0100
0000
0001
0000
1000
0010
1000
0001
0010
0001
1000
0000
,
0001
0010
0000
0100
1000
0000
0001
0100
0101
0000
0000
0000
0200
0000
0320
0000
,
1030
0001
0000
0100
0010
0000
1000
0100
1100
0000
0000
0000
2000
0000
3020
0000
,
0130
0001
0000
1000
0100
0000
0010
0001
0011
0000
0000
0000
0002
0000
2003
0000
,
3010
0000
0100
0001
0000
0000
1000
0100
0000
0010
0001
0000
1001
0000
0000
0000
,
0220
0000
0000
0000
,
0330
0000
0000
0000
;
