#VERSION:0.81;
#TITLE:Equestria Girls (Helping Twilight Win the Crown);
#SUBTITLE:;
#ARTIST:♪♪♪♪♪;
#TITLETRANSLIT:;
#SUBTITLETRANSLIT:;
#ARTISTTRANSLIT:;
#GENRE:My Little Pony;
#ORIGIN:;
#CREDIT:;
#BANNER:Equestria Girls (Helping Twilight Win the Crown).png;
#BACKGROUND:Equestria Girls (Helping Twilight Win the Crown)-bg.png;
#PREVIEWVID:;
#JACKET:Equestria Girls (Helping Twilight Win the Crown)-jacket.png;
#CDIMAGE:;
#DISCIMAGE:;
#LYRICSPATH:;
#CDTITLE:;
#MUSIC:Equestria Girls (Helping Twilight Win the Crown).mp3;
#OFFSET:-2.640;
#SAMPLESTART:55.670;
#SAMPLELENGTH:15.000;
#SELECTABLE:YES;
#DISPLAYBPM:112.000;
#BPMS:0.000=112.000,
3.000=111.000,
4.000=112.000,
5.000=106.690,
6.000=112.000;
#STOPS:;
#DELAYS:;
#WARPS:;
#TIMESIGNATURES:0.000=4=4;
#TICKCOUNTS:0.000=4;
#COMBOS:0.000=1;
#SPEEDS:0.000=1.000=0.000=0;
#SCROLLS:0.000=1.000;
#FAKES:;
#LABELS:0.000=Song Start;
#BGCHANGES:-5.000=Equestria Girls (Helping Twilight Win the Crown).avi=1.000=0=0=0=StretchNoLoop====,
99999=-nosongbg-=1.000=0=0=0 // don't automatically add -songbackground-
;
#KEYSOUNDS:;
#ATTACKS:
;

//---------------dance-single - ----------------
#NOTEDATA:;
#CHARTNAME:;
#STEPSTYPE:dance-single;
#DESCRIPTION:;
#CHARTSTYLE:;
#DIFFICULTY:Easy;
#METER:5;
#RADARVALUES:0.229,0.195,0.082,0.060,0.000,196.000,11.000,8.000,0.000,0.000,0.000,0.000,0.000,0.229,0.195,0.082,0.060,0.000,196.000,11.000,8.000,0.000,0.000,0.000,0.000,0.000;
#CREDIT:;
#DISPLAYBPM:112.000;
#NOTES:
0000
0000
0000
0000
,
1000
1000
0001
0001
,
0000
0010
0001
0010
,
0100
0100
0010
0010
,
0001
1000
0001
0100
,
0010
2000
3010
1000
,
0001
0020
0031
0010
,
0100
1000
0010
0001
,
0010
0100
0010
0010
,
1000
0000
1000
0001
,
0100
0010
0100
0000
,
0100
1000
0100
0001
,
0010
0100
0001
0100
,
0010
0001
0100
0010
,
1000
0010
0001
0010
,
1000
0100
0001
0100
,
0010
0010
0110
0000
,
1000
1000
0001
0001
,
0010
0010
0100
0100
,
1000
0100
0010
0001
,
1000
0010
0100
0001
,
2000
0000
3001
0000
,
0001
1000
0010
0100
,
0002
0000
1003
0000
,
0001
0010
0100
1000
,
0010
0001
0010
1000
,
0010
0000
0100
0000
,
0001
0020
0031
0100
,
0010
1000
0001
0010
,
0001
0100
0010
1000
,
0001
1000
0010
0100
,
0100
0020
1030
1000
,
0001
0010
0110
0000
,
0000
0010
1000
0100
,
0000
1000
0001
0100
,
0000
0010
0100
0001
,
1000
0100
0010
0002
,
1003
0010
0100
0001
,
1000
1000
0100
0000
,
0010
0010
0001
0001
,
1000
0010
0100
0002
,
0000
0000
0003
0000
,
1001
0000
0110
0000
,
0001
0100
1000
0010
,
0100
0000
0001
0000
,
1000
0100
1000
0000
,
1001
0000
0110
0000
,
0010
0001
0100
1000
,
0010
0010
0100
0100
,
0001
0010
0100
0000
,
1001
0000
0110
0000
,
0010
1000
0100
0001
,
0010
0010
0100
0100
,
1000
0001
0100
0000
,
0110
0000
1001
0000
,
0001
0010
1000
0100
,
0001
0001
1000
1000
,
0100
0010
0001
0000
,
1001
0000
0000
0000
;

//---------------dance-single - ----------------
#NOTEDATA:;
#CHARTNAME:;
#STEPSTYPE:dance-single;
#DESCRIPTION:;
#CHARTSTYLE:;
#DIFFICULTY:Beginner;
#METER:1;
#RADARVALUES:0.065,0.065,0.022,0.007,0.000,57.000,3.000,1.000,0.000,0.000,0.000,0.000,0.000,0.065,0.065,0.022,0.007,0.000,57.000,3.000,1.000,0.000,0.000,0.000,0.000,0.000;
#CREDIT:;
#DISPLAYBPM:112.000;
#NOTES:
0000
0000
0000
0000
,
0010
0000
0000
0000
,
0010
0000
0000
0000
,
0100
0000
0000
0000
,
0100
0000
0000
0000
,
0001
0000
0000
0000
,
0001
0000
0000
0000
,
1000
0000
0000
0000
,
1000
0000
0000
0000
,
0010
0000
0000
0000
,
0100
0000
0000
0000
,
0100
0000
0000
0000
,
0001
0000
0000
0000
,
0001
0000
0000
0000
,
0010
0000
0000
0000
,
0010
0000
0000
0000
,
0100
0000
0000
0000
,
0100
0000
0000
0000
,
1000
0000
0000
0000
,
0001
0000
0000
0000
,
0100
0000
0000
0000
,
0010
0000
0000
0000
,
1000
0000
0000
0000
,
0001
0000
0000
0000
,
0100
0000
0000
0000
,
0110
0000
0000
0000
,
0100
0000
0000
0000
,
0001
0000
0000
0000
,
0010
0000
0000
0000
,
0100
0000
0000
0000
,
1000
0000
0000
0000
,
0010
0000
0000
0000
,
0100
0000
0000
0000
,
0001
0000
0000
0000
,
1000
0000
0000
0000
,
0001
0000
0000
0000
,
0010
0000
0000
0000
,
0100
0000
0000
0000
,
0010
0000
0000
0000
,
0001
0000
0000
0000
,
2000
0000
0000
0000
,
3000
0000
0000
0000
,
1001
0000
0000
0000
,
0100
0000
0000
0000
,
0010
0000
0000
0000
,
0001
0000
0000
0000
,
0100
0000
0000
0000
,
1000
0000
0000
0000
,
0010
0000
0000
0000
,
0001
0000
0000
0000
,
1001
0000
0000
0000
,
0010
0000
0000
0000
,
0100
0000
0000
0000
,
0001
0000
0000
0000
,
0010
0000
0000
0000
,
0100
0000
0000
0000
,
1000
0000
0000
0000
,
0010
0000
0000
0000
,
0100
0000
0000
0000
;

//---------------dance-single - ----------------
#NOTEDATA:;
#CHARTNAME:;
#STEPSTYPE:dance-single;
#DESCRIPTION:;
#CHARTSTYLE:;
#DIFFICULTY:Medium;
#METER:7;
#RADARVALUES:0.308,0.281,0.089,0.045,0.000,271.000,12.000,6.000,0.000,0.000,0.000,0.000,0.000,0.308,0.281,0.089,0.045,0.000,271.000,12.000,6.000,0.000,0.000,0.000,0.000,0.000;
#CREDIT:;
#DISPLAYBPM:112.000;
#NOTES:
// measure 0
0000
0000
0000
0000
,  // measure 1
0001
0001
1000
0100
,  // measure 2
1000
0000
0010
1000
0100
0000
0100
0000
,  // measure 3
1000
0100
0001
0000
0100
0000
0010
0000
,  // measure 4
0100
1000
0001
1000
,  // measure 5
0010
0100
0001
0000
0100
0001
1000
0000
,  // measure 6
0001
0100
0010
1000
,  // measure 7
0100
0000
0001
0000
0100
1000
0100
0000
,  // measure 8
1000
0000
0010
0100
0001
0000
0010
0000
,  // measure 9
0010
0000
0100
0000
0100
0000
1000
1000
,  // measure 10
0001
0000
0100
0000
0010
0000
0100
0001
,  // measure 11
0010
0200
1300
0100
,  // measure 12
1000
0001
0100
0010
0100
0000
0010
0000
,  // measure 13
0010
0100
0100
0001
,  // measure 14
0010
0100
0010
0000
0100
0000
1000
0000
,  // measure 15
0010
2000
3100
1000
,  // measure 16
0010
1000
0100
0000
0010
0100
0010
0000
,  // measure 17
0110
0000
0110
0000
0010
0001
0100
0000
,  // measure 18
0001
0100
0010
1000
0001
0010
0100
0000
,  // measure 19
0010
0010
0010
0000
0100
0100
0100
0000
,  // measure 20
0010
0000
0001
0000
1000
0010
1000
0000
,  // measure 21
0001
0100
1000
0000
0001
0100
1000
0000
,  // measure 22
0001
0010
1000
0000
0001
0010
1000
0000
,  // measure 23
1000
0100
0010
0000
1000
0100
0010
0000
,  // measure 24
0001
0100
0010
0100
0010
0000
0010
0000
,  // measure 25
0010
0100
0100
0001
,  // measure 26
0010
0000
0100
1000
0010
0000
0100
0010
,  // measure 27
1000
0002
0013
0010
,  // measure 28
0001
1000
0010
0100
0010
0000
0100
0000
,  // measure 29
0100
0010
0010
1000
,  // measure 30
1000
0000
0100
0010
0001
0000
0100
0010
,  // measure 31
0100
0020
1030
0010
,  // measure 32
0100
0001
0010
0100
1000
0001
1000
0000
,  // measure 33
0010
0100
0010
0100
,  // measure 34
0100
0001
0001
1000
,  // measure 35
1000
0100
1000
0100
,  // measure 36
0100
0010
0010
0012
,  // measure 37
1003
0001
1000
0001
,  // measure 38
1000
0010
1000
0010
,  // measure 39
0100
0001
0100
0001
,  // measure 40
0001
0010
0100
1000
0001
0001
2000
0000
,  // measure 41
0000
0000
3000
0000
,  // measure 42
1001
0100
0010
0001
,  // measure 43
0100
1000
0010
0001
,  // measure 44
0100
0010
0100
0100
,  // measure 45
0001
0010
0100
1000
,  // measure 46
1001
0010
0100
0010
,  // measure 47
1000
0100
0001
0010
,  // measure 48
1000
0001
1000
0100
,  // measure 49
1000
0010
0100
0001
,  // measure 50
1001
0100
0110
0010
,  // measure 51
0001
1000
0001
0000
1000
0010
0001
0000
,  // measure 52
0010
0000
0010
0000
0100
0010
0100
0000
,  // measure 53
0100
0001
0010
1000
,  // measure 54
0110
0010
1001
0010
,  // measure 55
1000
0001
1000
0000
0001
0100
1000
0000
,  // measure 56
1001
0000
1001
0000
0001
1000
0001
0000
,  // measure 57
0100
1000
0010
0001
,  // measure 58
0110
0000
0000
0000
;

//---------------dance-single - ----------------
#NOTEDATA:;
#CHARTNAME:;
#STEPSTYPE:dance-single;
#DESCRIPTION:;
#CHARTSTYLE:;
#DIFFICULTY:Hard;
#METER:9;
#RADARVALUES:0.411,0.346,0.179,0.097,0.000,349.000,24.000,13.000,0.000,0.000,0.000,0.000,0.000,0.411,0.346,0.179,0.097,0.000,349.000,24.000,13.000,0.000,0.000,0.000,0.000,0.000;
#CREDIT:;
#DISPLAYBPM:112.000;
#NOTES:
0000
0000
0000
0000
,
0110
0000
1001
0000
0100
1000
0010
0100
,
0000
0001
0100
0010
1000
0000
0001
0010
,
0001
1000
0020
0000
0130
0001
0100
0010
,
0000
0010
1000
0001
1000
0000
0001
0100
,
0010
0100
0002
0000
1003
0100
1000
0010
,
0100
0001
1000
0100
0010
0000
0010
0001
,
0200
0000
2300
0000
3100
0010
1000
0001
,
0010
0100
1000
0001
0100
0100
0010
0000
,
1001
0000
0100
0000
1001
0000
0010
0100
,
0001
1000
0100
1000
0010
0000
0100
0001
,
0010
0000
0200
0000
1300
0001
0100
0010
,
0100
0001
0010
0100
1000
0001
0100
0000
,
0110
0000
0001
0000
0110
0000
0100
1000
,
0010
0100
1000
0100
0001
0000
1000
0100
,
0010
0000
0002
0000
0103
0010
0100
1000
,
0100
0001
0010
0100
1000
0010
0100
0000
,
0110
0000
1001
0000
0001
1000
0100
0000
,
0100
1000
0010
0100
0001
1000
0100
0000
,
0010
0001
0100
0000
0100
0001
1000
0000
,
0100
1000
0010
0100
0001
1000
0100
0000
,
0010
0001
0100
0000
0010
1000
0100
0000
,
0001
0100
1000
0010
0100
0001
0010
0000
,
0001
1000
0010
0100
0001
0100
0010
0000
,
1000
0100
0001
0100
1000
0010
0100
0000
,
1001
0000
0100
0000
1001
0000
0010
0100
,
0001
0100
0010
1000
0001
0000
0010
0100
,
1000
0000
0002
0000
0103
0010
0100
0001
,
0010
0100
1000
0010
0100
0001
0100
0000
,
0110
0000
1000
0000
0110
0000
0001
0100
,
0010
1000
0001
0010
0100
0000
0100
1000
,
0010
0000
0200
0000
0301
1000
0100
1000
,
0001
0100
1000
0100
0010
1000
0001
0000
,
0000
0010
0100
1000
0001
1000
0010
0000
,
0000
0100
0001
0100
0010
1000
0001
0000
,
0000
0010
0100
1000
0001
1000
0100
0000
,
0010
0001
0100
0010
1000
0001
0020
0000
,
0130
1000
0010
0100
0001
2000
0000
3001
,
0100
0010
0100
0001
1000
0100
0010
0200
,
0000
1300
0010
0100
0001
0100
0001
1000
,
0100
1000
0001
0100
0002
0000
2000
0000
,
0000
0000
3003
0100
,
1001
0000
0010
0100
0010
0000
1001
0000
,
0001
0010
1000
0000
0100
0001
0010
0000
,
0100
0000
1100
0000
0010
0100
0001
0000
,
1000
0100
1000
0001
0100
0000
0110
0000
,
1001
0000
0100
0001
1000
0000
1001
0000
,
0001
0100
1000
0000
0010
0001
0100
0000
,
0010
1000
0010
0000
0100
0001
0100
0000
,
0001
0010
0100
1000
0001
0000
0100
0000
,
1001
0000
0010
0100
0010
0000
1010
0000
,
1000
0100
0001
0000
0010
1000
0100
0000
,
0010
0000
0011
0000
0001
0100
0010
0000
,
0010
1000
0100
1000
0001
0000
0100
0000
,
0110
0000
0010
1000
0001
0000
0011
0000
,
0010
0100
0001
0000
0010
1000
0100
0000
,
0010
0001
0100
0000
0010
1000
0100
0000
,
1000
0001
0100
0010
1000
0000
0001
0000
,
1001
0000
0000
0000
;

//---------------dance-double - ----------------
#NOTEDATA:;
#CHARTNAME:;
#STEPSTYPE:dance-double;
#DESCRIPTION:;
#CHARTSTYLE:;
#DIFFICULTY:Easy;
#METER:4;
#RADARVALUES:0.164,0.151,0.052,0.015,0.000,145.000,7.000,2.000,0.000,0.000,0.000,0.000,0.000,0.164,0.151,0.052,0.015,0.000,145.000,7.000,2.000,0.000,0.000,0.000,0.000,0.000;
#CREDIT:;
#OFFSET:-2.640;
#BPMS:0.000=112.000
,2.000=133.222
,3.000=107.708
,4.000=104.704
,5.000=106.690
,6.000=112.000
;
#STOPS:;
#DELAYS:;
#WARPS:;
#TIMESIGNATURES:0.000=4=4
;
#TICKCOUNTS:0.000=4
;
#COMBOS:0.000=1
;
#SPEEDS:0.000=1.000=0.000=0
;
#SCROLLS:0.000=1.000
;
#FAKES:;
#LABELS:0.000=Song Start
;
#DISPLAYBPM:112.000;
#NOTES:
00000000
00000000
00000000
00000000
,
10000000
01000000
10000000
00000000
,
00010000
00100000
00010000
00000000
,
01000000
00001000
01000000
00000000
,
00001000
00010000
00001000
00000000
,
00010000
00000010
00010000
00000000
,
00000010
00000100
00000010
00000000
,
00000100
00000001
00000100
00000000
,
00000001
00001000
00000001
00000000
,
00001001
00000000
00000100
00000000
,
00000010
00000001
00001000
00000000
,
00000010
00000000
00010000
00000000
,
00001000
00100000
00010000
00000000
,
01000000
00000000
01100000
00000000
,
00100000
10000000
01000000
00000000
,
00100000
00000000
00010000
00000000
,
01000000
00001000
00010000
00000100
,
00000010
00000000
00000001
00000000
,
00001000
00000000
00000010
00000000
,
00000100
00001000
00000100
00000000
,
00000001
00000010
00010000
00000000
,
00001000
00010000
00100000
00000000
,
00010000
00000000
01000000
00000000
,
00100000
10000000
01000000
00000000
,
00100000
00000000
00010000
00000000
,
10010000
00000000
01000000
00000000
,
01100000
00000000
00001000
00000000
,
00010000
00000010
00010000
00000000
,
00001000
00000000
00000010
00000000
,
00001001
00000000
00000001
00000000
,
00000110
00000000
00000100
00000000
,
00000010
00001000
00000100
00000100
,
00010000
00001000
01000000
01000000
,
00100000
00000000
10000000
00000000
,
00010000
00000000
00100000
00000000
,
01000000
00000000
10000000
00000000
,
00010000
00000000
01000000
00002000
,
00013000
00000000
00000100
00000000
,
00001000
00000010
00000001
00000010
,
00001000
00000000
00000100
00000000
,
00010000
00001000
01000000
00200000
,
00000000
00000000
00300000
00000000
,
10000000
00000000
01000000
00000000
,
00010000
00000000
01000000
00000000
,
00100000
00000000
00001000
00000000
,
00010000
00000000
00000010
00000000
,
00000100
00000000
00000001
00000000
,
00000010
00000000
00001000
00000000
,
00000100
00000000
00000010
00000000
,
00010000
00000000
00001000
00000000
,
00010000
00000000
00001000
00000000
,
00100000
10000000
01000000
00010000
,
00100000
00000000
00001000
00000000
,
00010000
00000010
00000100
00000000
,
00000001
00000000
00000010
00000000
,
00000100
00001000
00000010
00000001
,
00000100
00000000
00001000
00000000
,
00000010
00000000
00010000
00000000
,
00011000
00000000
00000000
00000000
;

//---------------dance-double - ----------------
#NOTEDATA:;
#CHARTNAME:;
#STEPSTYPE:dance-double;
#DESCRIPTION:;
#CHARTSTYLE:;
#DIFFICULTY:Medium;
#METER:5;
#RADARVALUES:0.229,0.216,0.104,0.030,0.000,197.000,14.000,4.000,0.000,0.000,0.000,0.000,0.000,0.229,0.216,0.104,0.030,0.000,197.000,14.000,4.000,0.000,0.000,0.000,0.000,0.000;
#CREDIT:;
#OFFSET:-2.640;
#BPMS:0.000=112.000
,2.000=133.222
,3.000=107.708
,4.000=104.704
,5.000=106.690
,6.000=112.000
;
#STOPS:;
#DELAYS:;
#WARPS:;
#TIMESIGNATURES:0.000=4=4
;
#TICKCOUNTS:0.000=4
;
#COMBOS:0.000=1
;
#SPEEDS:0.000=1.000=0.000=0
;
#SCROLLS:0.000=1.000
;
#FAKES:;
#LABELS:0.000=Song Start
;
#DISPLAYBPM:112.000;
#NOTES:
00000000
00000000
00000000
00000000
,
00010000
00100000
00010000
00010000
,
01000000
00100000
00010000
00001000
,
00000010
00000001
00000100
00000100
,
00000010
00001000
00000001
00000010
,
00000100
00001000
00001000
00000010
,
00010000
00001000
01000000
00100000
,
10000000
01000000
00100000
00010000
,
10000000
00100000
01000000
00001000
,
00011000
00010000
00011000
00000010
,
00001000
00000100
00000010
00000001
,
00000001
00000100
00000010
00001000
,
00000100
00010000
00001000
01000000
,
01010000
00010000
01010000
01000000
,
00100000
10000000
01000000
00100000
,
00100000
01000000
10000000
00010000
,
01000000
00001000
00010000
00001000
,
00020000
00030000
00000200
00000300
,
00001000
00000010
00000100
00000001
,
00000010
00000000
00000100
00000000
,
00001000
00000010
00010000
00010000
,
00001000
00100000
00010000
00010000
,
10000000
00100000
01000000
01000000
,
00010000
00100000
00001000
00010000
,
00000010
00001000
00000100
00000010
,
00000110
00000100
00000110
00000010
,
00000001
00000100
00001000
00000100
,
00000010
00010000
00010000
00001000
,
00100000
00010000
01000000
00100000
,
10010000
01000000
10010000
00100000
,
01000000
00010000
00100000
00001000
,
00001000
00010000
00000010
00001000
,
00000100
00000010
00000001
00000001
,
00001001
00000000
00000010
00000000
,
00000100
00000000
00001000
00000000
,
00000100
00000000
00000001
00000000
,
00000010
00000000
00000100
00020000
,
00031000
00100000
00010000
00010000
,
01000000
00100000
10000000
10000000
,
00000000
00010000
00100000
01000000
,
10000000
00100000
01000000
00002000
,
00000000
00000000
00013000
00000000
,
00011000
00000000
00000010
00000000
,
00000001
00000100
00001000
00000000
,
00000010
00000000
00000100
00000000
,
00000001
00000010
00000100
00010000
,
00011000
00000000
01000000
00000000
,
10000000
00100000
00010000
01000000
,
00100000
00000000
10000000
00000000
,
00010000
00100000
01000000
10000000
,
10010000
00000000
00010000
00000000
,
00100000
10000000
01000000
00010000
,
00100000
00000000
00001000
00000000
,
00010000
00000010
00001000
00000100
,
00000110
00000000
00000100
00000000
,
00000001
00000010
00001000
00000100
,
00000010
00000000
00000001
00000000
,
00000100
00000010
00010000
00001000
,
00011000
00000000
00000000
00000000
;

//---------------dance-double - ----------------
#NOTEDATA:;
#CHARTNAME:;
#STEPSTYPE:dance-double;
#DESCRIPTION:;
#CHARTSTYLE:;
#DIFFICULTY:Hard;
#METER:9;
#RADARVALUES:0.405,0.324,0.157,0.075,0.000,349.000,21.000,10.000,0.000,0.000,0.000,0.000,0.000,0.405,0.324,0.157,0.075,0.000,349.000,21.000,10.000,0.000,0.000,0.000,0.000,0.000;
#CREDIT:;
#OFFSET:-2.640;
#BPMS:0.000=112.000
,2.000=133.222
,3.000=107.708
,4.000=104.704
,5.000=106.690
,6.000=112.000
;
#STOPS:;
#DELAYS:;
#WARPS:;
#TIMESIGNATURES:0.000=4=4
;
#TICKCOUNTS:0.000=4
;
#COMBOS:0.000=1
;
#SPEEDS:0.000=1.000=0.000=0
;
#SCROLLS:0.000=1.000
;
#FAKES:;
#LABELS:0.000=Song Start
;
#DISPLAYBPM:112.000;
#NOTES:
00000000
00000000
00000000
00000000
,
10010000
00000000
01100000
00000000
00100000
00010000
01000000
00001000
,
00000000
00001000
00010000
00000100
00000010
00000000
00000010
00000001
,
00000100
00000010
00001000
00000000
00000100
00010000
00001000
01000000
,
00000000
01000000
00100000
10000000
01000000
00000000
01000000
00100000
,
00001000
00010000
00000200
00000000
00000310
00000010
00000001
00000010
,
00000100
00001000
00000010
00010000
00001000
00000000
00001000
00100000
,
00020000
00000000
20030000
00000000
30100000
01000000
00010000
00100000
,
01000000
10000000
01000000
00100000
00010000
10000000
00100000
00000000
,
01100000
00000000
01000000
00000000
10010000
00000000
00010000
01000000
,
00100000
00010000
00001000
00000010
00000001
00000000
00000001
00000100
,
00000010
00000000
00002000
00000000
00003100
00010000
00000010
01000000
,
00001000
00100000
00010000
01000000
00100000
10000000
00010000
00000000
,
00110000
00000000
00001000
00000000
00011000
00000000
00010000
00000010
,
00001000
00000100
00000010
00000001
00001000
00000000
00001000
00000010
,
00010000
00000000
00002000
00000000
01003000
00010000
00100000
01000000
,
10000000
00100000
01000000
00010000
10000000
01000000
00100000
00000000
,
00010000
00000000
01000000
00000000
00100000
01000000
00010000
00000000
,
00100000
00001000
00010000
00000010
00001000
00000100
00000010
00000000
,
00000001
00000100
00000010
00000000
00001000
00000100
00010000
00000000
,
00010000
00001000
01000000
00010000
00100000
01000000
10000000
00000000
,
00100000
01000000
00010000
00000000
00010000
10000000
01000000
00000000
,
00100000
00010000
01000000
00001000
00010000
00000010
00000100
00000000
,
00000010
00001000
00000100
00000001
00000100
00001000
00000010
00000000
,
00000010
00010000
00001000
01000000
00010000
00100000
01000000
00000000
,
10010000
00000000
00100000
00000000
01100000
00000000
01000000
00010000
,
00100000
00001000
00010000
00000010
00001000
00000000
00001000
00000100
,
00000001
00000000
00000200
00000000
00000310
00000001
00000100
00000010
,
00001000
00000100
00010000
00001000
01000000
00100000
10000000
00000000
,
11000000
00000000
01000000
00000000
00110000
00000000
00010000
01000000
,
00100000
00010000
00001000
00010000
00000010
00000000
00001000
00000100
,
00000010
00000000
00000002
00000000
00000103
00000010
00001000
00000100
,
00010000
00000010
00001000
00010000
00001000
00000010
00010000
00000000
,
00000000
00001000
00010000
00001000
01000000
00100000
01000000
00000000
,
00000000
00010000
00100000
01000000
10000000
00100000
01000000
00000000
,
00000000
00010000
00100000
00001000
01000000
00010000
01000000
00000000
,
00001000
00010000
00000100
00001000
00000010
00000100
00000002
00000000
,
00000013
00000100
00001000
00000010
00010000
00001000
00000000
00001000
,
00100000
00010000
01000000
00100000
10000000
01000000
10000000
00010000
,
00000000
00010000
01000000
00100000
00010000
00001000
00000010
00000001
,
00000100
00000010
00001000
00000100
00020000
00000000
00002000
00000000
,
00000000
00000000
00033000
00001000
,
00011000
00000000
00001000
01000000
00100000
00000000
10100000
00000000
,
10000000
01000000
00010000
00000000
00100000
10000000
01000000
00000000
,
00100000
00000000
00110000
00000000
00010000
01000000
00001000
00000000
,
00001000
00010000
00000010
00001000
00000100
00000000
00000010
00000000
,
00000011
00000000
00000001
00000100
00000010
00000000
00001010
00000000
,
00001000
00000100
00000001
00000000
00000001
00000010
00001000
00000000
,
00001000
00000100
00001000
00000000
00000010
00010000
00001000
00000000
,
00001000
00100000
00010000
01000000
00100000
00000000
10000000
00000000
,
10010000
00000000
00010000
00100000
01000000
00000000
11000000
00000000
,
10000000
00100000
00010000
00000000
00010000
01000000
10000000
00000000
,
00010000
00000000
01010000
00000000
01000000
00001000
00010000
00000000
,
00010000
00000010
00001000
00000100
00000010
00000000
00000001
00000000
,
00001001
00000000
00001000
00000010
00000100
00000000
00000101
00000000
,
00000001
00000010
00001000
00000000
00001000
00000100
00000001
00000000
,
00000010
00000100
00001000
00000000
00000010
00010000
00001000
00000000
,
00001000
00010000
00100000
01000000
00010000
00000000
10000000
00000000
,
10010000
00000000
00000000
00000000
;

//---------------dance-single - ----------------
#NOTEDATA:;
#CHARTNAME:;
#STEPSTYPE:dance-single;
#DESCRIPTION:;
#CHARTSTYLE:;
#DIFFICULTY:Challenge;
#METER:11;
#RADARVALUES:0.533,0.497,0.626,0.082,0.078,405.000,84.000,11.000,0.000,0.000,0.000,0.000,0.000,0.533,0.497,0.626,0.082,0.078,405.000,84.000,11.000,0.000,0.000,0.000,0.000,0.000;
#CREDIT:;
#DISPLAYBPM:112.000;
#NOTES:
0000
0000
0000
0000
,
1010
0000
1010
0000
1000
0001
0010
0100
,
0000
0010
0001
0100
0101
0000
0001
1000
,
0100
0010
0210
0000
1300
0100
1000
0001
,
0000
0000
0100
0000
0001
0000
0100
0000
0110
0000
0000
0000
1010
0000
1000
0001
,
0010
0100
0010
0000
0001
0010
0100
1000
,
0001
0100
0010
0100
0101
0000
0001
1000
,
0200
0000
0320
0000
0031
0010
0001
0100
,
1000
0000
0100
0000
0010
0000
1000
0000
0001
0000
1000
0000
0001
0010
0100
1000
,
0001
1000
1020
0000
0130
0010
0011
0010
,
1000
0100
0001
0100
1000
0000
0100
0100
,
0010
0000
0012
0000
0103
0001
1000
0100
,
0010
0000
0010
0000
0100
0000
1000
0000
0001
0000
0100
0000
0101
0000
0001
1000
,
0001
1000
1200
0000
0301
0100
0110
0010
,
0001
0010
1000
0010
0001
0000
0100
0010
,
1010
0000
1002
0000
0013
0001
0100
1000
,
0100
0010
1000
0001
0010
0100
0010
0000
,
1100
0000
0000
0000
1100
0000
0000
0000
1001
0000
0001
0000
0011
0000
0000
0010
,
0100
1000
0100
0000
1000
0000
1000
0000
0001
0000
0100
0000
0101
0000
0000
0000
,
0110
0000
0010
0000
1010
0000
0000
0000
1100
0000
0100
0000
0101
0000
0000
0100
,
0010
0001
0100
0000
0010
0000
0100
0000
0001
0000
1000
0000
1001
0000
1000
0001
,
0100
0001
0011
0000
0100
1000
1010
0000
,
1000
0001
0011
0001
1000
0100
1100
0000
,
1000
0001
0101
0001
1000
0010
1010
0000
,
1000
0000
0001
0000
0010
0000
0100
0000
0010
0000
0001
0000
0010
0100
0010
0100
,
1000
0100
0201
0000
1300
0100
1100
1000
,
0010
0001
0010
1000
0010
0000
0100
0010
,
1010
0000
0102
0000
0013
0001
0010
1000
,
0001
0000
0100
0000
1000
0000
0010
0000
0100
0000
0010
0000
1000
0000
0010
0100
,
0001
0010
1020
0000
0031
0010
0011
0010
,
0100
1000
0100
0001
0100
0000
1000
0100
,
1100
0000
0012
0000
0103
0001
1000
0100
,
0001
1000
0010
0001
0100
0010
0110
0000
,
0010
1000
1010
1000
0001
1000
1001
0001
,
0010
0000
0001
0000
0011
0000
0010
0000
0110
0000
0100
0000
1100
0000
1000
0001
,
1000
0001
1001
0001
0010
0001
0011
0010
,
0100
0000
0010
0000
0110
0000
0100
0000
1100
0000
1000
0000
1001
0000
0001
0100
,
0010
1000
1010
1000
0001
1001
0011
0010
,
0100
0000
1000
0000
1100
0000
1000
0000
0001
0000
1000
0000
1001
0000
0001
0100
,
1000
0100
1100
0100
0001
0010
0011
0010
,
0100
1000
0100
1000
0001
0010
0001
0010
,
0011
1100
1010
0101
1001
0000
0110
0000
,
1001
0000
1100
0100
0010
0000
0011
0000
,
0001
1000
0001
0000
1000
0100
0001
0000
,
1001
0000
1001
0000
0001
0100
1000
0000
,
0001
0010
1000
0100
0001
0000
0110
0000
,
1001
0000
0101
0100
0010
0000
1010
0000
,
1000
0001
1000
0000
0001
0100
1000
0000
,
1001
1001
1001
0000
1000
0100
0001
0000
,
1000
0000
0010
0000
0001
0000
0100
0000
1000
0000
1000
0000
0001
1000
0001
1000
,
0001
0010
0001
0000
0010
0000
0100
0010
0100
0000
1000
0000
1001
0000
0000
0000
,
1000
0001
1000
0000
0001
0100
1000
0000
,
1001
0000
1001
0000
1000
0100
0001
0000
,
1000
0000
0010
0000
0001
0000
0100
0000
1000
0000
0000
0000
0001
0000
1000
0001
,
0100
0000
1100
0100
0010
0000
0011
0000
,
0001
1000
0001
0000
1000
0100
0001
0000
,
1001
1001
1001
0000
0001
0100
1000
0000
,
0001
0000
0010
0000
1000
0000
0100
0000
0001
0000
0000
0000
1001
0000
1000
0010
,
0100
0000
0000
0000
;
