#TITLE:Echoes of Friendship;
#SUBTITLE:;
#ARTIST:ArcaneSoul;
#TITLETRANSLIT:;
#SUBTITLETRANSLIT:;
#ARTISTTRANSLIT:;
#GENRE:Hard Trance;
#CREDIT:;
#BANNER:;
#BACKGROUND:;
#LYRICSPATH:;
#CDTITLE:;
#MUSIC:Echoes of Friendship.mp3;
#OFFSET:-13.894004;
#SAMPLESTART:55.036865;
#SAMPLELENGTH:13.678566;
#SELECTABLE:YES;
#BPMS:0.000000=140.000000
;
#STOPS:
;
#BGCHANGES:;
#KEYSOUNDS:;
#ATTACKS:;

//---------------dance-single - ----------------
#NOTES:
     dance-single:
     :
     Beginner:
     1:
     0.075652,0.064625,0.017951,0.000000,0.000000,57.000000,2.000000,0.000000,0.000000,0.000000,0.000000,0.075652,0.064625,0.017951,0.000000,0.000000,57.000000,2.000000,0.000000,0.000000,0.000000,0.000000:
0010
0000
0000
0000
,
1000
0000
0000
0000
,
0100
0000
0000
0000
,
0001
0000
0000
0000
,
0100
0000
0000
0000
,
0010
0000
0000
0000
,
0001
0000
0000
0000
,
1000
0000
0000
0000
,
0010
0000
0000
0000
,
0010
0000
0000
0000
,
0100
0000
0000
0000
,
0100
0000
0000
0000
,
0001
0000
0000
0000
,
0001
0000
0000
0000
,
1000
0000
0000
0000
,
1000
0000
0000
0000
,
0100
0000
0000
0000
,
0010
0000
0000
0000
,
0001
0000
0000
0000
,
1000
0000
0000
0000
,
0010
0000
0000
0000
,
0001
0000
0000
0000
,
0100
0000
0000
0000
,
1000
0000
0000
0000
,
1001
0000
0000
0000
,
0010
0000
0000
0000
,
0100
0000
0000
0000
,
0001
0000
0000
0000
,
0010
0000
0000
0000
,
0100
0000
0000
0000
,
1000
0000
0000
0000
,
0001
0000
0000
0000
,
0100
0000
0100
0000
,
0100
0000
0000
0000
,
0010
0000
0010
0000
,
0010
0000
0000
0000
,
1000
0000
1000
0000
,
1000
0000
0000
0000
,
0001
0000
0001
0000
,
0001
0000
0000
0000
,
0010
0000
0001
0000
,
0010
0000
0000
0000
,
0100
0000
1000
0000
,
0100
0000
0000
0000
,
1000
0000
0001
0000
,
1000
0000
0000
0000
,
0010
0000
0100
0000
,
0010
0000
0000
0000
,
1001
0000
0000
0000
;

//---------------dance-single - ----------------
#NOTES:
     dance-single:
     :
     Easy:
     5:
     0.183361,0.201953,0.080781,0.026927,0.000000,131.000000,9.000000,3.000000,0.000000,0.000000,0.000000,0.183361,0.201953,0.080781,0.026927,0.000000,131.000000,9.000000,3.000000,0.000000,0.000000,0.000000:
0010
0000
1000
0000
,
0010
0000
0000
0000
,
0100
0000
0001
0000
,
0100
0000
0000
0000
,
0001
0000
1000
0000
,
0001
0000
0000
0000
,
0010
0000
0100
0000
,
0010
0000
0000
0000
,
0001
0000
0100
0000
,
0001
0000
1000
0000
,
0100
0000
1000
0000
,
0010
0000
0100
0000
,
0001
0000
0010
0000
,
0100
0000
1000
0000
,
0010
0000
0100
0000
,
0001
0000
0000
0000
,
1000
0000
0100
0000
,
0010
0000
0001
0000
,
1000
0000
0010
0000
,
0100
0000
0001
0000
,
0010
0000
0100
0000
,
1000
0000
0010
0000
,
0100
0000
0001
0000
,
2000
0000
0000
3000
,
0010
1000
0100
1000
,
0001
0100
0010
0000
,
0010
1000
0100
1000
,
0001
0010
1000
0000
,
0010
0100
0001
0100
,
1000
0010
0100
0000
,
0001
0100
0010
1000
,
0001
0010
0100
0000
,
1000
0010
0100
0110
,
0010
1000
0001
0000
,
0010
0100
1000
1001
,
0001
0100
0010
0000
,
0100
0001
1000
1100
,
0100
0010
0001
0000
,
1000
0010
0100
0011
,
0010
0100
0001
0000
,
0010
0100
1000
1001
,
0001
0100
0010
0010
,
0100
0001
0010
0110
,
0100
1000
0010
0100
,
0001
0100
0010
1010
,
0010
0100
0001
1000
,
0100
0010
0100
0101
,
0100
1000
0010
0100
,
2002
0000
0000
0000
,
0000
0000
0000
0000
,
3003
0000
0000
0000
;

//---------------dance-single - ----------------
#NOTES:
     dance-single:
     :
     Medium:
     7:
     0.309020,0.314149,0.287222,0.062830,0.000000,202.000000,32.000000,7.000000,0.000000,0.000000,0.000000,0.309020,0.314149,0.287222,0.062830,0.000000,202.000000,32.000000,7.000000,0.000000,0.000000,0.000000:
0010
0000
0000
0000
0010
0000
0100
0020
,
0000
0000
0000
0000
,
1030
0000
0000
0000
1000
0000
0001
2000
,
0000
0000
3100
0000
0010
0001
0010
0000
,
0200
0000
0000
0000
1300
0000
0100
2000
,
0000
0000
0000
0000
,
3020
0000
0000
0000
0130
0000
0010
0200
,
0000
0000
0000
0000
,
0301
0010
0001
0010
,
0100
1000
0100
1000
,
0010
0100
0010
0100
,
0001
1000
0001
1000
,
0100
0001
0100
1000
,
0010
0001
0010
1000
,
0001
0010
0100
1000
,
0010
0000
0000
0000
,
0100
0100
0010
0010
,
1000
1000
0001
0001
,
0010
0000
0010
0000
0100
0000
0100
1000
,
0100
0000
0010
0000
0001
1000
0001
0000
,
0100
0000
0010
0000
0100
0000
0001
0100
,
0010
1000
0100
1000
,
0001
0000
0010
0000
0100
0000
1000
0001
,
0100
0000
0010
0000
0100
0010
0100
0000
,
0110
0000
0010
0000
1001
0000
0100
1000
,
0001
0000
0101
0000
0010
0000
1000
0100
,
0010
0000
0011
0000
1100
0000
0001
0100
,
0010
0000
1001
0000
0110
0000
0100
1000
,
0001
0000
0101
0000
0011
0000
0100
1000
,
0010
0000
0101
0000
1010
0000
0010
0100
,
0001
0000
1001
0000
0110
0000
0100
1000
,
0001
0000
0101
0000
1010
0000
0010
0100
,
0001
0000
1000
0000
0100
0000
1000
0001
,
0100
0010
0100
0101
,
0001
0000
1000
0100
1000
0000
0010
0100
,
0000
0100
0010
0000
0110
0000
1001
0000
,
0001
0000
0010
0001
1000
0000
0010
0100
,
0000
0100
0010
0000
1000
0000
1001
0000
,
0001
0000
0010
0100
0010
0000
0001
1000
,
0000
1000
0010
0000
0010
0000
0100
0000
,
0001
0101
1000
1100
,
0001
0011
1000
1010
,
0010
0110
0100
1001
,
0100
0000
0011
0000
0100
1000
0001
1000
,
0100
0011
0100
0110
,
0100
1100
0010
0110
,
0100
0101
0010
1100
,
0010
0000
0100
0000
0001
1000
0100
0010
,
0002
0000
0000
0000
,
0000
0000
0000
0000
,
0003
0000
0000
0000
;

//---------------dance-single - ----------------
#NOTES:
     dance-single:
     :
     Hard:
     10:
     0.415446,0.366208,0.152587,0.098733,0.197465,296.000000,17.000000,11.000000,0.000000,0.000000,0.000000,0.415446,0.366208,0.152587,0.098733,0.197465,296.000000,17.000000,11.000000,0.000000,0.000000,0.000000:
// measure 0
2001
0000
0000
0000
0010
0000
3100
0020
,  // measure 1
0000
0000
0000
0030
,  // measure 2
0021
0000
0000
0000
0130
0000
1000
0002
,  // measure 3
0000
0000
0103
0000
0010
1000
0100
1000
,  // measure 4
0002
0000
0000
0000
0103
0000
0010
2000
,  // measure 5
0000
0000
0000
0000
,  // measure 6
3200
0000
0000
0000
0310
0000
0001
2000
,  // measure 7
0000
3010
0100
0001
,  // measure 8
1000
0000
0000
0100
0000
0000
1000
0000
0001
0000
0000
0100
0000
0000
0001
0000
,  // measure 9
1000
0000
0000
0010
0000
0000
1000
0000
0001
0000
0000
0010
0000
0000
0001
0000
,  // measure 10
0100
0000
0000
0010
0000
0000
0100
0000
0001
0000
0000
1000
0000
0000
0001
0000
,  // measure 11
1000
0000
0000
0010
0000
0000
0100
0000
0001
0000
0000
0010
0000
0000
0100
0000
,  // measure 12
1000
0000
0000
0100
0000
0000
1000
0000
0100
0000
0000
0010
0000
0000
0100
0000
,  // measure 13
0010
0000
0000
0001
0000
0000
0010
0000
0001
0000
0000
0100
0000
0000
0001
0000
,  // measure 14
0100
0000
0000
0010
0000
0000
0100
0000
0010
0000
0000
1000
0000
0000
0010
0000
,  // measure 15
2000
0000
0000
3000
,  // measure 16
0001
0100
0001
0000
1000
0100
1000
0000
,  // measure 17
0001
0100
0001
0000
1000
0100
1000
0000
,  // measure 18
0001
0010
0001
0000
1000
0010
1000
0000
,  // measure 19
0001
0010
0001
0000
1000
0010
1000
0010
,  // measure 20
0100
0001
0100
0000
0010
1000
0010
0000
,  // measure 21
0100
0001
0100
0000
0010
1000
0010
0000
,  // measure 22
0001
0010
0001
0000
1000
0100
1000
0000
,  // measure 23
0001
0010
0001
0000
1000
0100
0001
0010
,  // measure 24
0100
0000
0000
1000
0100
0000
0010
0000
0001
0000
0000
0100
0010
0000
0100
0000
,  // measure 25
0001
0000
0000
1000
0100
0000
0010
0000
0001
0000
0000
0100
0010
0000
0100
0000
,  // measure 26
0001
0000
0000
0010
0100
0000
1000
0000
0001
0000
0000
0100
0010
0000
0100
0000
,  // measure 27
0001
0000
0000
1000
0100
0000
0010
0000
0001
0000
0000
1000
0010
0000
0100
0000
,  // measure 28
0001
0000
0000
0010
0100
0000
0010
0000
0001
0000
0000
1000
0010
0000
0100
0000
,  // measure 29
1000
0000
0000
0100
0001
0000
1000
0000
0100
0000
0000
0010
0001
0000
1000
0000
,  // measure 30
0010
0000
0000
0100
0001
0000
1000
0000
0100
0000
0000
0010
0100
0000
1000
0000
,  // measure 31
0010
0000
0000
0100
0001
0000
0010
0000
0100
0000
0000
1000
0010
0000
0100
0000
,  // measure 32
0001
0000
0000
1000
0100
0000
0001
0000
0100
0000
0000
0010
0001
0000
1000
0000
,  // measure 33
0010
0000
0000
0100
0001
0000
1000
0000
0100
0000
0000
0010
0001
0000
1000
0000
,  // measure 34
0010
0000
0000
0100
0001
0000
0010
0000
0100
0000
0000
1000
0010
0000
0100
0000
,  // measure 35
1000
0000
0100
0000
0001
0000
0010
0000
0100
0000
0000
1000
0100
0000
0010
0000
,  // measure 36
0001
0000
0000
1000
0010
0000
0100
0000
0001
0000
0000
0010
0100
0000
1000
0000
,  // measure 37
0001
0000
0000
0100
0010
0000
0100
0000
0001
0000
0000
1000
0100
0000
0010
0000
,  // measure 38
0001
0000
0000
0100
0010
0000
0100
0000
1000
0000
0000
0100
0001
0000
1000
0000
,  // measure 39
0100
0000
0000
0010
0001
0000
1000
0000
0010
0000
0100
0000
0001
0000
1000
0000
,  // measure 40
0010
0100
0101
0000
0001
1000
1100
0000
,  // measure 41
0100
0010
0011
0000
0001
0010
1100
0000
,  // measure 42
0010
0100
0101
0000
1000
0001
0011
0000
,  // measure 43
0100
1000
1010
0000
0010
0100
0001
0100
,  // measure 44
0110
0000
0010
1000
1001
0000
0001
0010
,  // measure 45
0110
0000
0100
1000
1001
0000
0001
0100
,  // measure 46
0010
1000
1001
0000
0001
0010
1100
0000
,  // measure 47
0010
0100
1001
0000
0001
0010
0100
1000
,  // measure 48
2002
0000
0000
0000
,  // measure 49
0000
0000
0000
0000
,  // measure 50
0000
0000
0000
0000
,  // measure 51
3003
0000
0000
0000
;
