#TITLE:Daring Do (feat. Kathy-chan);
#SUBTITLE:;
#ARTIST:Sim Gretina;
#TITLETRANSLIT:;
#SUBTITLETRANSLIT:;
#ARTISTTRANSLIT:;
#GENRE:Beach;
#CREDIT:;
#BANNER:Daring Do (feat. Kathy-chan).png;
#BACKGROUND:Daring Do (feat. Kathy-chan)-bg.png;
#LYRICSPATH:;
#CDTITLE:;
#MUSIC:Daring Do (feat. Kathy-chan).mp3;
#OFFSET:-0.174593;
#SAMPLESTART:73.420013;
#SAMPLELENGTH:15.000000;
#SELECTABLE:YES;
#BPMS:0.000000=108.000000
;
#STOPS:
;
#BGCHANGES:;
#KEYSOUNDS:;
#ATTACKS:;

//---------------dance-single - ----------------
#NOTES:
     dance-single:
     :
     Medium:
     8:
     0.356344,0.336160,0.046770,0.140310,0.214363,296.000000,6.000000,18.000000,0.000000,0.000000,0.000000,0.356344,0.336160,0.046770,0.140310,0.214363,296.000000,6.000000,18.000000,0.000000,0.000000,0.000000:
0000
0000
0000
0000
,
0000
0000
0000
0000
1000
0000
1000
0000
0020
0000
0000
1030
0000
0000
0010
0000
,
2000
0000
0000
3001
0000
0000
1000
0000
0100
0000
0100
0000
0010
0000
0000
0000
,
0100
0000
1000
0000
1000
0000
0001
0000
2000
0000
0000
3010
0000
0000
1000
0000
,
0001
0000
0000
1001
0000
0000
0000
0000
1000
0000
0100
0000
1000
0000
0000
0000
,
0100
0000
0000
0000
0010
0000
0010
0000
0002
0000
0000
1003
0000
0000
0001
0000
,
0200
0000
0000
0310
0000
0000
0100
0000
0001
0000
0001
0000
1000
0000
0000
0000
,
0100
0000
0010
0000
0100
0000
0010
0000
0001
0000
0000
1000
0000
0000
0001
0000
,
0100
0000
0000
0110
0000
0000
0000
0000
0010
0000
1000
0000
0010
0000
0000
0000
,
1000
0000
1000
0000
0000
0000
0001
0000
1000
0000
0000
0001
0000
0000
0011
0000
,
0000
0000
0100
0000
0000
0000
1000
0000
0000
0000
0100
0000
0000
0100
0000
0000
,
0010
0000
0001
0000
0010
0000
0001
0000
0100
0000
0000
0100
0000
0000
0020
0000
,
0000
1030
0000
0000
0010
0100
0001
0000
,
1000
0000
0001
0000
0000
0000
1001
0000
0000
0000
1000
0000
0000
1000
0000
0000
,
0100
0000
0000
0100
0000
0000
0010
0000
0000
0000
0001
0000
0000
0001
0000
0000
,
0100
0000
0010
0000
0100
0000
0010
0000
1000
0000
0000
1000
0000
0000
2000
0000
,
0000
3001
0000
0000
1000
0100
1000
0000
,
0000
0000
0000
0000
0100
0000
0100
0000
0020
0000
0000
0031
0000
0000
0010
0000
,
0002
0000
0000
1003
0000
0000
0001
0000
1000
0000
1000
0000
0010
0000
0000
0010
,
0000
0000
0100
0000
0010
0000
0100
0000
0010
0000
0000
1000
0000
0000
0001
0000
,
1000
0000
0000
1100
0000
0000
0000
0000
0100
0000
0010
0000
0100
0000
0000
0000
,
0000
0000
0000
0000
1000
0000
1000
0000
0002
0000
0000
0013
0000
0000
0001
0000
,
2000
0000
0000
3010
0000
0000
1000
0000
0100
0000
0100
0000
0010
0000
0000
0100
,
0000
0000
0010
0000
0001
0000
0010
0000
0001
0000
0000
1000
0000
0000
0001
0000
,
1000
0000
0000
0010
0000
0000
0000
0000
0100
0000
0001
0000
1000
0000
0000
0000
,
0100
0000
0010
0000
0000
0000
0100
0000
1000
0000
0000
0001
0000
0000
0002
0000
,
0000
0000
0103
0000
0000
0000
0001
0000
0000
0000
0010
0000
0000
0010
0000
0000
,
0100
0000
0010
0000
0100
0000
0010
0000
0001
0000
0000
0001
0000
0000
2000
0000
,
0000
3010
0000
0000
1000
0100
0001
0000
,
0100
0000
0010
0000
0100
0000
1000
0000
0000
0000
0010
0000
0000
0010
0000
0000
,
0100
0000
0000
0100
0000
0000
0100
0000
0000
0000
0001
0000
0000
0001
0000
0000
,
1000
0000
0001
0000
1000
0000
0001
0000
0100
0000
0000
0010
0000
0000
0020
0000
,
0000
1030
0000
0000
0010
1000
0001
0000
,
0010
0000
0010
0000
0000
0000
0100
0000
0010
0000
0000
0010
0000
0000
0002
0000
,
0000
0000
1003
0000
0000
0000
0001
0000
0000
0000
0100
0000
0000
0001
0000
0000
,
0010
0000
0100
0000
0010
0000
0100
0000
1000
0000
0000
1000
0000
0000
0020
0000
,
0000
0130
0000
0000
0010
1000
0010
0000
,
1000
0000
0001
0000
0010
0000
0001
0000
0000
0000
0100
0000
0000
0010
0000
0000
,
1000
0000
0000
0001
0000
0000
0020
0000
0000
0000
0031
0000
0000
0010
0000
0000
,
0100
0000
0010
0000
0100
0000
1000
0000
0010
0000
0000
0010
0000
0000
0020
0000
,
0000
0000
0130
0000
0000
0000
0000
0000
0010
0000
1000
0000
0001
0000
0000
0010
,
0000
0000
0000
0000
0000
0000
0001
0000
0010
0000
0000
0100
0000
0000
0010
0000
,
0000
0000
0000
0000
0000
0000
0100
0000
1000
0000
0010
0000
0100
0000
0000
0010
,
0000
0000
0000
0000
0000
0000
0100
0000
0001
0000
0000
1000
0000
0000
0100
0000
,
0000
0000
0000
0000
0000
0000
0100
0000
0010
0000
0100
0000
1000
0000
0000
0001
,
0000
0000
0000
0000
0000
0000
0100
0000
0001
0000
0000
0010
0000
0000
0001
0000
,
0000
0000
0000
0000
0000
0000
1000
0000
0010
0000
0100
0000
0001
0000
0000
1000
,
0000
0000
0000
0000
0000
0000
0100
0000
0010
0000
0000
0100
0000
0000
1000
0000
,
0000
0000
0000
0000
0000
0000
0000
0000
0001
0000
0010
0000
0100
0000
0000
1000
,
0000
0000
0000
0000
0000
0000
0010
0000
1000
0000
0000
0010
0000
0000
0100
0000
,
0000
0000
0000
0000
0000
0000
0001
0000
0100
0000
0010
0000
1000
0000
0000
0001
,
0000
0000
0000
0000
0000
0000
0010
0000
0001
0000
0000
0100
0000
0000
0010
0000
,
0000
0000
0000
0000
0000
0000
1000
0000
0010
0000
1000
0000
0001
0000
0000
0010
,
0000
0000
0000
0000
0000
0000
0100
0000
0010
0000
0000
0100
0000
0000
1100
0000
,
0000
0000
0000
0000
0000
0000
1000
0000
0001
0000
0100
0000
0001
0000
0000
0100
,
0000
0000
0000
0000
0000
0000
0010
0000
0100
0000
0000
0010
0000
0000
1000
0000
,
0000
0000
0000
0000
0001
0001
1000
0000
,
1000
0001
0100
0001
1000
0000
0000
0000
;

//---------------dance-single - ----------------
#NOTES:
     dance-single:
     :
     Easy:
     5:
     0.165923,0.176947,0.000000,0.000000,0.000000,149.000000,0.000000,0.000000,0.000000,0.000000,0.000000,0.165923,0.176947,0.000000,0.000000,0.000000,149.000000,0.000000,0.000000,0.000000,0.000000,0.000000:
0000
0000
0000
0000
,
1000
0000
0000
0000
,
0001
0000
0000
0000
,
0100
0000
0000
0000
,
0010
0000
0000
0000
,
1000
0000
0100
0000
,
0010
0000
0001
0000
,
0100
0000
0010
0000
,
1000
0000
0001
0000
,
1000
0100
1000
0000
,
0001
0100
0001
0000
,
0010
0100
0010
0000
,
0100
1000
0100
0000
,
1000
0001
1000
0000
,
0010
0100
0010
0000
,
0100
0001
0100
0000
,
0001
1000
0001
0000
,
0010
0001
0010
0000
,
0100
0000
1000
0000
,
0010
0100
0010
0000
,
1000
0000
0001
0000
,
0010
0000
0100
0000
,
1000
0001
0100
0000
,
0010
0000
0100
0000
,
0001
0010
0100
0000
,
0010
0000
0001
0000
,
0100
0000
1000
0000
,
0100
0000
0001
0000
,
0010
0000
0100
0000
,
1000
0000
0010
0000
,
0001
0000
0010
0000
,
0100
0000
0001
0000
,
1000
0000
0100
0000
,
0010
0001
0010
0100
,
0010
0100
0010
0001
,
1000
0010
0100
0001
,
1000
0001
1000
0100
,
0010
0100
0001
0100
,
1000
0100
1000
0010
,
0100
0001
0010
0001
,
1000
0001
1000
0001
,
0100
0000
0010
0000
,
1000
0000
0001
0000
,
0010
0000
0100
0000
,
1000
0000
0010
0100
,
0010
0000
1000
0000
,
0001
0000
0010
0001
,
1000
0000
0010
0000
,
0100
0000
0001
1000
,
0001
0000
0010
0000
,
0100
0000
1000
0100
,
1000
0000
0010
0000
,
0100
0000
0001
1000
,
0001
0001
0010
0010
,
0100
0100
0001
0010
,
1000
0100
0001
0100
,
1000
0010
0001
0100
;

//---------------dance-single - ----------------
#NOTES:
     dance-single:
     :
     Beginner:
     1:
     0.071269,0.066063,0.000000,0.000000,0.000000,64.000000,0.000000,0.000000,0.000000,0.000000,0.000000,0.071269,0.066063,0.000000,0.000000,0.000000,64.000000,0.000000,0.000000,0.000000,0.000000,0.000000:
0000
0000
0000
0000
,
0010
0000
0000
0000
,
0100
0000
0000
0000
,
0010
0000
0000
0000
,
0100
0000
0000
0000
,
0001
0000
0000
0000
,
1000
0000
0000
0000
,
0001
0000
0000
0000
,
1000
0000
0000
0000
,
0100
0000
0000
0000
,
0010
0000
0000
0000
,
0100
0000
0000
0000
,
0010
0000
0000
0000
,
0001
0000
0000
0000
,
1000
0000
0000
0000
,
0010
0000
0000
0000
,
0100
0000
0000
0000
,
0001
0000
0000
0000
,
0010
0000
0000
0000
,
0100
0000
0000
0000
,
1000
0000
0000
0000
,
0010
0000
0000
0000
,
0100
0000
0000
0000
,
0001
0000
0000
0000
,
1000
0000
0000
0000
,
0010
0000
0000
0000
,
0010
0000
0000
0000
,
0100
0000
0000
0000
,
0100
0000
0000
0000
,
0001
0000
0000
0000
,
0001
0000
0000
0000
,
1000
0000
0000
0000
,
1000
0000
0000
0000
,
0100
0000
0000
0000
,
0010
0000
0000
0000
,
0100
0000
0000
0000
,
0010
0000
0000
0000
,
0001
0000
0000
0000
,
1000
0000
0000
0000
,
0001
0000
0000
0000
,
1000
0000
0000
0000
,
0010
0000
0000
0000
,
0100
0000
0100
0000
,
0100
0000
0000
0000
,
0001
0000
0001
0000
,
0001
0000
0000
0000
,
1000
0000
1000
0000
,
1000
0000
0000
0000
,
0100
0000
0100
0000
,
0100
0000
0000
0000
,
0010
0000
0100
0000
,
0010
0000
0000
0000
,
0001
0000
1000
0000
,
0001
0000
0000
0000
,
0100
0000
0010
0000
,
0100
0000
0000
0000
,
1000
0000
0001
0000
;

//---------------dance-single - ----------------
#NOTES:
     dance-single:
     :
     Hard:
     12:
     0.635851,0.537856,0.639192,0.148105,0.674269,470.000000,82.000000,19.000000,0.000000,0.000000,0.000000,0.635851,0.537856,0.639192,0.148105,0.674269,470.000000,82.000000,19.000000,0.000000,0.000000,0.000000:
// measure 0
0000
0000
0000
0000
0000
0000
0000
0000
0000
0000
0000
0000
0000
0000
0010
1000
,  // measure 1
0001
0000
1000
0001
0000
0001
0010
0000
0100
0000
0110
0000
0000
0110
0000
0000
,  // measure 2
0100
0000
1000
0010
0000
0010
0001
0000
0010
0000
0110
0000
0000
0101
0000
0000
,  // measure 3
0001
0000
1000
0001
0000
0001
0010
0000
0100
0000
0110
0000
0000
0110
0000
0000
,  // measure 4
0100
1000
0001
1000
0000
0001
0010
0000
0100
0000
0020
0000
0031
0020
0000
0000
,  // measure 5
0031
0000
0010
0100
0000
0100
1000
0000
0010
0000
1010
0000
0000
1010
0000
0000
,  // measure 6
1000
0000
0001
0010
0000
0001
0010
0000
0100
0000
0110
0000
0000
1100
0000
0000
,  // measure 7
1000
0000
0001
1000
0000
1000
0010
0000
0100
0000
0110
0000
0000
0110
0000
0000
,  // measure 8
0010
0000
1000
0010
0000
0010
1000
0000
1000
0000
1001
0000
0000
0001
0010
0001
,  // measure 9
0010
0000
0100
0010
0000
0010
0001
0000
1000
0000
0010
1000
0000
1000
0002
0000
,  // measure 10
0000
0000
0013
0001
0000
0001
0100
0000
0010
0000
0100
0010
0000
0010
1000
0000
,  // measure 11
0001
0000
1000
0100
0000
0100
1000
0000
0010
0000
0100
0010
0000
0010
0200
0000
,  // measure 12
0000
0000
0301
0100
0000
0100
0001
0000
0010
0000
0100
0010
0000
0010
0100
0000
,  // measure 13
1000
0000
0010
0000
0001
0000
0011
0000
0000
0000
0110
0000
0000
0110
0000
0000
,  // measure 14
0101
0000
0000
1010
0000
0000
2001
0000
0000
0000
3010
0000
0000
0010
0000
0000
,  // measure 15
0110
0000
0100
0000
0001
0000
0100
0000
0001
0000
1000
0001
0000
0001
0010
0000
,  // measure 16
0100
0000
0010
0100
0010
0000
0001
0000
1000
0000
0010
1000
0000
0010
1000
0010
,  // measure 17
0100
0000
0001
0100
0000
0001
0100
0000
0010
0000
1010
0000
0000
1010
0000
0000
,  // measure 18
1000
0000
0001
1000
0000
0001
1000
0000
0100
0000
0110
0000
0000
0011
0000
0000
,  // measure 19
0001
0000
0100
0001
0000
0001
1000
0000
0100
0000
1100
0000
0000
1100
0000
0000
,  // measure 20
0100
0000
0010
0100
0000
0100
1000
0000
0010
0000
2000
0000
3001
2000
0000
0000
,  // measure 21
3100
0000
1000
0100
0000
0100
1000
0000
0100
0000
0110
0000
0000
0110
0000
0000
,  // measure 22
0010
0000
0001
0100
0000
0100
0001
0000
1000
0000
1100
0000
0000
0101
0000
0000
,  // measure 23
0100
0000
0010
0001
0000
0001
0010
0000
0001
0000
1001
0000
0000
1001
0000
0000
,  // measure 24
1000
0000
0010
1000
0000
1000
0001
0000
0010
0000
0100
0010
0000
0100
0010
0100
,  // measure 25
2000
0000
0000
0000
3020
0000
0000
0030
,  // measure 26
0102
0000
0000
0100
0000
0000
0100
0000
0000
0000
0100
0000
0000
0103
0000
0000
,  // measure 27
0002
0000
0000
0000
0023
0000
0000
0030
,  // measure 28
2100
0000
0000
0100
0000
0000
0100
0000
0000
0000
0100
0000
0000
3100
0000
0000
,  // measure 29
0002
0000
0000
0000
0203
0000
0000
0300
,  // measure 30
2010
0000
0000
0010
0000
0000
0010
0000
0000
0000
0010
0000
0000
3010
0000
0000
,  // measure 31
2000
0000
0000
0000
3200
0000
0000
0300
,  // measure 32
0012
0000
0000
0010
0000
0000
0010
0000
0000
0000
0010
0000
0000
0013
0001
0010
,  // measure 33
0100
0000
0010
0100
0000
0100
1000
0000
0010
0000
1000
0010
0000
0010
0100
0000
,  // measure 34
0001
0000
0100
0001
0000
0001
1000
0000
0100
0000
0010
0100
0000
0100
1000
0000
,  // measure 35
0010
0000
1000
0010
0000
0010
1000
0000
0001
0000
0010
0001
0000
0001
0010
0000
,  // measure 36
0100
0000
0010
0100
0000
0100
1000
0000
0010
0000
0100
0010
0000
0010
1000
0000
,  // measure 37
0001
0000
0010
0001
0000
0001
0100
0000
0010
0000
0100
0010
0000
0010
1000
0000
,  // measure 38
0100
0000
0001
1000
0000
1000
0010
0000
0001
0000
0100
0001
0000
0001
0010
0000
,  // measure 39
0100
0000
0010
0100
0000
0100
1000
0000
0010
0000
0100
0010
0000
0010
0001
0000
,  // measure 40
0010
0000
0100
0001
0000
0001
0010
0000
0011
0000
0110
0000
1100
0000
1000
0001
,  // measure 41
0100
0000
0010
0100
0000
0010
1000
0000
1010
0000
0000
1001
0000
0000
0011
0000
,  // measure 42
0001
0000
0010
0100
0000
0100
0010
0000
0011
0000
0110
0000
1100
0000
1000
0001
,  // measure 43
0010
0000
0100
0010
0000
0010
0001
0000
1001
0000
0000
1010
0000
0000
0110
0000
,  // measure 44
0100
0000
0010
1000
0000
1000
0001
0000
0101
0000
0110
0000
1010
0000
1000
0001
,  // measure 45
0010
0000
0100
0010
0000
0010
0001
0000
0010
0001
0000
0101
0000
0000
0110
0000
,  // measure 46
0010
0000
1000
0010
0000
1000
0001
0000
0101
0000
0110
0000
1010
0000
1000
0001
,  // measure 47
0100
0000
0001
1000
0000
1000
0100
0000
0110
0000
0000
1100
0000
0000
1010
0000
,  // measure 48
1000
0000
0010
0100
0000
0100
0001
0000
1100
0000
0110
0000
0011
0000
0001
1000
,  // measure 49
0100
0000
1000
0001
0000
0001
0100
0000
0110
0000
0000
1010
0000
0000
1001
0000
,  // measure 50
0001
0000
0010
0100
0000
0100
1000
0000
1100
0000
0110
0000
0011
0000
0001
1000
,  // measure 51
0010
0000
0100
0010
0000
0010
1000
0000
1001
0000
0000
0011
0000
0000
0110
0000
,  // measure 52
0010
0000
0001
0010
0000
0001
0100
0000
1100
0000
0110
0000
0011
0000
0010
1000
,  // measure 53
0001
0000
1000
0100
0000
0100
0010
0000
0100
1000
0000
1100
0000
0000
1001
0000
,  // measure 54
0001
0000
0100
0001
0000
0001
1000
0000
1100
0000
0110
0000
0011
0000
0001
1000
,  // measure 55
0010
0000
0100
0010
0000
0010
1000
0000
1100
0000
0000
0101
0000
0000
1010
0000
,  // measure 56
0010
0000
0001
0010
0000
0001
0100
0000
0001
0000
1000
0010
0000
1000
0100
0010
,  // measure 57
0100
0000
1000
0100
0000
0001
0000
0100
0010
0000
0000
0000
0000
0000
0000
0000
;
