#VERSION:0.81;
#TITLE:Crystal Fair (174UDSI Remix);
#SUBTITLE:;
#ARTIST:174UDSI;
#TITLETRANSLIT:;
#SUBTITLETRANSLIT:;
#ARTISTTRANSLIT:;
#GENRE:House Trance;
#ORIGIN:;
#CREDIT:;
#BANNER:;
#BACKGROUND:;
#PREVIEWVID:;
#JACKET:;
#CDIMAGE:;
#DISCIMAGE:;
#LYRICSPATH:;
#CDTITLE:;
#MUSIC:Crystal Fair (174UDSI Remix).mp3;
#OFFSET:-1.115000;
#SAMPLESTART:26.144911;
#SAMPLELENGTH:15.000;
#SELECTABLE:YES;
#BPMS:0=125,10=116.002,12=105,14=110.002,15=113.626,16=110.002,17=106.595,18=103.4,19=116.18,20=108.844,21=99.4176,22=111.004,23=127.42,24=110.999,27=113.436,28=106.432,29=109.82,30=115.763,31=112,36=122.631,37=108.474,38=111.289,39=117.616,40=110.099,41=115.003,42=114.998,43=100.072,44=147.065,44.5=114.003,46=140,48=135,85=135.007,86=135,96=134.993,97=135,123=135.007,124=135;
#STOPS:;
#DELAYS:;
#WARPS:;
#TIMESIGNATURES:0.000=4=4;
#TICKCOUNTS:0.000=4;
#COMBOS:0.000=1;
#SPEEDS:0.000=1.000=0.000=0;
#SCROLLS:0.000=1.000;
#FAKES:;
#LABELS:0.000=Song Start;
#BGCHANGES:;
#KEYSOUNDS:;
#ATTACKS:
;

//---------------dance-single - ----------------
#NOTEDATA:;
#CHARTNAME:;
#STEPSTYPE:dance-single;
#DESCRIPTION:;
#CHARTSTYLE:;
#DIFFICULTY:Hard;
#METER:10;
#RADARVALUES:0.415572,0.373304,0.011061,0.033183,0.082956,259.000000,1.000000,3.000000,0.000000,0.000000,0.000000,0.000000,0.000000,0.415572,0.373304,0.011061,0.033183,0.082956,259.000000,1.000000,3.000000,0.000000,0.000000,0.000000,0.000000,0.000000;
#CREDIT:;
#NOTES:
0000
0000
0000
0000
,
0000
0000
0000
0000
,
0000
0000
0000
0000
,
0000
0000
0000
0000
0010
1000
0100
1000
,
0001
0100
0010
0000
0010
1000
0100
0010
,
0100
0000
0000
0000
0000
0000
1000
0000
0000
0000
0000
0000
0001
0000
0000
0000
0100
0000
0000
0000
0000
0000
0000
0000
0100
0000
0000
0000
0000
0000
0010
0000
0000
0000
0000
0000
0100
0000
0000
0000
0000
0000
0000
0000
0000
0001
0000
0000
,
0000
1000
0000
0000
1000
0000
0100
0000
1000
0000
0001
0000
0100
0000
0000
0000
,
0010
0000
0000
0000
1000
0000
0000
0000
0100
0000
0010
0100
0000
1000
0000
0000
,
0001
0000
0000
0000
0100
0000
0100
0000
0010
0000
1000
0100
0000
1000
0000
0000
,
0001
0000
0100
0010
0010
1000
0100
1000
,
0001
0100
0001
0010
0100
1000
0010
0100
,
0002
0000
0003
0000
,
1000
0010
0100
0001
1000
0000
0100
0000
,
0010
0001
0100
0000
0010
0000
1000
0000
,
0100
1000
0001
0100
0010
1000
0100
0010
,
0000
0001
0000
1000
0000
0010
0000
0100
,
0000
0001
0010
0001
1000
0000
0100
0000
,
1000
0010
0100
0000
0001
0000
0010
0000
,
0100
1000
0001
0100
0010
1000
0001
0010
,
0100
1000
0000
0001
0000
0100
0010
1000
,
0100
0000
0000
1000
0000
0001
0000
0000
0100
0000
0000
0000
0010
0000
1000
0000
,
0001
0000
0000
0010
0000
0100
0000
0000
1000
0000
0000
0000
0010
0000
0100
0000
,
0001
0010
0100
1000
0001
0100
1000
0100
,
0001
0010
0100
1000
0010
0100
0000
0001
,
0010
0100
1000
0001
0100
0010
1000
0001
,
0000
0010
0000
0100
0000
1000
0000
0001
,
0100
0010
1000
0100
0010
0001
1000
0010
,
0000
0100
0000
0001
0000
0010
0100
1000
,
0001
0100
1000
0100
0001
0010
0100
1000
,
0010
0100
0000
0001
0000
0010
0100
1000
,
0010
0100
0000
0010
0000
1000
0001
0010
,
0000
0001
0000
0100
0000
0010
1000
0100
,
0010
0000
0010
0001
0000
0100
0000
0000
0010
0000
0000
0000
1000
0000
0100
0000
,
0001
0000
0001
0100
0000
0010
0000
0000
0001
0000
0000
0000
1000
0000
0010
0000
,
0100
0001
0010
0100
1000
0100
0001
0100
,
1000
0010
0000
0100
0001
0010
0100
1000
,
0020
0000
0230
0000
,
0301
0000
0010
0001
0000
0001
0010
0000
,
0100
1000
0001
0100
0010
0000
1000
0000
,
0100
0000
0010
1000
0000
1000
0010
0000
,
0001
0100
0010
0100
0001
0000
1000
0000
,
0100
0000
1000
0010
0000
0010
0100
0001
,
0010
1000
0010
0001
0100
1000
0100
0001
,
0010
0000
0100
1000
0000
1000
0001
0100
,
0010
1000
0100
0010
0001
0100
0010
0000
,
1001
0000
0000
0000
;

//---------------dance-single - ----------------
#NOTEDATA:;
#CHARTNAME:;
#STEPSTYPE:dance-single;
#DESCRIPTION:;
#CHARTSTYLE:;
#DIFFICULTY:Medium;
#METER:6;
#RADARVALUES:0.273361,0.248869,0.033183,0.044243,0.000000,166.000000,3.000000,4.000000,0.000000,0.000000,0.000000,0.000000,0.000000,0.273361,0.248869,0.033183,0.044243,0.000000,166.000000,3.000000,4.000000,0.000000,0.000000,0.000000,0.000000,0.000000;
#CREDIT:;
#NOTES:
0000
0000
0000
0000
,
0000
0000
0000
0000
,
0000
0000
0000
0000
,
0000
0000
0010
0000
,
1000
0000
0100
0000
,
0010
0000
0001
0100
,
0010
0000
0010
1000
,
0001
0000
0010
0100
,
1001
0000
0010
0100
,
0101
0000
0001
0010
,
0100
0000
0100
0000
1000
0010
2000
0000
,
0002
0000
3003
0000
,
0010
0100
0001
1000
,
0100
1000
0100
0000
0010
0000
0001
0000
,
0100
0010
0001
0010
,
0100
0001
0100
0000
0010
0000
1000
0000
,
0001
0010
0100
1000
,
0010
0100
0010
0000
1000
0000
0100
0000
,
0010
0001
0100
0010
,
1000
0001
1000
0000
0100
0000
0100
0000
,
0010
0000
0010
0001
0010
0000
0100
0000
,
1000
0000
1000
0100
1000
0000
0001
0000
,
0100
0010
1000
0001
,
0010
0100
1000
0010
,
0100
0001
0010
0100
,
0010
0000
0001
0010
0000
0010
0000
0001
,
0100
0010
1000
0100
,
1000
0000
0010
0100
0000
0100
0000
1000
,
0100
0001
0010
0100
,
1000
0000
0001
0000
0100
0000
0010
1000
,
0001
0000
0000
0010
0000
0100
0000
1000
,
0000
0001
0000
0100
0000
0010
1000
0000
,
0100
0000
0100
1000
0100
0000
1000
0000
,
0010
0000
1000
0010
1000
0000
0001
0000
,
0010
0001
0100
0010
,
1000
0001
0000
0001
1000
0000
0010
0000
,
0200
0000
0320
0000
,
1030
0000
0000
0100
0000
0000
1000
0000
,
0010
0000
0100
0001
0100
0000
0010
0000
,
1000
0000
0000
0001
0000
0000
0010
0000
,
0100
1000
0001
0100
,
0010
0000
0000
0100
0000
0000
0010
0000
,
1000
0000
0100
0000
1000
0001
0100
0000
,
0010
0000
0000
0100
0000
0000
0001
0000
,
0010
0000
0100
1000
0001
0000
0100
0000
,
0110
0000
0000
0000
;

//---------------dance-single - ----------------
#NOTEDATA:;
#CHARTNAME:;
#STEPSTYPE:dance-single;
#DESCRIPTION:;
#CHARTSTYLE:;
#DIFFICULTY:Easy;
#METER:4;
#RADARVALUES:0.172233,0.199095,0.055304,0.033183,0.000000,101.000000,5.000000,3.000000,0.000000,0.000000,0.000000,0.000000,0.000000,0.172233,0.199095,0.055304,0.033183,0.000000,101.000000,5.000000,3.000000,0.000000,0.000000,0.000000,0.000000,0.000000;
#CREDIT:;
#NOTES:
0000
0000
0000
0000
,
0000
0000
0000
0000
,
0000
0000
0000
0000
,
0000
0000
1000
0000
,
0100
0000
0010
0000
,
0001
0000
0100
0000
,
0010
0000
1000
0000
,
0001
0000
0010
0000
,
0100
0000
1000
0000
,
0010
0000
0100
0000
,
0001
0000
0010
0000
,
0200
0000
0300
0000
,
0100
0000
1000
0000
,
0010
1000
0010
0000
,
0100
0000
0001
0000
,
0010
0001
0010
0000
,
0100
0000
1000
0000
,
0001
1000
0001
0000
,
0100
0000
0010
0000
,
0100
0001
0100
0000
,
0001
0000
1001
0000
,
0100
0000
0110
0000
,
0010
0000
0100
0000
,
0001
0000
1000
0000
,
0100
0000
0010
0000
,
0100
1000
0100
0100
,
1000
0000
0010
0000
,
1000
0001
1000
1000
,
0001
0000
0010
0000
,
0100
0010
0100
0100
,
0010
0000
1000
0000
,
0010
0000
0001
0000
,
1000
0000
1001
0000
,
0010
0000
0110
0000
,
0100
0000
0001
0000
,
0010
0000
0100
0000
,
2000
0000
3002
0000
,
1003
0000
0100
0000
,
0010
0010
0010
0000
,
0001
0000
0010
0000
,
0100
0100
0100
0000
,
1000
0000
0010
0000
,
0100
0001
0010
0100
,
1000
0010
1000
0010
,
0100
0001
0100
0001
,
1001
0000
0000
0000
;

//---------------dance-single - ----------------
#NOTEDATA:;
#CHARTNAME:;
#STEPSTYPE:dance-single;
#DESCRIPTION:;
#CHARTSTYLE:;
#DIFFICULTY:Beginner;
#METER:1;
#RADARVALUES:0.090067,0.099548,0.055304,0.033183,0.000000,49.000000,5.000000,3.000000,0.000000,0.000000,0.000000,0.000000,0.000000,0.090067,0.099548,0.055304,0.033183,0.000000,49.000000,5.000000,3.000000,0.000000,0.000000,0.000000,0.000000,0.000000;
#CREDIT:;
#NOTES:
// measure 0
0000
0000
0000
0000
,  // measure 1
0000
0000
0000
0000
,  // measure 2
0000
0000
0000
0000
,  // measure 3
0000
0000
1000
0000
,  // measure 4
0000
0000
0010
0000
,  // measure 5
0000
0000
0100
0000
,  // measure 6
0000
0000
0001
0000
,  // measure 7
0000
0000
0010
0000
,  // measure 8
0000
0000
0100
0000
,  // measure 9
0000
0000
1000
0000
,  // measure 10
0000
0000
0002
0000
,  // measure 11
0003
0000
0000
0000
,  // measure 12
1000
0000
0000
0000
,  // measure 13
1000
0000
0000
0000
,  // measure 14
0010
0000
0000
0000
,  // measure 15
0010
0000
0000
0000
,  // measure 16
0100
0000
0000
0000
,  // measure 17
0100
0000
0000
0000
,  // measure 18
0001
0000
0000
0000
,  // measure 19
0001
0000
0000
0000
,  // measure 20
1001
0000
0000
0000
,  // measure 21
0110
0000
0000
0000
,  // measure 22
0010
0000
0000
0000
,  // measure 23
0100
0000
0000
0000
,  // measure 24
0001
0000
0000
0000
,  // measure 25
0001
0000
1000
0000
,  // measure 26
0001
0000
0000
0000
,  // measure 27
0100
0000
0010
0000
,  // measure 28
0100
0000
0000
0000
,  // measure 29
0010
0000
1000
0000
,  // measure 30
0010
0000
0000
0000
,  // measure 31
0100
0000
0001
0000
,  // measure 32
1001
0000
0000
0000
,  // measure 33
0110
0000
0000
0000
,  // measure 34
0100
0000
0000
0000
,  // measure 35
0010
0000
0000
0000
,  // measure 36
0001
0000
0001
0000
,  // measure 37
0002
0000
0000
0000
,  // measure 38
0003
0000
0100
0000
,  // measure 39
0200
0000
0000
0000
,  // measure 40
0300
0000
0010
0000
,  // measure 41
0010
0000
0000
0000
,  // measure 42
1000
0000
0010
0000
,  // measure 43
1000
0000
0000
0000
,  // measure 44
0001
0000
1000
0000
,  // measure 45
1001
0000
0000
0000
;
