#TITLE:Crusader (Are We There Yet;
#SUBTITLE:;
#ARTIST:BLACK GRYP0N & Baasik;
#TITLETRANSLIT:;
#SUBTITLETRANSLIT:;
#ARTISTTRANSLIT:;
#GENRE:Electro-Acoustic;
#CREDIT:;
#BANNER:Crusader (Are We There Yet).png;
#BACKGROUND:Crusader (Are We There Yet)-bg.png;
#LYRICSPATH:;
#CDTITLE:;
#MUSIC:Crusader (Are We There Yet).mp3;
#OFFSET:-0.066454;
#SAMPLESTART:48.020000;
#SAMPLELENGTH:15.000000;
#SELECTABLE:YES;
#BPMS:0.000000=160.000000
;
#STOPS:
;
#BGCHANGES:-0.500=Crusader (Are We There Yet).avi=1.000=0=0=0=StretchNoLoop====,
99999=-nosongbg-=1.000=0=0=0 // don't automatically add -songbackground-
;
#KEYSOUNDS:;
#ATTACKS:;

//---------------dance-single - ----------------
#NOTES:
     dance-single:
     :
     Easy:
     6:
     0.294006,0.392899,0.187095,0.239065,0.000000,157.000000,18.000000,23.000000,0.000000,0.000000,0.000000,0.294006,0.392899,0.187095,0.239065,0.000000,157.000000,18.000000,23.000000,0.000000,0.000000,0.000000:
0000
0000
0000
0000
,
0000
0000
0000
0000
,
0000
0000
0000
0000
,
0000
0000
0000
0000
,
0010
0000
1000
0000
,
0001
0010
0001
0100
,
0010
0000
1000
0000
,
0100
0001
0100
0010
,
0100
0000
1100
0000
,
1000
0001
1000
0001
,
0100
0000
0110
0000
,
0010
0010
1000
0000
,
0001
0000
1001
0000
,
0001
0010
0100
0010
,
0001
0000
1001
0000
,
1000
1000
0010
0000
,
2000
0000
0000
3000
,
1001
0000
0011
0000
0110
0000
0000
0220
,
0000
0000
0000
0330
,
1100
1001
0101
0000
,
0100
0000
0110
0000
,
0010
1000
0010
1000
,
0001
0000
0011
0000
,
0010
0100
1000
0000
,
0001
0000
0101
0000
,
0100
0010
1000
0100
,
1000
0000
1100
0000
,
0100
0010
0100
0000
,
0200
1300
2000
3001
,
0002
0100
1000
0103
,
0020
0130
0200
1300
,
2000
0010
3001
1001
,
0000
1000
0000
0010
0000
0100
0000
0001
,
0000
0010
0100
0010
,
0000
0100
0000
1000
0000
0001
0000
0000
,
0100
0010
0100
0010
,
1000
0001
0001
0000
,
1000
0100
0100
0000
,
0010
0100
0010
0100
,
0010
0010
0001
0100
,
0000
0001
0100
0010
,
1000
0001
1000
0000
,
0100
0010
0100
1000
,
0010
0100
0010
0000
,
0100
0001
1000
0001
,
1000
0100
0001
0100
,
0010
0100
0010
0100
,
0010
0010
0100
0010
,
0002
0000
1003
0000
,
2000
0000
3010
0000
,
0020
0000
0130
0000
,
0200
0000
0301
0000
,
0002
0000
1003
0000
,
2000
0000
3100
0000
,
0200
0000
0301
0000
,
0200
0000
0310
0000
,
0220
0000
0000
0000
,
0300
0000
0000
0000
,
0002
0000
0000
0000
,
0033
0000
0000
0000
,
2002
0000
0000
0000
,
0003
0000
0000
0000
,
0020
0000
0000
0000
,
3030
0000
0000
0000
;

//---------------dance-single - ----------------
#NOTES:
     dance-single:
     :
     Medium:
     8:
     0.375674,0.425640,0.114336,0.187095,0.000000,224.000000,11.000000,18.000000,0.000000,0.000000,0.000000,0.375674,0.425640,0.114336,0.187095,0.000000,224.000000,11.000000,18.000000,0.000000,0.000000,0.000000:
0000
0000
0000
0000
,
0000
0000
0000
0000
,
0000
0000
0000
0000
,
0000
0000
0000
0000
,
1000
0001
1000
0000
,
0001
0010
0000
0001
0010
0001
0100
0010
,
1000
0100
1000
0000
,
0010
0010
0010
0000
0100
0000
0001
0000
,
1000
0100
1000
0000
0001
0000
0000
0100
,
0000
0001
0100
0000
0010
0100
0010
0000
,
0000
1000
0010
0000
1000
0000
0001
0000
,
0010
0100
0000
0010
0000
0000
1001
0000
,
0000
1000
0010
0000
0100
0000
0000
0000
,
0010
1000
0010
0001
0010
0100
0001
0100
,
0000
0000
0001
0000
1001
0000
1000
0100
,
0010
0100
0000
2000
0000
3001
0000
0000
,
2000
0010
0001
3010
,
1010
0000
0101
0000
0001
0010
0000
0020
,
0001
0100
1000
0130
,
0110
0000
1100
0000
1000
0001
1000
0000
,
0001
0100
0001
0000
0100
0000
0000
0010
,
0100
0010
1000
0001
0010
0100
0010
0001
,
0000
1000
0001
0000
1000
0000
0010
1000
,
0010
0100
0000
0002
0000
1003
0000
0000
,
0000
0001
0010
0000
0100
0010
0000
0001
,
0000
1000
0001
1000
0010
0100
0010
1000
,
0000
0100
0001
0000
0100
0000
1000
0010
,
1000
0001
0000
0010
0000
0000
0100
0010
,
0100
1000
0000
0100
0000
1000
0000
0001
,
0000
0100
0000
0001
0000
0100
0010
0100
,
0010
1000
0000
0010
0000
1000
0000
0001
,
0000
0010
0000
0110
0000
0000
1001
0000
,
0000
1000
0000
0010
0000
0100
0000
0001
,
0000
0000
1000
0001
1000
0100
0000
0010
,
0000
0100
0010
0100
0000
1000
0000
0001
,
0100
0001
0000
0100
0000
0010
0000
1000
,
0000
0000
0001
0000
0010
0001
0000
1000
,
0000
0000
0100
1000
0010
1000
0000
0010
,
0000
0000
0100
0001
0100
0000
0001
0000
,
0100
0100
0100
0000
0001
0000
1000
0000
,
0000
0000
0100
0000
0010
0100
0000
0010
,
0000
0000
0001
1000
0000
0001
0000
1000
,
0000
0000
0010
1000
0010
0100
0000
0010
,
0100
0001
0000
1000
0000
0100
0000
0010
,
0000
0000
0100
0000
1000
0100
0000
1000
,
0000
0000
0001
1000
0001
0100
0000
0010
,
0000
0000
0100
0001
0100
0000
0001
0000
,
0100
0100
0100
0000
0001
0000
1000
0000
,
0200
0000
0000
0000
,
0320
0000
0000
0000
,
0032
0000
0000
0000
,
1003
0000
0000
0000
,
1020
0000
0000
0000
,
0230
0000
0000
0000
,
0302
0000
0000
0000
,
1003
0000
0000
0000
,
2200
0000
0000
3000
,
0020
0000
0000
0030
,
2000
0000
0000
0300
,
3001
0000
0000
0000
,
0202
0000
0000
0300
,
0020
0000
0000
0030
,
0200
0000
0000
0003
,
0310
0000
0000
0000
;

//---------------dance-single - ----------------
#NOTES:
     dance-single:
     :
     Hard:
     11:
     0.582072,0.556606,0.436554,0.332613,0.005197,318.000000,42.000000,32.000000,0.000000,0.000000,0.000000,0.582072,0.556606,0.436554,0.332613,0.005197,318.000000,42.000000,32.000000,0.000000,0.000000,0.000000:
0000
0000
0000
0000
,
0000
0000
0000
0000
,
0000
0000
0000
0000
,
0000
0000
0000
0000
0000
0000
0000
0010
,
0000
1000
0010
1000
0000
0001
0000
0010
,
0000
0110
0000
0100
1000
0001
1000
0001
,
0100
0001
0000
0020
0000
0130
0010
0010
,
0010
0010
0001
1000
0010
0000
1010
0000
,
1000
0100
0001
0000
1010
0000
0010
0001
,
0000
0100
0001
0100
1000
0001
0010
1000
,
0001
0100
1000
0000
0011
0000
0010
1000
,
0100
0010
0200
1000
0000
0301
0100
0000
,
1000
0010
1000
0000
0011
0000
0010
1000
,
0100
0010
0100
0001
1000
0010
0001
1000
,
0010
1000
0010
0000
0110
0000
0200
0301
,
0100
1000
0000
0021
0000
1030
0000
0000
,
0010
0000
1000
0000
0001
0010
0000
0001
,
0100
0000
0110
0000
0010
1000
0000
1000
,
0001
0010
0000
0100
0000
0010
0000
0001
,
0010
0000
0000
0000
0011
0000
0000
0000
0001
0000
1000
0000
0001
0000
1000
0010
,
1000
0100
1000
0100
0100
0000
0110
0010
,
0100
1000
0010
0100
0001
0010
0001
0100
,
0010
0100
0010
0010
1000
0000
1001
0001
,
0010
0001
0100
0020
0000
1030
0010
0000
,
1000
0001
1000
1000
0100
0110
0000
0010
,
0100
1000
0100
0001
1000
0010
0100
1000
,
0010
0100
0020
0000
1030
0000
0010
1000
,
0001
0010
0000
0011
0000
0000
0010
0100
,
1000
1010
0000
0020
0000
0130
0000
0200
,
0000
0301
0000
0002
0000
1003
0001
1000
,
0100
0010
0000
0110
0000
1001
0000
1010
,
0000
0101
0000
0011
0000
0002
1003
0000
,
1000
1010
0000
0110
0000
2010
0001
3001
,
0000
0001
1000
0100
0001
0100
0000
0010
,
0000
0100
0010
0200
0000
1300
0000
0100
,
1000
0010
0000
0110
0000
0102
1000
1003
,
0001
0000
0010
0000
0100
0020
0001
0130
,
0000
0010
0100
2000
0010
3100
0000
1001
,
0000
0000
0001
0001
0200
0000
0310
0000
,
0010
0010
1000
1000
0002
0000
0013
0000
,
0100
0010
0100
0000
1100
1000
0000
1001
,
0000
0001
0100
0001
0000
0101
0000
0110
,
0000
0000
0010
1000
0001
1000
0000
0100
,
0010
0110
0000
1100
0000
2010
0001
3001
,
1000
0000
0100
0000
0010
0200
1000
0310
,
0000
0100
1000
0002
0100
0010
1003
0001
,
0000
1000
0001
0100
0001
0000
1010
0000
,
1000
1000
0100
0100
1000
0001
1000
0010
,
0110
0100
0001
0000
1000
0001
1000
0100
,
0010
0100
1000
0010
1000
0001
0010
0200
,
0000
1300
0000
2000
0000
3001
0000
1000
,
0000
1010
0000
0010
1000
0001
0010
0110
,
0000
0100
1000
1100
0000
1001
0000
0001
,
0000
0101
0000
0110
0010
1000
0001
0010
,
0100
0020
0001
0230
0000
1300
0100
0100
,
0100
0100
0010
0100
1000
0000
0010
0000
,
0202
0000
0000
0300
,
2000
0000
0000
0003
,
0200
0000
0000
3000
,
0310
0000
0000
0000
,
2002
0000
0000
0003
,
0020
0000
0000
3000
,
0200
0000
0000
0030
,
0301
0000
0000
0000
;

//---------------dance-single - ----------------
#NOTES:
     dance-single:
     :
     Beginner:
     3:
     0.105426,0.163708,0.010394,0.103941,0.000000,60.000000,1.000000,10.000000,0.000000,0.000000,0.000000,0.105426,0.163708,0.010394,0.103941,0.000000,60.000000,1.000000,10.000000,0.000000,0.000000,0.000000:
0000
0000
0000
0000
,
0000
0000
0000
0000
,
0000
0000
0000
0000
,
0000
0000
0000
0000
,
1000
0000
0000
0000
,
1000
0000
0000
0000
,
0001
0000
0000
0000
,
0000
0001
0001
0001
,
0000
0000
1000
0000
,
0000
0000
1000
0000
,
0000
0000
0100
0000
,
0000
0000
0100
0000
,
0000
0000
1000
0000
,
0000
0000
1000
0000
,
0000
0000
0010
0000
,
0000
0000
0010
0000
,
0200
0000
0000
0000
,
0300
0000
0000
0000
,
0002
0000
0000
0000
,
0003
0000
0000
0000
,
0000
0000
0001
0000
,
0000
0000
0001
0000
,
0000
0000
0100
0000
,
0000
0000
0100
0000
,
0000
0000
0001
0000
,
0000
0000
0001
0000
,
0000
0000
0010
0000
,
0000
0000
0010
0000
,
0100
0000
0100
0000
,
0100
0000
0100
0000
,
0100
0000
0100
0000
,
0100
0000
0000
0110
,
0000
0000
1000
0000
,
0000
0000
1000
0000
,
0000
0000
0001
0000
,
0000
0000
0001
0000
,
0000
0000
0010
0000
,
0000
0000
0010
0000
,
0000
0000
0100
0000
,
0000
0100
0100
0100
,
0000
0000
0010
0000
,
0000
0000
0010
0000
,
0000
0000
0001
0000
,
0000
0000
0001
0000
,
0000
0000
1000
0000
,
0000
0000
1000
0000
,
0000
0000
0100
0000
,
0000
0100
0100
0100
,
0020
0000
0000
0000
,
0030
0000
0000
0000
,
0020
0000
0000
0000
,
0030
0000
0000
0000
,
0002
0000
0000
0000
,
0003
0000
0000
0000
,
0002
0000
0000
0000
,
0003
0000
0000
0000
,
0200
0000
0000
0000
,
0300
0000
0000
0000
,
0200
0000
0000
0000
,
0300
0000
0000
0000
,
2000
0000
0000
0000
,
3000
0000
0000
0000
,
2000
0000
0000
0000
,
3000
0000
0000
0000
;
