#TITLE:Cloudsdale EVOLVED (Super Eurobeat Mix);
#SUBTITLE:;
#ARTIST:Delta Brony;
#TITLETRANSLIT:;
#SUBTITLETRANSLIT:;
#ARTISTTRANSLIT:;
#GENRE:Eurobeat;
#CREDIT:;
#BANNER:Cloudsdale EVOLVED (Super Eurobeat Mix).png;
#BACKGROUND:Cloudsdale EVOLVED (Super Eurobeat Mix)-bg.png;
#LYRICSPATH:;
#CDTITLE:;
#MUSIC:Cloudsdale EVOLVED (Super Eurobeat Mix).mp3;
#OFFSET:-13.873073;
#SAMPLESTART:30.227140;
#SAMPLELENGTH:15.000000;
#SELECTABLE:YES;
#BPMS:0.000000=175.000000
;
#STOPS:
;
#BGCHANGES:;
#KEYSOUNDS:;
#ATTACKS:;

//---------------dance-single - ----------------
#NOTES:
     dance-single:
     :
     Beginner:
     4:
     0.183699,0.187671,0.034754,0.000000,0.000000,144.000000,4.000000,0.000000,0.000000,0.000000,0.000000,0.183699,0.187671,0.034754,0.000000,0.000000,144.000000,4.000000,0.000000,0.000000,0.000000,0.000000:
0010
0000
0000
0000
,
0100
0000
0000
0000
,
0001
0000
0000
0000
,
1000
0000
0000
0000
,
1001
0000
0000
0000
,
0100
0000
0000
0000
,
0010
0000
0000
0000
,
0001
0000
0000
0000
,
1001
0000
0000
0000
,
1000
0000
0000
0000
,
0001
0000
1000
0000
,
0001
0001
0001
0000
,
1000
0000
0100
0000
,
0010
0000
0001
0000
,
0100
0000
0010
0000
,
0100
0000
0001
0000
,
1000
0000
0010
0000
,
0100
0000
0001
0000
,
0010
0000
0100
0000
,
1000
0000
0001
0000
,
1000
0000
0100
0000
,
0010
0000
0001
0000
,
0100
0100
0100
0000
,
0010
0010
0010
0000
,
1000
0000
0100
0000
,
1000
0000
0001
0000
,
0100
0100
0100
0000
,
0010
0010
0010
0000
,
1000
0000
0010
0000
,
0100
0000
0001
0000
,
1000
1000
1000
1000
,
1000
0000
1000
0000
,
0100
0000
0010
0000
,
0100
0000
1000
0000
,
0001
0001
0001
0000
,
1000
0000
0001
0000
,
1001
0000
0100
0000
,
0100
0000
0100
0000
,
0100
0000
0100
0000
,
0100
0100
0100
0000
,
0010
0000
0001
0000
,
0010
0000
0001
0000
,
1000
0000
0100
0000
,
1000
0000
0010
0000
,
0100
0000
0001
0000
,
1000
0000
0001
0000
,
0100
0000
0010
0000
,
1000
0000
0001
0000
,
0010
0000
0100
0000
,
0010
0000
0100
0000
,
1000
0000
1000
0000
,
0001
0000
0001
0000
,
0100
0000
0010
0000
,
0100
0000
0010
0000
,
1000
0000
1000
0000
,
0001
0000
0001
0000
,
1000
0000
0100
0000
,
0010
0000
0001
0000
,
0100
0000
0010
0000
,
0100
0000
0001
0000
,
1000
0000
0010
0000
,
0100
0000
0001
0000
,
0010
0000
0100
0000
,
1000
0000
0001
0000
,
1000
0000
0100
0000
,
0010
0000
0001
0000
,
0100
0000
0010
0000
,
0100
0000
0001
0000
,
0010
0000
0100
0000
,
1000
0000
0001
0000
,
0100
0000
0010
0000
,
0100
0000
0001
0000
,
1001
0000
0000
0000
;

//---------------dance-single - ----------------
#NOTES:
     dance-single:
     :
     Easy:
     7:
     0.304097,0.250228,0.104262,0.000000,0.000000,233.000000,12.000000,0.000000,0.000000,0.000000,0.000000,0.304097,0.250228,0.104262,0.000000,0.000000,233.000000,12.000000,0.000000,0.000000,0.000000,0.000000:
1000
0000
0001
0000
,
1000
0000
0001
0000
,
0100
0000
0010
0000
,
0100
0000
0010
0000
,
1001
0000
0100
0000
,
0010
0000
0100
0000
,
1000
0000
0001
0000
,
1000
0000
0010
0000
,
0110
0000
0110
0000
,
1001
0000
1001
0000
,
0001
1000
0001
1000
,
0001
0001
1001
0000
,
1000
0100
0010
0100
,
1000
0001
0100
0000
,
0010
1000
0100
0000
,
0010
0001
0100
0000
,
0010
0100
0001
1000
,
0100
0010
0001
0000
,
0010
0100
1000
0000
,
0010
0100
0001
0000
,
1000
0000
0100
0000
,
1000
0100
1000
1000
,
0001
0100
0010
0000
,
0100
0001
1000
0000
,
0100
0000
0010
0100
,
1000
1000
0001
0000
,
0100
0010
1000
0000
,
0010
0100
0001
0000
,
0010
0000
0100
0100
,
0001
0100
1000
0000
,
0010
0100
1000
0100
,
0001
0010
0100
1000
,
0001
0000
0100
0010
,
0100
0100
0001
1000
,
0100
0010
0001
0100
,
0010
1000
0001
0000
,
1001
0000
1001
0000
,
0110
0000
0110
0000
,
1000
0001
1000
0001
,
1000
1000
1001
0000
,
1000
0010
0001
0010
,
1000
0100
0001
0100
,
1000
0010
0100
0010
,
0001
0010
0100
0010
,
1000
0100
0001
0100
,
1000
0010
0001
0010
,
1000
0100
0010
0100
,
0001
0100
0010
0100
,
1000
0010
1000
0100
,
0010
0100
1000
0010
,
1000
0010
0001
0010
,
0100
0010
1000
0010
,
0100
0001
0010
0001
,
1000
0001
0100
0001
,
0010
0001
0010
1000
,
0010
0100
1000
0001
,
1000
0100
0010
0100
,
1000
0001
0100
0000
,
0010
1000
0100
0000
,
0010
0001
0100
0000
,
0010
0100
0001
1000
,
0100
0010
0001
0000
,
0010
0100
1000
0000
,
0010
0100
0001
0000
,
0010
0100
1000
0001
,
0100
0010
1000
0000
,
0010
0001
1000
0000
,
0100
0001
0010
0000
,
0100
1000
0001
0010
,
0100
1000
0010
0000
,
0001
1000
0100
0000
,
0010
1000
0001
0000
,
1001
0000
0000
0000
;

//---------------dance-single - ----------------
#NOTES:
     dance-single:
     :
     Medium:
     11:
     0.490278,0.437899,0.095573,0.000000,0.165081,384.000000,11.000000,0.000000,0.000000,0.000000,0.000000,0.490278,0.437899,0.095573,0.000000,0.165081,384.000000,11.000000,0.000000,0.000000,0.000000,0.000000:
1001
0010
0010
0010
,
0100
0100
1000
1000
,
0001
0010
1000
0100
,
0001
0100
0010
0001
,
1001
0010
0010
0010
,
0100
0100
0001
0001
,
0010
1000
0010
0001
,
0100
1000
0100
0001
,
1001
0000
0110
0000
,
1100
0000
0011
0000
,
1000
0100
0010
0001
,
1000
0001
1000
0001
1000
0000
0000
0000
,
0001
0000
0100
0010
0000
0010
0100
0001
,
0000
0000
1000
0000
0100
0000
0000
0010
0000
0000
0100
0000
1000
0000
0001
0000
,
0100
0010
1000
0001
0000
0001
1000
0000
,
0100
0010
0001
1000
0000
1000
0010
0000
,
0100
0001
0010
0100
0000
0100
1000
0001
,
0000
0000
0001
0000
0100
0000
0000
0010
0000
0000
0100
0000
0001
0000
0000
0000
,
1000
0100
0010
0001
0000
0001
0010
0000
,
0100
1000
0001
0100
0000
0100
0010
0000
,
1000
0000
0100
0000
1000
0001
0100
0000
,
0010
0000
1000
0000
0100
1000
0001
0000
,
0010
0000
0100
0000
0010
0001
1000
0000
,
0010
0000
0100
0000
0001
0010
0001
0000
,
1000
0000
0100
0000
1000
0010
0100
0000
,
0001
0000
0010
0000
0001
0100
0010
0000
,
1000
0000
0001
0000
1000
0100
1000
0000
,
0001
0000
0100
0000
0010
1000
0010
0000
,
1000
0000
0010
1000
0000
0010
1000
0000
,
0001
0000
0010
0100
0000
0010
0100
0000
,
1000
0010
0001
1000
0100
0001
0010
0000
,
0100
1000
0010
0100
0001
0010
0100
0000
,
1000
0000
0001
0100
0000
0010
1000
0000
,
0001
0000
0010
0100
0000
1000
0001
0000
,
0100
1000
0001
0010
1000
0001
0010
0000
,
0100
1000
0010
0100
0010
1000
0001
0000
,
0011
0000
1100
0000
,
1001
0000
0110
0000
,
1000
0100
0010
0001
,
1000
0001
1000
0001
1000
0000
0000
0000
,
0001
0000
0000
0100
0000
0000
0010
0000
0000
0100
0000
0000
0001
0000
1000
0000
,
0100
0000
0000
0010
0000
0000
0001
0000
0000
0010
0000
0000
0100
0000
1000
0000
,
0010
0000
0000
0100
0000
0000
1000
0000
0000
0100
0000
0000
0001
0000
0010
0000
,
0100
0000
0000
1000
0000
0000
0001
0000
0000
1000
0000
0000
0100
0000
0010
0000
,
0001
0000
0000
0100
0000
0000
0010
0000
0000
0100
0000
0000
0001
0000
1000
0000
,
0100
0000
0000
0010
0000
0000
0001
0000
0000
0010
0000
0000
0100
0000
1000
0000
,
0010
0000
0000
0100
0000
0000
0001
0000
0000
0100
0000
0000
1000
0000
0100
0000
,
0010
0000
0000
1000
0000
0000
0001
0000
0000
0010
0000
0000
0100
0000
1000
0000
,
0100
0000
0000
0010
0000
0000
0100
0000
0000
1000
0000
0000
0001
0000
0000
0000
,
0100
0000
0000
0010
0000
0000
0100
0000
0000
0001
0000
0000
1000
0000
0100
0000
,
0010
0000
0000
0001
0000
0000
0010
0000
0000
0100
0000
0000
1000
0000
0001
0000
,
0100
0000
0000
0010
0000
0000
0100
0000
0000
0001
0000
0000
0010
0000
0100
0000
,
1000
0000
0000
0100
0000
0000
0010
0000
0000
0001
0000
0000
1000
0000
0000
0000
,
0010
0000
0000
0100
0000
0000
0001
0000
0000
0100
0000
0000
0010
0000
1000
0000
,
0001
0000
0000
0010
0000
0000
0100
0000
0000
1000
0000
0000
0001
0000
0100
0000
,
0010
0000
0000
0100
0000
0000
0001
0000
0000
1000
0000
0000
0001
0000
0100
0000
,
0001
0000
0100
0010
0000
0010
0100
0001
,
0000
0000
1000
0000
0100
0000
0000
0010
0000
0000
0100
0000
1000
0000
0001
0000
,
0100
0010
1000
0001
0000
0001
1000
0000
,
0100
0010
0001
1000
0000
1000
0010
0000
,
0100
0001
0010
0100
0000
0100
1000
0001
,
0000
0000
0001
0000
0100
0000
0000
0010
0000
0000
0100
0000
0001
0000
0000
0000
,
1000
0100
0010
0001
0000
0001
0010
0000
,
0100
1000
0001
0100
0000
0100
0010
0000
,
1000
0000
0100
1000
0000
0001
0100
0001
,
0000
0000
1000
0000
0100
0000
0000
1000
0000
0000
0100
0000
0010
0000
0000
0000
,
0001
0010
0100
1000
0000
1000
0001
0000
,
0100
0010
1000
0100
0000
0100
1000
0000
,
0010
0100
0010
1000
0000
0001
0010
0100
,
0000
0000
0100
0000
1000
0000
0000
0001
0000
0000
0100
0000
0010
0000
0000
0000
,
0100
0001
0010
0100
0000
0100
1000
0000
,
0001
0100
0010
1000
0000
1000
0001
0000
,
1001
0000
0000
0000
;

//---------------dance-single - ----------------
#NOTES:
     dance-single:
     :
     Hard:
     15:
     0.844023,0.761110,0.104262,0.104262,0.773274,656.000000,12.000000,12.000000,0.000000,0.000000,0.000000,0.844023,0.761110,0.104262,0.104262,0.773274,656.000000,12.000000,12.000000,0.000000,0.000000,0.000000:
1000
0000
0010
1000
0000
1000
0001
0000
,
0011
0000
0010
0100
0000
0100
1000
0000
,
1000
0100
0001
1000
0010
0001
1000
0010
,
1000
0010
0001
1000
0100
0001
1000
0100
,
0010
0000
0001
1000
0000
1000
0010
0000
,
0100
0000
0001
1000
0000
1000
0100
0000
,
0010
0001
0100
0010
1000
0100
1000
0010
,
0100
0001
0010
0100
1000
0001
0100
0000
,
0210
0310
0120
0130
,
0201
0301
1002
1003
,
0100
0001
0100
1000
0010
0001
0010
1000
,
0001
1000
0001
1000
0001
1000
0001
1000
0002
0000
0000
0000
0000
0000
0000
0000
,
1003
0000
0001
0100
0001
0000
0100
0000
0010
0000
1000
0000
0010
0000
0100
0000
,
0000
0000
0001
0100
0001
0000
1000
0100
0000
0010
0001
0000
0100
0000
0010
0000
,
1000
0100
1000
0001
0100
0001
0010
0000
0000
0000
0100
0000
1000
0000
0010
0000
,
0100
0001
0100
0010
1000
0010
0100
0000
0000
0000
0001
0000
1000
0000
0100
0000
,
0010
0000
0001
0010
0001
0000
0100
0000
0000
0000
0010
0000
1000
0000
0100
0000
,
0000
0000
1000
0100
1000
0000
0001
0100
0000
0010
1000
0000
0001
0000
0010
0000
,
0100
1000
0100
0010
0001
0010
0100
0000
0000
0000
0001
0000
0100
0000
1000
0000
,
0001
0010
0001
1000
0100
1000
0001
0000
0000
0000
0100
0000
0010
0000
1000
0000
,
0001
0100
1000
0100
0010
1000
0001
0010
,
0100
1000
0001
0010
1000
0010
0001
1000
,
0001
0100
0010
1000
0100
0010
0001
0000
0010
0000
0100
0000
1000
0000
0001
0000
,
0100
0010
1000
0001
0010
0100
1000
0000
0000
0100
0010
0000
0001
0000
1000
0000
,
0010
1000
0100
0010
0100
1000
0010
0100
,
0001
0010
1000
0010
0001
1000
0010
0100
,
0001
0010
0001
1000
0100
1000
0010
0000
0100
0000
0001
0000
0010
0000
0100
0000
,
1000
0010
1000
0001
0100
0001
1000
0000
0000
0010
1000
0000
0001
0000
0010
0000
,
0100
0000
1000
0001
1000
0000
0010
0000
0100
0000
0001
0000
1000
0000
0100
0000
,
0010
0000
0001
1000
0001
0000
0100
0000
0010
0000
0100
0000
0001
0000
1000
0000
,
0001
0100
0001
0100
0001
0000
1000
0100
1000
0100
1000
0000
0010
0000
0100
0000
,
0001
0010
0001
0010
0001
0000
1000
0010
1000
0010
1000
0000
0010
0000
0100
0000
,
0001
0000
1000
0010
1000
0000
0100
0000
0010
0001
0010
0000
0100
0000
1000
0000
,
0001
0000
0100
0010
0100
0000
0010
0000
1000
0100
1000
0000
0001
0000
0010
0000
,
0100
1000
0100
0010
0001
0010
0100
0000
0000
0000
1000
0000
0010
0000
0100
0000
,
0001
0010
0001
1000
0100
1000
0010
0000
0000
0100
0001
0000
1000
0000
0100
0000
,
0210
0310
0120
0130
,
1200
1300
2001
3001
,
0100
1000
0100
0001
0010
1000
0010
0001
,
1000
0001
1000
0001
1000
0001
1000
0001
2000
0000
0000
0000
0000
0000
0000
0000
,
3001
0000
0001
0100
0000
0100
0010
0000
0010
1000
0000
1000
0100
0010
0100
0000
,
1000
0000
1000
0010
0000
0010
0100
0000
0100
0001
0000
0001
0010
0100
0010
0000
,
0001
0000
0010
0100
0000
1000
0010
0000
0100
0001
0000
1000
0100
0010
0100
0000
,
1000
0000
0010
0100
0000
0010
0001
0000
0100
1000
0000
0010
0100
0001
0100
0000
,
0010
0000
0010
1000
0000
1000
0001
0000
0001
0010
0000
0010
0100
1000
0100
0000
,
0010
0000
0010
0001
0000
0001
0100
0000
0100
0010
0000
0010
1000
0001
1000
0000
,
0001
0000
0010
0100
0000
1000
0010
0000
0100
0001
0000
0010
0100
1000
0100
0000
,
0010
0000
0001
0100
0000
0010
1000
0000
0100
0010
0000
0001
0100
0010
0100
0000
,
0001
0000
0100
0001
0000
0100
0001
0000
1000
0100
0000
1000
0100
1000
0100
0000
,
1000
0000
0010
1000
0000
0010
1000
0000
0001
0010
0000
0001
0010
0001
0010
0000
,
0100
0000
1000
0010
0000
0100
0001
0000
1000
0100
0000
0010
0001
0010
0001
0000
,
1000
0000
0100
1000
0000
0010
0100
0000
0001
0010
0000
0100
1000
0100
1000
0000
,
0010
0000
1000
0010
0000
1000
0010
0000
0100
0001
0000
0100
0001
0100
0001
0000
,
1000
0000
0100
1000
0000
0100
1000
0000
0001
0010
0000
0001
0010
0001
0010
0000
,
0100
0000
1000
0010
0000
0100
0001
0000
0010
0100
0000
1000
0001
1000
0001
0000
,
0100
0000
0010
1000
0000
0100
0010
0000
0001
1000
0000
0010
0100
0001
0100
0001
,
1000
0000
0001
0100
0001
0000
0100
0000
0010
0000
1000
0000
0010
0000
0100
0000
,
0000
0000
0001
0100
0001
0000
1000
0100
0000
0010
0001
0000
0100
0000
0010
0000
,
1000
0100
1000
0001
0100
0001
0010
0000
0000
0000
0100
0000
1000
0000
0010
0000
,
0100
0001
0100
0010
1000
0010
0100
0000
0000
0000
0001
0000
1000
0000
0100
0000
,
0010
0000
0001
0010
0001
0000
0100
0000
0000
0000
0010
0000
1000
0000
0100
0000
,
0000
0000
1000
0100
1000
0000
0001
0100
0000
0010
1000
0000
0001
0000
0010
0000
,
0100
1000
0100
0010
0001
0010
0100
0000
0000
0000
0001
0000
0100
0000
1000
0000
,
0001
0010
0001
1000
0100
1000
0001
0000
0000
0000
0100
0000
0010
0000
1000
0000
,
0001
0000
0010
0100
0010
0000
0001
0000
0000
0000
1000
0000
0010
0000
0100
0000
,
0000
0000
0001
0000
0010
0000
0100
1000
0000
0001
0100
0000
0010
0000
1000
0000
,
0001
0010
0001
0010
0001
0000
1000
0000
0000
0000
0010
0000
0100
0000
0001
0000
,
1000
0100
1000
0100
1000
0000
0010
0000
0000
0000
0100
0000
0001
0000
0010
0000
,
0100
0000
1000
0100
1000
0000
0001
0000
0000
0000
0100
0000
0010
0000
0100
0000
,
0000
0000
0001
0000
0010
0000
0100
1000
0000
0001
0100
0000
0010
0000
1000
0000
,
0001
0100
0001
0100
0001
0000
0010
0000
0000
0000
0100
0000
0001
0000
0100
0000
,
1000
0010
1000
0010
1000
0000
0010
0000
0000
0000
1000
0000
1001
0000
0110
0000
,
2002
0000
0000
0000
,
3003
0000
0000
0000
;
