#TITLE:Cherry Tree (feat. Emily Jones);
#SUBTITLE:;
#ARTIST:Sim Gretina;
#TITLETRANSLIT:;
#SUBTITLETRANSLIT:;
#ARTISTTRANSLIT:;
#GENRE:Electro-Acoustic;
#CREDIT:;
#BANNER:Cherry Tree (feat. Emily Jones).png;
#BACKGROUND:Cherry Tree (feat. Emily Jones)-bg.png;
#LYRICSPATH:;
#CDTITLE:;
#MUSIC:Cherry Tree (feat. Emily Jones).mp3;
#OFFSET:-0.154617;
#SAMPLESTART:24.079998;
#SAMPLELENGTH:15.000000;
#SELECTABLE:YES;
#BPMS:0.000000=160.000000
;
#STOPS:
;
#BGCHANGES:;
#KEYSOUNDS:;
#ATTACKS:;

//---------------dance-single - ----------------
#NOTES:
     dance-single:
     :
     Easy:
     6:
     0.295112,0.394997,0.121072,0.370782,0.000000,208.000000,16.000000,49.000000,0.000000,0.000000,0.000000,0.295112,0.394997,0.121072,0.370782,0.000000,208.000000,16.000000,49.000000,0.000000,0.000000,0.000000:
0000
0000
0000
0000
,
0000
0000
0000
0000
,
0000
0000
0000
0000
,
0000
0000
0000
0000
,
0000
0000
0000
0000
,
0000
0000
0000
0000
,
0001
0000
0001
0000
,
0001
0000
0001
0000
,
1000
0100
1000
0100
,
0000
1000
0100
1000
,
0001
0100
0001
0100
,
0000
0001
0100
0001
,
1000
0001
0100
0001
,
0000
0100
0001
0100
,
0001
1000
0010
1000
,
0000
0010
1000
0010
,
0100
0100
0202
0000
,
0000
0303
0001
1000
,
0100
0000
0000
0010
0000
0010
0000
0220
,
0000
0000
0330
0100
,
1000
1000
1100
0000
,
1000
0001
0100
0010
,
0220
0000
0330
0010
,
1000
0001
1000
0001
,
0010
0000
0000
0010
0000
0000
0000
0000
,
0010
0000
0000
0010
0000
0000
0220
0000
,
0000
0000
0330
0100
,
1000
0000
0001
1000
,
0001
0000
0000
0001
0000
0000
0000
0000
,
0001
0000
0000
0001
0000
0000
2002
0000
,
0000
0000
0000
3003
,
2200
0000
0000
3300
,
0100
0010
0000
0010
,
0000
0001
0010
0001
,
1000
0000
0000
0010
,
1000
0000
0000
0010
0000
0000
0100
0000
,
0001
0000
0000
1000
,
0001
0001
0000
0001
,
1000
0000
1100
0000
,
0100
0000
0110
0000
,
2100
0000
0001
0000
,
0100
3001
0000
0001
,
0102
0000
1000
1000
,
0100
0000
0000
1000
0003
0000
1000
0000
,
2010
0000
0001
0001
,
3010
0010
0000
0001
,
0012
0000
1000
0000
,
1000
0000
1003
0000
,
0001
0100
0001
0000
,
1000
0000
1000
0100
,
0010
0000
0000
0100
0000
0100
0000
0220
,
0000
0000
0330
0100
,
1000
0001
1000
0000
,
0001
0100
0001
0010
,
0100
0000
0000
0000
,
0000
0000
1000
1000
,
0001
0000
0000
0001
0000
0000
0000
0000
,
0001
0000
0000
0001
0000
0000
0202
0000
,
0000
0000
0303
0100
,
0010
0000
1000
0010
,
1000
0000
0000
1000
0000
0000
0000
0000
,
1000
0000
0000
1000
0000
0000
2002
0000
,
0000
0000
0000
0000
,
3003
1000
0100
1000
,
0001
0100
0010
1000
,
0001
0010
0100
1000
,
0010
1000
0001
0010
,
0010
0001
1000
0010
,
0100
0001
1000
0100
,
0100
1000
0001
0100
,
0001
0010
0100
1000
,
0001
0100
0010
1000
,
0002
0023
0000
0032
,
0000
2003
3002
2003
,
0000
3000
0000
0020
,
2030
0000
0000
3002
0000
0000
2003
0000
,
0000
3000
0000
0200
,
0320
0032
0003
0002
,
0000
0000
0000
0000
,
0003
0000
0000
0000
,
0000
0000
2000
0000
,
3020
0230
0000
0320
,
0000
0030
0000
2000
,
3002
0000
0000
0023
0000
0000
0032
0000
,
0000
0000
2003
3020
,
2030
3002
0000
0023
,
0000
0000
0000
0000
,
0030
0000
0000
0000
;

//---------------dance-single - ----------------
#NOTES:
     dance-single:
     :
     Beginner:
     3:
     0.127558,0.197498,0.015134,0.098371,0.000000,103.000000,2.000000,13.000000,0.000000,0.000000,0.000000,0.127558,0.197498,0.015134,0.098371,0.000000,103.000000,2.000000,13.000000,0.000000,0.000000,0.000000:
0000
0000
0000
0000
,
0000
0000
0000
0000
,
0000
0000
0000
0000
,
0000
0000
0000
0000
,
0000
0000
0000
0000
,
0000
0000
0000
0000
,
0000
0000
0000
0000
,
0000
0000
0000
0000
,
0001
0000
0001
0000
,
0001
0000
0000
0000
,
1000
0000
1000
0000
,
1000
0000
0000
0000
,
0010
0000
0010
0000
,
0010
0000
0000
0000
,
0100
0000
0100
0000
,
0200
0000
0000
0000
,
0310
0000
0020
0000
,
0000
0000
1030
0000
,
1000
0000
0001
0000
,
0001
0000
0000
0000
,
0010
0000
0010
0000
,
0100
0000
0100
0000
,
0010
0000
0000
0000
,
1001
0000
0000
0000
,
1000
0000
0000
0000
,
1000
0000
0000
0010
,
0000
0000
0001
0000
,
0001
0000
0000
0000
,
1000
0000
1000
0000
,
0010
0000
0010
0000
,
0200
0000
0000
0000
,
0300
0000
0000
0000
,
0001
0000
0000
1000
,
0000
0000
0001
0000
,
0001
0000
0000
0000
,
0010
0000
0000
0010
,
0000
0000
0000
0000
,
0100
0000
0000
0100
,
0000
0000
0000
0000
,
0000
0000
0000
0000
,
1000
0000
0010
0000
,
1000
0000
0000
0001
,
0000
0000
0000
0000
,
0010
0000
0000
0010
,
0000
0000
0010
0000
,
0100
0000
0000
0100
,
0000
0000
0000
0000
,
0000
0000
0000
0000
,
1000
0000
1000
0000
,
0000
0000
0010
0000
,
1000
0000
0001
0000
,
1000
0000
0000
0000
,
0001
0000
0010
0000
,
0001
0000
0100
0000
,
0010
0000
0000
0000
,
0000
0000
0000
0000
,
1000
0000
0000
0000
,
1000
0000
0000
0100
,
0000
0000
0000
0000
,
0001
0000
0000
0000
,
1000
0000
1000
0000
,
0100
0000
0100
0000
,
0001
0000
0000
0000
,
0000
0000
0000
0000
,
0110
0000
0100
0000
,
0100
0000
0010
0000
,
0001
0000
1000
0000
,
1000
0000
0001
0000
,
0100
0000
0010
0000
,
0010
0000
0100
0000
,
0001
0000
1000
0000
,
1000
0000
0001
0000
,
2000
0000
0000
3200
,
0000
0000
2300
0000
,
3010
0000
0000
0000
,
2000
0000
0000
3001
,
0000
0000
0000
0000
,
0002
0000
0000
0013
,
0000
0000
0000
0000
,
0000
0000
0000
0000
,
0000
0000
0020
0000
,
0230
0000
0000
1300
,
0000
0000
0000
0000
,
2000
0000
0000
3001
,
0000
0000
0001
0000
,
0002
0000
0000
0203
,
0000
0000
0000
0000
,
0300
0000
0000
0000
;
