#VERSION:0.83;
#TITLE:Changeling;
#SUBTITLE:;
#ARTIST:All Levels at Once;
#TITLETRANSLIT:;
#SUBTITLETRANSLIT:;
#ARTISTTRANSLIT:;
#GENRE:Electro;
#ORIGIN:;
#CREDIT:;
#BANNER:Changeling.png;
#BACKGROUND:Changeling-bg.png;
#PREVIEWVID:;
#JACKET:Changeling-jacket.png;
#CDIMAGE:;
#DISCIMAGE:;
#LYRICSPATH:;
#CDTITLE:;
#MUSIC:Changeling.mp3;
#OFFSET:-0.141889;
#SAMPLESTART:53.639999;
#SAMPLELENGTH:15.000000;
#SELECTABLE:YES;
#BPMS:0.000=130.000,
204.000=65.000;
#STOPS:;
#DELAYS:;
#WARPS:;
#TIMESIGNATURES:0.000=4=4;
#TICKCOUNTS:0.000=4;
#COMBOS:0.000=1;
#SPEEDS:0.000=1.000=0.000=0;
#SCROLLS:0.000=1.000;
#FAKES:;
#LABELS:0.000=Song Start;
#BGCHANGES:-0.500=Changeling.avi=1.000=0=0=0=StretchNoLoop====,
99999=-nosongbg-=1.000=0=0=0 // don't automatically add -songbackground-
;
#KEYSOUNDS:;
#ATTACKS:
;

//---------------dance-single - ----------------
#NOTEDATA:;
#CHARTNAME:;
#STEPSTYPE:dance-single;
#DESCRIPTION:;
#CHARTSTYLE:;
#DIFFICULTY:Easy;
#METER:5;
#RADARVALUES:0.225759,0.324711,0.188694,0.172970,0.000000,201.000000,177.000000,24.000000,22.000000,0.000000,0.000000,0.000000,0.000000,0.000000,0.225759,0.324711,0.188694,0.172970,0.000000,201.000000,177.000000,24.000000,22.000000,0.000000,0.000000,0.000000,0.000000,0.000000;
#CREDIT:;
#NOTES:
0000
0000
0000
0000
,
0000
0000
0000
0000
,
0000
0000
0000
0000
,
0000
0000
0000
0000
,
0010
0000
0001
0010
,
0200
1300
0100
1000
,
0001
1000
0010
0100
,
0010
0000
0000
0000
,
2002
0000
0000
3003
,
1000
0000
0100
1000
,
0010
0100
0001
0010
,
0010
0100
0010
0000
,
0001
0010
0100
1000
,
0001
0000
0100
0010
,
1000
0001
1000
0100
,
0010
0100
1000
0001
,
0100
0001
0100
0001
,
0010
0100
0000
0000
,
2000
0000
3001
0000
,
0002
0000
0013
0000
,
0020
0000
0130
0000
,
0200
0000
1300
0000
,
2000
0000
3010
0000
,
0020
0001
0031
0000
,
0002
0100
0103
0000
,
1001
0000
0120
0000
,
1030
1000
1000
0000
,
1001
1001
0001
0010
,
0110
0000
0200
0000
,
1300
0100
1000
0100
,
1000
0010
1000
0010
,
2000
0001
0010
0100
,
3001
1000
0001
0000
,
0020
0000
0130
0010
,
0002
1003
0001
1000
,
0010
1000
0001
0100
,
0101
1001
1100
0110
,
0020
0000
0000
0000
,
0000
0000
0000
0130
,
0010
0000
0011
0000
,
0001
0000
0101
0000
,
0100
0000
0110
0000
,
0010
0000
1010
0000
,
1000
1001
0001
1001
,
1000
1100
0100
1100
,
0100
0110
0010
0110
,
0010
0011
0001
0011
,
0001
0101
0200
0310
,
0010
0110
0020
1030
,
0010
1000
0001
0010
,
0200
0000
0000
0000
,
1300
1000
1000
1000
,
0002
0013
0001
0001
,
0100
0000
0100
0000
0020
0130
0010
1000
,
0001
0010
0100
1000
0001
0000
0000
0000
,
1000
1000
0001
0001
,
0010
0010
0100
0100
,
1000
0000
1000
0000
0010
0000
0010
0100
,
0001
0010
0100
1000
0002
0000
0000
0000
,
0003
0000
0000
0000
;

//---------------dance-single - ----------------
#NOTEDATA:;
#CHARTNAME:;
#STEPSTYPE:dance-single;
#DESCRIPTION:;
#CHARTSTYLE:;
#DIFFICULTY:Hard;
#METER:10;
#RADARVALUES:0.448148,0.742197,0.377388,0.133658,0.094347,399.000000,351.000000,48.000000,17.000000,0.000000,0.000000,0.000000,0.000000,0.000000,0.448148,0.742197,0.377388,0.133658,0.094347,399.000000,351.000000,48.000000,17.000000,0.000000,0.000000,0.000000,0.000000,0.000000;
#CREDIT:;
#NOTES:
0000
0000
0000
0000
,
0000
0000
0000
0000
,
0000
0000
0000
0000
,
0000
0000
0000
0000
,
0102
1000
0010
0013
,
0021
0100
1000
0001
1030
0000
0010
0000
,
0110
0100
1100
1001
,
0001
0000
0100
0000
0010
0100
0010
0000
,
2002
0000
0000
3003
,
1000
0100
0010
0000
0100
1000
0001
0100
,
0001
0000
0010
0000
0100
0000
0010
0001
,
0100
0000
0010
0010
1000
0000
0001
0010
,
0100
0001
0100
1000
0000
0010
1000
0001
,
0100
0000
0001
1000
0100
1000
0010
0100
,
0010
0000
0100
0000
0001
0000
1000
0100
,
0010
0100
1000
0001
0200
0000
0301
0000
,
1001
0000
0001
0001
0010
0100
0010
0001
,
0100
0000
0110
0000
0010
1000
0010
0000
,
1000
0001
1000
0001
0010
0100
0000
0010
,
0001
0100
0001
0100
0010
0001
0000
0010
,
1000
0010
1000
0010
0100
0001
0100
0010
,
0100
0001
0100
0001
0010
0100
0000
0010
,
0001
1000
0001
1000
0010
0001
0000
0010
,
0100
0001
0100
0000
0110
0000
0010
1000
,
0001
0010
0001
0100
0001
0001
1000
0001
,
0010
0000
0000
0000
0110
0000
0000
0100
2000
0000
0000
0000
3001
0000
1000
0000
,
0010
0010
0100
0010
1000
0100
0001
0000
,
0100
0100
0010
0010
0001
1000
0010
0100
,
0000
0110
0000
0000
0020
0000
0000
0000
,
1030
0110
0001
0110
,
0010
1001
0100
1001
,
0002
0013
1100
0000
1000
0000
0101
0000
,
0011
0110
1100
1001
,
0001
0100
0001
0100
0010
0100
1000
0100
,
0001
0010
1000
0010
0100
0000
1000
0000
,
1100
0101
0011
1010
,
1001
0000
1000
0001
1000
0000
0010
0000
1000
0000
0100
0000
0010
0000
0100
0000
,
0220
0000
0000
0000
,
0000
0000
0000
0000
0330
0100
1001
1000
,
0010
1000
0001
0010
0100
0010
0001
0100
,
0010
0000
1000
0000
1001
0000
0001
0020
,
0000
0031
0010
0100
1000
0000
0001
1000
,
0010
1000
0010
0100
0000
0001
0100
0010
,
1000
0000
1001
0001
0010
0100
0110
0000
,
0010
0000
0011
0001
0100
0010
1010
0000
,
1000
0000
1100
1000
0001
0100
0101
0100
,
0001
0010
0001
0100
0000
0010
0100
0010
,
1000
0001
1000
0001
0010
0100
0010
0100
,
1000
0000
0100
0000
1000
0000
0100
0000
0010
0000
0001
0010
0001
1000
0000
0000
,
1000
1000
0001
1000
0010
0010
0100
0001
,
0000
2002
0000
0000
0000
0000
3003
0000
,
1000
1000
0010
0100
0110
1000
0001
0010
,
0200
0310
0100
0000
1000
0000
0001
0000
1001
0000
0001
0000
0100
0000
0000
0000
,
0020
0000
0000
0000
1000
0000
0100
0000
0001
0100
1000
0100
0031
0000
0010
0000
,
1000
0000
0100
0000
0001
0000
0100
0000
0110
0000
0010
0001
0010
0000
0001
0000
,
0100
0000
0010
0100
0001
1000
0100
0010
0110
0100
0000
1000
0010
0100
0001
0000
,
0010
0100
0000
0100
1000
0010
1000
0000
1001
0000
0001
0010
0100
0000
1000
0000
,
0001
0000
0000
0000
1000
0000
0001
1000
0001
0000
0000
0000
0010
0000
0100
0000
0110
0000
0100
0000
1000
0000
0100
0000
1000
0000
0001
0000
0101
0000
0000
0000
,
0110
1010
1001
0011
0220
0000
0000
0000
,
0330
0000
0000
0000
;

//---------------dance-single - ----------------
#NOTEDATA:;
#CHARTNAME:;
#STEPSTYPE:dance-single;
#DESCRIPTION:;
#CHARTSTYLE:;
#DIFFICULTY:Medium;
#METER:7;
#RADARVALUES:0.299889,0.417486,0.110072,0.157245,0.011793,267.000000,253.000000,14.000000,20.000000,0.000000,0.000000,0.000000,0.000000,0.000000,0.299889,0.417486,0.110072,0.157245,0.011793,267.000000,253.000000,14.000000,20.000000,0.000000,0.000000,0.000000,0.000000,0.000000;
#CREDIT:;
#NOTES:
0000
0000
0000
0000
,
0000
0000
0000
0000
,
0000
0000
0000
0000
,
0000
0000
0000
0000
,
0020
0000
0031
0010
,
0001
0100
0001
0100
0001
0000
1000
0000
,
0100
0010
0100
0010
,
0002
0000
1000
1003
,
2002
0000
0000
3003
,
1000
0000
0010
0000
0100
0010
0100
0000
,
0001
0000
0010
0000
0100
0000
0010
0001
,
0010
0000
0001
0100
0001
0000
0100
0000
,
0010
1000
0010
1000
0000
1000
0001
0000
,
0010
0000
0001
0000
0100
0001
0100
0000
,
0010
0000
1000
0000
0100
1000
0100
0000
,
0010
0000
0100
0000
0010
0100
0010
0000
,
0001
0000
0010
0000
0100
0000
1000
0001
,
1000
0010
0100
0010
,
1000
0001
0010
0001
,
0100
0010
1000
0001
,
0010
0100
1000
0001
,
0100
0001
0010
0100
,
0010
0001
0100
0010
,
1000
1000
0010
0000
1000
0000
0001
0001
,
0010
0001
1000
0001
,
0100
0000
0010
0100
0010
0000
1000
0000
,
0001
0010
0100
0000
0010
0100
1000
0000
,
0001
0001
0001
0000
1000
1000
0100
0000
,
0020
0000
0000
0000
,
0130
0010
0001
0011
,
0001
0100
0010
0110
,
0010
1000
0010
0000
1000
0000
1001
0000
,
0001
0010
0100
1100
,
2000
0000
3001
1000
,
0010
1000
0010
1000
0010
0000
0100
0000
,
0101
0001
1001
1000
,
2200
0000
0000
3300
,
0022
0000
0000
0000
,
0000
0000
0033
1001
,
1000
0000
0010
0000
0100
0010
0100
0000
,
0001
0000
0010
0000
0100
0000
0010
0001
,
0000
0010
0001
0000
0100
0000
0010
1000
,
0001
0010
0001
0010
0000
0100
0010
0100
,
0010
0000
0001
0000
1000
0010
1000
0000
,
0001
0000
0010
0000
0100
0000
0010
0100
,
0010
0000
0001
0010
0001
0000
0100
0000
,
0010
0100
0010
0100
0000
0010
1000
0010
,
2000
0000
3002
0000
,
0023
0000
0230
0000
,
1300
0100
1000
0000
0100
0010
0100
0010
,
0000
0001
0000
0000
2000
0000
0000
0000
,
3010
0010
1000
1000
0001
0001
0010
0100
,
0010
0001
0010
0000
0001
0000
0001
0000
0100
0000
0010
0000
0100
0000
0000
0000
,
0020
0000
0000
0000
1030
0000
0010
0000
0100
0010
0001
0010
0100
0000
0001
0000
,
1000
0100
0010
0001
2000
0000
0000
0000
,
3001
0000
1000
0001
1001
0000
0001
0100
,
0020
0000
1030
0010
0110
0000
0100
0001
,
1000
0000
0001
1000
1001
0000
1000
0100
,
0010
0001
1000
0010
0220
0000
0000
0000
,
0330
0000
0000
0000
;

//---------------dance-single - ----------------
#NOTEDATA:;
#CHARTNAME:;
#STEPSTYPE:dance-single;
#DESCRIPTION:;
#CHARTSTYLE:;
#DIFFICULTY:Beginner;
#METER:3;
#RADARVALUES:0.099963,0.160980,0.000000,0.047174,0.000000,89.000000,89.000000,0.000000,6.000000,0.000000,0.000000,0.000000,0.000000,0.000000,0.099963,0.160980,0.000000,0.047174,0.000000,89.000000,89.000000,0.000000,6.000000,0.000000,0.000000,0.000000,0.000000,0.000000;
#CREDIT:;
#NOTES:
0000
0000
0000
0000
,
0000
0000
0000
0000
,
0000
0000
0000
0000
,
0000
0000
0000
0000
,
1000
0000
1000
0000
,
1000
0000
0000
0000
,
0001
0000
0001
0000
,
0001
0000
0000
0000
,
0020
0000
0000
0000
,
0130
0000
0100
0000
,
0100
0000
0000
0000
,
1000
0000
1000
0000
,
1000
0000
0000
0000
,
0001
0000
0001
0000
,
0001
0000
0000
0000
,
0010
0000
0010
0000
,
0010
0000
0000
0000
,
0200
0000
0000
0300
,
1000
0000
0000
0000
,
0200
0000
0000
0300
,
0001
0000
0000
0000
,
0020
0000
0000
0030
,
1000
0000
0000
0000
,
0010
0000
0010
0000
,
0001
0000
0000
0000
,
1000
0000
0010
0000
,
1000
0000
0000
0000
,
0001
0001
0001
0000
,
0001
0000
0000
0000
,
0000
1000
0000
1000
,
0000
1000
0000
1000
,
0000
0010
0000
0010
,
0000
0010
0000
0010
,
0100
0000
0100
0000
,
0100
0000
0100
0000
,
0001
0000
0001
0000
,
0002
0000
0000
0000
,
2003
0000
0000
0000
,
0000
0000
0000
3000
,
0001
0000
0001
0000
,
0001
0000
0000
0000
,
0010
0000
0010
0000
,
0010
0000
0000
0000
,
0000
0100
0000
0100
,
0000
0100
0000
0100
,
0000
1000
0000
1000
,
0000
1000
0000
1000
,
0001
0000
0001
0000
,
0001
0000
0000
0000
,
1000
0000
1000
0000
,
1000
0000
0000
0000
,
0010
0000
0010
0000
,
0100
0000
0100
0000
,
0001
0000
0001
0000
,
1000
0000
1000
0000
,
0100
0000
1000
0000
,
0010
0000
0001
0000
,
0100
0000
1000
0000
,
0010
0001
0100
0000
1000
0000
0000
0000
;

//---------------dance-single - ----------------
#NOTEDATA:;
#CHARTNAME:;
#STEPSTYPE:dance-single;
#DESCRIPTION:;
#CHARTSTYLE:;
#DIFFICULTY:Challenge;
#METER:13;
#RADARVALUES:0.597531,0.788584,0.550358,0.259454,0.349870,532.000000,462.000000,70.000000,33.000000,0.000000,0.000000,0.000000,0.000000,0.000000,0.597531,0.788584,0.550358,0.259454,0.349870,532.000000,462.000000,70.000000,33.000000,0.000000,0.000000,0.000000,0.000000,0.000000;
#CREDIT:;
#NOTES:
// measure 0
0000
0000
0000
0000
,  // measure 1
0000
0000
0000
0000
,  // measure 2
0000
0000
0000
0000
,  // measure 3
0000
0000
0000
0000
,  // measure 4
1010
0100
0101
0000
0011
0100
1100
0000
,  // measure 5
1020
0000
0100
0000
0031
0010
1000
0000
0001
0000
0000
0000
0010
0000
0010
0000
,  // measure 6
2000
3001
0020
0031
0200
1300
0020
0130
,  // measure 7
0010
0000
1000
0000
0001
0010
0001
0000
0010
0000
0100
0000
1000
0000
0010
0000
,  // measure 8
0110
0000
0100
0001
0101
0000
0001
1000
0001
1000
0100
0010
,  // measure 9
0100
1000
0100
1000
0001
0100
0001
0000
0010
0000
0010
0000
0100
0000
1000
0000
,  // measure 10
1001
0001
0100
0010
2002
3003
0001
0010
,  // measure 11
0100
0100
0001
1000
1020
0031
0010
0100
,  // measure 12
1000
1000
0001
0101
0000
0110
0010
1000
,  // measure 13
0001
0001
0010
0001
0100
0010
1000
0001
,  // measure 14
2001
0000
3010
0000
1002
0000
0013
0000
0001
0000
0010
0100
0010
0000
0001
0000
,  // measure 15
0100
0010
1000
0100
0001
0000
1010
0000
,  // measure 16
0010
0000
0000
0000
0010
0100
0010
0000
0100
1000
0010
0100
0001
0000
0100
0000
,  // measure 17
0001
0010
0001
0010
0100
0010
0100
0000
2100
0000
3001
0000
0000
0000
1000
0000
,  // measure 18
0010
0000
0010
0000
0100
0000
0001
0000
0010
0000
0100
0010
0100
0000
1000
0000
,  // measure 19
0001
0100
1000
0100
0010
1010
0000
1010
,  // measure 20
1000
0001
0010
0100
0010
0002
0100
0013
,  // measure 21
1100
1000
0001
0100
0120
1030
0000
0010
,  // measure 22
0100
0000
0100
0000
0001
0000
0010
0000
0100
0000
1000
0001
1000
0000
0010
0000
,  // measure 23
0110
0100
0001
0000
1001
0000
1000
0100
,  // measure 24
0001
0001
0100
0010
0001
0001
1000
0010
,  // measure 25
0110
0000
0000
0000
0100
0000
0000
0001
2000
0000
0000
0000
0100
0000
0010
0000
,  // measure 26
0001
0001
0010
0001
0100
0010
3001
0000
,  // measure 27
1010
1010
0101
0101
0001
0010
0100
0011
,  // measure 28
0000
1001
0000
1000
0020
0000
0000
0030
,  // measure 29
0100
0000
1001
0000
0100
0100
1010
0100
,  // measure 30
0000
0000
0100
0000
0011
0000
0000
0000
0100
0000
0001
1000
0002
0000
0103
0000
,  // measure 31
0001
0000
0110
0000
0001
0001
1010
0001
,  // measure 32
0000
0000
0001
0000
1100
0000
0001
0000
0000
0000
0001
0000
1000
0010
1000
0000
,  // measure 33
1100
0100
0101
0000
1010
0010
0011
0000
,  // measure 34
2001
3010
0200
0001
1300
0000
0100
0010
,  // measure 35
0110
0010
0011
0001
1001
1000
1010
0010
,  // measure 36
0110
0000
0000
0000
0000
0000
0100
0000
0001
0000
0100
0000
0001
0000
0000
0000
0000
0000
1000
0000
0000
0000
0000
0000
0100
0000
0000
0000
0000
0000
0010
0000
0000
0100
0000
0000
0010
0000
0000
0000
0000
0000
0100
0000
0000
0000
0000
0000
,  // measure 37
2002
0000
0000
0000
,  // measure 38
0000
0000
0000
0000
3003
1000
0110
0001
,  // measure 39
0100
0001
0100
0010
1000
0001
1000
0100
0010
0000
0010
0000
0100
0000
1000
0000
,  // measure 40
1001
0000
0000
0000
0001
0100
0010
1000
0200
0000
0000
0000
0310
0000
0110
0000
,  // measure 41
0000
0100
1000
0010
0001
0010
0010
0100
,  // measure 42
0001
1000
0001
0010
0000
0100
0010
0100
,  // measure 43
1000
0000
0011
1000
0100
1000
1001
0001
,  // measure 44
0200
0000
0310
0000
2000
0000
3001
0000
1000
0000
0100
0010
0100
0000
1000
0000
,  // measure 45
0001
0001
0100
0001
0021
0130
0010
0100
,  // measure 46
2100
0001
0010
0100
0000
0001
0010
3100
,  // measure 47
1000
0100
1000
0100
1000
0100
1000
0000
0001
0100
0001
0100
0001
0000
0010
0100
,  // measure 48
0010
0100
0010
0100
0010
0100
0010
0000
0001
1000
0001
0010
0100
0010
0000
0000
,  // measure 49
0100
0100
1000
0010
0100
0100
0001
1000
,  // measure 50
0000
1001
0001
2000
0200
0000
0000
3300
,  // measure 51
1000
0000
1000
0100
0001
0000
1000
0010
0101
0100
0000
0100
1000
0100
0010
0001
,  // measure 52
0200
0310
0100
0010
1000
0000
0100
1000
0011
0001
0000
0001
1000
0010
0100
0001
,  // measure 53
1000
0000
0100
0000
0010
0000
0100
1000
0001
0000
0000
0000
0100
0000
0001
0000
1010
0000
1000
0000
0000
0000
1000
0000
0001
0000
0010
0000
0110
0000
0000
0000
,  // measure 54
1100
0000
1000
0100
0001
0100
1000
0010
0110
0100
0000
0100
0001
0000
1000
0000
,  // measure 55
1100
0000
0100
1000
0001
0100
0010
1000
1010
1000
0000
1000
0002
0010
0103
0000
,  // measure 56
2000
0000
0100
3001
1000
0100
0010
0001
0101
0000
0001
1000
0020
0100
1030
0000
,  // measure 57
0010
0000
0000
0000
0100
0000
0001
1000
0001
0000
0000
0000
0010
0000
0100
0000
1100
0000
1000
0000
0000
0000
1000
0000
0001
0000
0100
0000
0110
0000
0000
0000
,  // measure 58
1010
0000
1001
0000
0011
0000
0110
0000
2100
0001
0000
0001
0001
0000
0002
0000
,  // measure 59
3003
0000
0000
0000
;
