#VERSION:0.81;
#TITLE:Cerulean Blue;
#SUBTITLE:;
#ARTIST:Replacer;
#TITLETRANSLIT:;
#SUBTITLETRANSLIT:;
#ARTISTTRANSLIT:;
#GENRE:Indie Chiptune;
#ORIGIN:;
#CREDIT:;
#BANNER:Cerulean Blue.png;
#BACKGROUND:Cerulean Blue-bg.png;
#PREVIEWVID:;
#JACKET:Cerulean Blue-jacket.png;
#CDIMAGE:;
#DISCIMAGE:Cerulean Blue-popn.png;
#LYRICSPATH:;
#CDTITLE:;
#MUSIC:Cerulean Blue.mp3;
#OFFSET:-0.052000;
#SAMPLESTART:13.740000;
#SAMPLELENGTH:15.000000;
#SELECTABLE:YES;
#BPMS:0.000=140.000;
#STOPS:;
#DELAYS:;
#WARPS:;
#TIMESIGNATURES:0.000=4=4;
#TICKCOUNTS:0.000=4;
#COMBOS:0.000=1;
#SPEEDS:0.000=1.000=0.000=0;
#SCROLLS:0.000=1.000;
#FAKES:;
#LABELS:0.000=Song Start;
#BGCHANGES:;
#KEYSOUNDS:;
#ATTACKS:
;

//---------------dance-single - ----------------
#NOTEDATA:;
#CHARTNAME:;
#STEPSTYPE:dance-single;
#DESCRIPTION:;
#CHARTSTYLE:;
#DIFFICULTY:Easy;
#METER:6;
#RADARVALUES:0.274583,0.252273,0.009422,0.094220,0.000000,193.000000,1.000000,10.000000,0.000000,0.000000,0.000000,0.000000,0.000000,0.274583,0.252273,0.009422,0.094220,0.000000,193.000000,1.000000,10.000000,0.000000,0.000000,0.000000,0.000000,0.000000;
#CREDIT:;
#NOTES:
0000
0000
0000
0000
,
0000
0000
0000
0000
,
0000
0000
0000
0000
,
0000
0000
0000
0000
,
1000
0000
1000
0001
,
0010
0000
0010
0001
,
0100
0000
0100
0010
,
1000
1000
0010
1000
,
0100
0010
0100
0010
,
0001
0000
1000
0000
0001
0000
0000
1000
,
0000
0010
1000
0010
,
0100
0000
0001
0000
0100
0000
0000
0001
,
0000
1000
0100
1000
,
0010
0000
0100
0000
0010
0000
0000
0100
,
0000
0001
0010
0100
,
0010
0000
0001
0000
0100
0000
0000
0010
,
0000
1000
1000
0001
,
0010
0000
0010
0000
0100
0000
0000
0010
,
0000
0001
0001
1000
,
0001
0000
0010
0000
0100
0000
0000
0010
,
0000
0100
0100
1000
,
0001
0000
0100
0000
0010
0000
0000
0100
,
0000
0010
1000
0001
,
0010
0000
0100
0000
0010
0000
0000
0200
,
0000
1000
0010
0001
,
0010
1000
0001
1300
,
2000
0010
0001
0100
,
0001
0100
0010
3001
,
0002
0100
1000
0010
,
1000
0010
0100
1003
,
0200
0010
1000
0001
,
0020
0000
0030
0310
,
0100
0001
0100
0001
,
1000
0000
0100
0000
1000
0000
0000
0100
,
0000
1000
0001
1000
,
0010
0000
0100
0000
0010
0000
0000
0100
,
0000
0001
0100
0001
,
0010
0000
0100
0000
0010
0000
0000
0100
,
0000
1000
0100
1000
,
0010
0000
0001
0000
0010
0000
0000
0100
,
0000
0010
0010
1000
,
0010
0000
0100
0000
0001
0000
0000
0010
,
0000
0001
0001
1000
,
0010
0000
1000
0000
0100
0000
0000
0010
,
0000
0100
0100
1000
,
0010
0000
0100
0000
0001
0000
0000
0100
,
0000
0010
0010
1000
,
0001
0000
0010
0000
0001
0000
0000
0020
,
0000
0100
1000
0001
,
0100
0001
1000
0130
,
0002
0010
1000
0100
,
1000
0010
0100
0013
,
2000
0010
0001
0100
,
0001
0010
0100
3010
,
0200
0001
0010
1000
,
0020
0030
0010
0310
,
0110
0000
0100
0000
,
0100
0000
0100
0000
,
0000
0000
1000
0000
,
1000
0000
1000
0000
;

//---------------dance-single - ----------------
#NOTEDATA:;
#CHARTNAME:;
#STEPSTYPE:dance-single;
#DESCRIPTION:;
#CHARTSTYLE:;
#DIFFICULTY:Challenge;
#METER:14;
#RADARVALUES:0.703955,0.619258,0.084798,0.075376,0.513497,506.000000,9.000000,8.000000,0.000000,0.000000,0.000000,0.000000,0.000000,0.703955,0.619258,0.084798,0.075376,0.513497,506.000000,9.000000,8.000000,0.000000,0.000000,0.000000,0.000000,0.000000;
#CREDIT:;
#NOTES:
// measure 0
0000
0000
0000
0000
,  // measure 1
0000
0000
0000
0000
,  // measure 2
0000
0000
0000
0000
,  // measure 3
0000
0000
0000
0000
,  // measure 4
0001
0000
0000
0000
0001
0000
0010
0000
0100
0000
1000
0000
0001
0000
0100
0001
,  // measure 5
1000
0000
0000
0000
1000
0000
0010
0000
0100
0000
0001
0000
0010
0000
0001
0100
,  // measure 6
0010
0000
0000
0000
0010
0000
1000
0000
0001
0000
0100
0000
0001
0000
0010
0100
,  // measure 7
1000
0000
0001
0000
1001
0000
1000
0000
1001
0000
0001
0010
0001
0010
0001
0000
,  // measure 8
0010
0000
0100
0000
0010
0000
0100
0000
1000
0000
0001
1000
0001
1000
0001
1000
,  // measure 9
0010
0000
0001
0000
0010
0000
0001
0000
1000
0000
0100
1000
0100
1000
0100
0000
,  // measure 10
0010
0000
0100
0000
0010
0000
0100
0000
0001
0000
0010
0001
0010
0001
0010
0001
,  // measure 11
0100
0000
0010
0000
0100
0000
0010
0000
0010
0000
1000
0001
1000
0001
1000
0001
,  // measure 12
0010
0000
0001
0000
0010
0000
0001
0000
1000
0000
0010
1000
0010
1000
0010
1000
,  // measure 13
0100
0000
0001
0000
0100
0000
0001
0000
1000
0000
0010
1000
0010
1000
0010
0000
,  // measure 14
0100
0000
1000
0000
0100
0000
1000
0000
1000
0000
0001
1000
0001
1000
0001
1000
,  // measure 15
0010
0000
1000
0000
0010
0000
1000
0000
0001
0000
0010
0100
0010
0100
0010
0100
,  // measure 16
1000
0000
0010
0000
0010
0000
0010
0000
0100
0000
0010
0100
0010
0100
0010
0100
,  // measure 17
0001
0000
1000
0000
1000
0000
1000
0000
0100
0000
0010
0100
0010
0100
0010
0000
,  // measure 18
0001
0000
0100
0000
0001
0000
0100
0000
0010
0000
1000
0010
1000
0010
1000
0010
,  // measure 19
0100
0000
0010
0000
0100
0000
0010
0000
1000
0000
0001
1000
0001
1000
0001
1000
,  // measure 20
0010
0000
1000
0000
1000
0000
1000
0000
0001
0000
0010
0001
0010
0001
0010
0001
,  // measure 21
0100
0000
0010
0000
0010
0000
0010
0000
1000
0000
0001
1000
0001
1000
0001
1000
,  // measure 22
0010
0000
0100
0000
0010
0000
0100
0000
0001
0000
0010
0001
0010
0001
0010
0001
,  // measure 23
0100
0000
0010
0000
0100
0000
0010
0000
1000
0000
1001
0000
1000
0001
0010
0100
,  // measure 24
0010
0000
0100
0000
0010
0000
0001
0000
0100
0000
0010
0100
0000
0100
0010
0000
,  // measure 25
2000
0000
0001
0010
0000
0001
3010
0000
,  // measure 26
0100
0000
1000
0000
0001
0000
1000
0000
0010
0000
0100
0010
0000
0010
0100
0000
,  // measure 27
0002
0000
1000
0010
0000
1000
0013
0000
,  // measure 28
0001
0000
0010
0000
0001
0000
0100
0000
0010
0000
0100
0010
0000
0010
0100
0000
,  // measure 29
0002
0000
1000
0100
0000
1000
0103
0000
,  // measure 30
1000
0000
0001
0000
1000
0000
0001
0000
0100
0000
0010
0100
0000
0100
0010
0000
,  // measure 31
2000
0000
0001
0100
0000
0001
3100
0110
,  // measure 32
0010
0000
0001
0000
0010
0000
0001
0000
0001
0000
0100
0010
0100
0010
0100
0010
,  // measure 33
1000
0000
0001
0000
1000
0000
0010
0000
0010
0000
0100
0001
0100
0001
0100
0000
,  // measure 34
0010
0000
0100
0000
0100
0000
0001
0000
0001
0000
1000
0010
1000
0010
1000
0010
,  // measure 35
0100
0000
0001
0000
0100
0000
0010
0000
0010
0000
1000
0001
0010
0100
0010
0100
,  // measure 36
1000
0000
0001
0000
0001
0000
0100
0000
0100
0000
0010
1000
0010
1000
0010
1000
,  // measure 37
0100
0000
0010
0000
0010
0000
0001
0000
0001
0000
1000
0001
1000
0001
1000
0000
,  // measure 38
0100
0000
0010
0000
0010
0000
0100
0000
0100
0000
1000
0010
1000
0010
1000
0010
,  // measure 39
0100
0000
0001
0000
0001
0000
1000
0000
1000
0000
0100
0010
0100
0010
0100
0010
,  // measure 40
0001
0000
1000
0000
1000
0000
1000
0000
0010
0000
0100
0010
0100
0010
0100
0010
,  // measure 41
1000
0000
0001
0000
0001
0000
0001
0000
0010
0000
0100
1000
0100
1000
0100
0000
,  // measure 42
1000
0000
0010
0000
0010
0000
0100
0000
0100
0000
0001
0010
0001
0010
0001
0010
,  // measure 43
0100
0000
1000
0000
1000
0000
0001
0000
0001
0000
0100
0010
1000
0001
1000
0001
,  // measure 44
0100
0000
0010
0000
0010
0000
0010
0000
1000
0000
0001
0010
0001
0010
0001
0010
,  // measure 45
0100
0000
1000
0000
1000
0000
1000
0000
0001
0000
0100
0001
0100
0001
0100
0001
,  // measure 46
0010
0000
0100
0000
0100
0000
1000
0000
1000
0000
0001
1000
0001
1000
0001
1000
,  // measure 47
0010
0000
0100
0000
0100
0000
0001
0000
0001
0000
1000
0001
0010
0100
1000
0000
,  // measure 48
0010
0000
1000
0000
0100
0000
1000
0000
0010
0000
0100
0010
0000
0010
0100
0000
,  // measure 49
0002
0000
0010
1000
0000
0010
1003
0000
,  // measure 50
0001
0000
0001
0000
1000
0000
0001
0000
1000
0000
0010
0100
0000
0100
0010
0000
,  // measure 51
2000
0000
0010
0001
0000
0010
3001
0000
,  // measure 52
1000
0000
1000
0000
0001
0000
1000
0000
0001
0000
0010
0100
0000
0100
0010
0000
,  // measure 53
0002
0000
0100
1000
0000
0100
1003
0000
,  // measure 54
0001
0000
0001
0000
1000
0000
0001
0000
0010
0000
0100
0010
0000
0010
0100
0000
,  // measure 55
2000
0000
0100
3001
1001
0000
0110
0110
,  // measure 56
1010
0000
1000
0000
,  // measure 57
0001
0000
1000
0001
0000
1000
0001
0000
,  // measure 58
0011
0000
0001
0000
,  // measure 59
1000
0000
0001
1000
0000
0001
1000
0000
;

//---------------dance-single - ----------------
#NOTEDATA:;
#CHARTNAME:;
#STEPSTYPE:dance-single;
#DESCRIPTION:;
#CHARTSTYLE:;
#DIFFICULTY:Beginner;
#METER:1;
#RADARVALUES:0.074030,0.079144,0.018844,0.000000,0.000000,53.000000,2.000000,0.000000,0.000000,0.000000,0.000000,0.000000,0.000000,0.074030,0.079144,0.018844,0.000000,0.000000,53.000000,2.000000,0.000000,0.000000,0.000000,0.000000,0.000000,0.000000;
#CREDIT:;
#NOTES:
// measure 0
0000
0000
0000
0000
,  // measure 1
0000
0000
0000
0000
,  // measure 2
0000
0000
0000
0000
,  // measure 3
0000
0000
0000
0000
,  // measure 4
1000
0000
0000
0000
,  // measure 5
0100
0000
0000
0000
,  // measure 6
0010
0000
0000
0000
,  // measure 7
0001
0000
0000
0000
,  // measure 8
1001
0000
0000
0000
,  // measure 9
0010
0000
0000
0000
,  // measure 10
0100
0000
0000
0000
,  // measure 11
0001
0000
0000
0000
,  // measure 12
0010
0000
0000
0000
,  // measure 13
0100
0000
0000
0000
,  // measure 14
1000
0000
0000
0000
,  // measure 15
0010
0000
0000
0000
,  // measure 16
0100
0000
0000
0000
,  // measure 17
0001
0000
0000
0000
,  // measure 18
0100
0000
0000
0000
,  // measure 19
0010
0000
0000
0000
,  // measure 20
1000
0000
0000
0000
,  // measure 21
0100
0000
0000
0000
,  // measure 22
0010
0000
0000
0000
,  // measure 23
0001
0000
0000
0000
,  // measure 24
1000
0000
0000
0000
,  // measure 25
0001
0000
0000
0000
,  // measure 26
1000
0000
0000
0000
,  // measure 27
0001
0000
0000
0000
,  // measure 28
0100
0000
0000
0000
,  // measure 29
0010
0000
0000
0000
,  // measure 30
0100
0000
0000
0000
,  // measure 31
0010
0000
0000
0000
,  // measure 32
1000
0000
0000
0000
,  // measure 33
0100
0000
0000
0000
,  // measure 34
0001
0000
0000
0000
,  // measure 35
0010
0000
0000
0000
,  // measure 36
1000
0000
0000
0000
,  // measure 37
0010
0000
0000
0000
,  // measure 38
0001
0000
0000
0000
,  // measure 39
0100
0000
0000
0000
,  // measure 40
1000
0000
0000
0000
,  // measure 41
0010
0000
0000
0000
,  // measure 42
0100
0000
0000
0000
,  // measure 43
0001
0000
0000
0000
,  // measure 44
0010
0000
0000
0000
,  // measure 45
0100
0000
0000
0000
,  // measure 46
1000
0000
0000
0000
,  // measure 47
0001
0000
0000
0000
,  // measure 48
1001
0000
0000
0000
,  // measure 49
0100
0000
0000
0000
,  // measure 50
0010
0000
0000
0000
,  // measure 51
0100
0000
0000
0000
,  // measure 52
1000
0000
0000
0000
,  // measure 53
0001
0000
0000
0000
,  // measure 54
0100
0000
0000
0000
,  // measure 55
0010
0000
0000
0000
,  // measure 56
1000
0000
0000
0000
;

//---------------dance-single - ----------------
#NOTEDATA:;
#CHARTNAME:;
#STEPSTYPE:dance-single;
#DESCRIPTION:;
#CHARTSTYLE:;
#DIFFICULTY:Hard;
#METER:11;
#RADARVALUES:0.499364,0.437179,0.000000,0.009422,0.056532,370.000000,0.000000,1.000000,0.000000,0.000000,0.000000,0.000000,0.000000,0.499364,0.437179,0.000000,0.009422,0.056532,370.000000,0.000000,1.000000,0.000000,0.000000,0.000000,0.000000,0.000000;
#CREDIT:;
#NOTES:
// measure 0
0000
0000
0000
0000
,  // measure 1
0000
0000
0000
0000
,  // measure 2
0000
0000
0000
0000
,  // measure 3
0000
0000
0000
0000
,  // measure 4
1000
0000
0100
0000
0010
0000
0001
1000
,  // measure 5
0010
0000
0100
0000
0001
0000
1000
0100
,  // measure 6
0010
0000
0100
0000
1000
0000
0010
0100
,  // measure 7
0001
0000
1000
0000
0001
1000
0001
1000
,  // measure 8
0001
0100
0010
0100
0001
0010
1000
0010
,  // measure 9
0100
1000
0001
0100
0010
0100
0001
1000
,  // measure 10
0000
0100
1000
0001
0100
0010
0100
0001
,  // measure 11
0010
1000
0001
0100
1000
0010
0100
0001
,  // measure 12
0000
0001
1000
0100
1000
0010
0100
0001
,  // measure 13
0010
0100
1000
0001
1000
0010
0100
0001
,  // measure 14
0000
0001
0100
1000
0100
0010
1000
0001
,  // measure 15
0010
0100
1000
0001
0100
0010
1000
0001
,  // measure 16
0000
0010
0100
1000
0001
0100
0010
0100
,  // measure 17
0001
1000
0100
0010
0001
0100
0010
0100
,  // measure 18
0000
0100
0001
1000
0100
0010
0001
0010
,  // measure 19
0100
1000
0001
0100
0010
0100
0001
1000
,  // measure 20
0000
1000
0100
0001
1000
0010
0001
0100
,  // measure 21
1000
0100
0001
0010
1000
0001
0100
0010
,  // measure 22
0000
0010
0001
0100
1000
0100
0001
0010
,  // measure 23
0100
1000
0010
0100
0001
0010
0100
1000
,  // measure 24
0010
0000
0100
0000
0001
0000
0100
0000
0010
0000
0000
1000
0000
0000
0100
0000
,  // measure 25
1000
0000
0001
0000
0100
0000
0010
0000
1000
0000
0000
0001
0000
0000
1000
0000
,  // measure 26
0100
0000
0010
0000
0001
0000
0100
0000
0010
0000
0000
0100
0000
0000
0001
0000
,  // measure 27
1000
0000
0010
0100
0000
0100
0001
0000
,  // measure 28
0010
0000
0100
0000
1000
0000
0001
0000
1000
0000
0000
0100
0000
0000
1000
0000
,  // measure 29
0010
0000
0100
0000
0001
0000
0100
0000
0010
0000
0000
1000
0000
0000
0001
0000
,  // measure 30
0010
0000
0100
0000
1000
0000
0001
0000
0100
0000
0000
0010
0000
0000
0100
0000
,  // measure 31
0001
0000
1000
0100
0000
0100
1000
0001
,  // measure 32
1000
0100
1000
0010
0100
0001
0010
0100
,  // measure 33
1000
0001
0100
0010
0100
0001
0010
1000
,  // measure 34
0000
1000
0010
0001
0100
1000
0100
0010
,  // measure 35
1000
0100
0010
0001
0100
1000
0100
0001
,  // measure 36
0000
1000
0100
0010
0001
0100
0010
0100
,  // measure 37
0001
0010
0100
1000
0001
0100
0010
0100
,  // measure 38
0000
1000
0100
0001
0010
1000
0001
0100
,  // measure 39
1000
0001
0100
0010
0100
0001
1000
0100
,  // measure 40
0000
0100
1000
0010
0100
0001
0010
0100
,  // measure 41
0010
0001
1000
0010
0100
0001
1000
0100
,  // measure 42
0000
0100
1000
0010
0100
1000
0100
0001
,  // measure 43
0010
0100
1000
0001
0100
0010
0100
0001
,  // measure 44
0000
0001
0010
0100
1000
0001
1000
0100
,  // measure 45
0010
0001
0100
1000
0100
0001
0010
1000
,  // measure 46
0000
1000
0010
0100
1000
0001
0100
0010
,  // measure 47
0100
0001
1000
0100
0010
0001
1000
0010
,  // measure 48
0100
0000
0001
0000
0100
0000
0010
0000
1000
0000
0000
0010
0000
0000
0100
0000
,  // measure 49
0001
0000
1000
0000
0100
0000
0010
0000
0001
0000
0000
1000
0000
0000
0100
0000
,  // measure 50
1000
0000
0001
0000
0100
0000
0010
0000
0100
0000
0000
0001
0000
0000
0100
0000
,  // measure 51
0010
0000
1000
0100
0000
0100
1000
0000
,  // measure 52
0001
0000
0100
0000
0010
0000
0100
0000
0001
0000
0000
0010
0000
0000
0100
0000
,  // measure 53
1000
0000
0001
0000
0100
0000
0010
0000
0100
0000
0000
0001
0000
0000
0010
0000
,  // measure 54
1000
0000
0001
0000
0100
0000
1000
0000
0010
0000
0000
0100
0000
0000
0001
0000
,  // measure 55
1000
0000
0100
1000
0000
1000
0010
0100
,  // measure 56
0002
0000
0000
0000
,  // measure 57
0000
0000
0000
0000
,  // measure 58
0003
0000
0000
0000
;

//---------------dance-single - ----------------
#NOTEDATA:;
#CHARTNAME:;
#STEPSTYPE:dance-single;
#DESCRIPTION:;
#CHARTSTYLE:;
#DIFFICULTY:Medium;
#METER:7;
#RADARVALUES:0.329769,0.273237,0.000000,0.009422,0.000000,244.000000,0.000000,1.000000,0.000000,0.000000,0.000000,0.000000,0.000000,0.329769,0.273237,0.000000,0.009422,0.000000,244.000000,0.000000,1.000000,0.000000,0.000000,0.000000,0.000000,0.000000;
#CREDIT:;
#NOTES:
0000
0000
0000
0000
,
0000
0000
0000
0000
,
0000
0000
0000
0000
,
0000
0000
0000
0000
,
0010
1000
0100
0100
,
0010
0001
1000
1000
,
0010
0100
0001
0001
,
0010
0000
0100
0000
1000
0001
1000
0001
,
1000
0010
0100
0001
,
1000
0000
0100
0000
1000
0010
1000
0010
,
0000
0100
0001
0010
,
0100
0000
1000
0000
0001
0100
0001
0100
,
0000
0010
0100
1000
,
0100
0000
0001
0000
0010
0100
0010
0100
,
0000
1000
0001
1000
,
0100
0000
0010
0000
0001
1000
0001
1000
,
0000
0010
0100
0001
,
0010
0000
0100
0000
1000
0001
1000
0001
,
0000
0001
0100
0000
0010
0000
1000
0000
,
0100
0000
0010
0000
0100
1000
0100
1000
,
0000
1000
0010
0000
0100
0000
0001
0000
,
0010
0000
0100
0000
0001
0100
0001
0100
,
0000
0100
1000
0000
0010
0000
0100
0000
,
0001
0000
1000
0000
0001
0010
0100
1000
,
0010
0100
0001
0100
,
0010
0000
1000
0000
0100
0000
0100
1000
,
0001
0100
0010
1000
,
0001
0000
0010
0100
0000
0100
0010
0000
,
0001
0100
0010
0100
,
1000
0000
0100
0000
0001
0000
1000
0100
,
0010
0001
0100
0010
,
1000
0000
0100
1000
0000
1000
0010
0000
,
0100
0001
0010
0100
,
1000
0000
0010
0000
0100
0001
0100
0001
,
0000
1000
0100
0010
,
0001
0000
0100
0000
0010
1000
0010
1000
,
0000
0001
0010
0100
,
1000
0000
0100
0000
0010
0001
0010
0001
,
0000
0100
1000
0100
,
0001
0000
0010
0000
0100
1000
0001
1000
,
0000
0010
0100
0001
,
0010
0000
0100
0000
1000
0010
1000
0010
,
0000
0010
0100
0000
0001
0000
0010
0000
,
0100
0000
0001
0000
0100
1000
0100
1000
,
0000
1000
0010
0000
0100
0000
0001
0000
,
0010
0000
1000
0000
0001
0100
0001
0100
,
0000
0100
0010
0000
0001
0000
1000
0000
,
0010
0000
0100
0000
0001
1000
0010
0100
,
0001
0010
0100
1000
,
0001
0000
0100
0000
0010
0000
1000
0100
,
0001
0100
1000
0010
,
0100
0000
0001
1000
0000
0001
1000
0000
,
0010
0100
0001
0010
,
0100
0000
1000
0000
0001
0000
1000
0010
,
0001
1000
0100
0001
,
0010
0000
0100
1000
0000
1000
0001
0100
,
2000
0000
0000
0000
,
0000
0000
0000
0000
,
3000
0000
0000
0000
;
