#TITLE:Celestia's Last Stand (Arcane RMX);
#SUBTITLE:;
#ARTIST:TeiThePony;
#TITLETRANSLIT:;
#SUBTITLETRANSLIT:;
#ARTISTTRANSLIT:;
#GENRE:Techno;
#CREDIT:;
#BANNER:Celestia's Last Stand (Arcane RMX).png;
#BACKGROUND:Celestia's Last Stand (Arcane RMX)-bg.png;
#LYRICSPATH:;
#CDTITLE:;
#MUSIC:Celestia's Last Stand (Arcane RMX).mp3;
#OFFSET:-11.213908;
#SAMPLESTART:76.811996;
#SAMPLELENGTH:12.000000;
#SELECTABLE:YES;
#BPMS:0.000000=150.000000
,100.000000=75.000000
,132.000000=300.000000
,388.000000=150.000000
;
#STOPS:
;
#BGCHANGES:;
#KEYSOUNDS:;
#ATTACKS:;

//---------------dance-single - Blank----------------
#NOTES:
     dance-single:
     Blank:
     Hard:
     15:
     0.601113,1.007520,0.095465,0.058748,0.374515,573.000000,560.000000,13.000000,8.000000,0.000000,0.000000,0.601113,1.007520,0.095465,0.058748,0.374515,573.000000,560.000000,13.000000,8.000000,0.000000,0.000000:
0010
1000
0100
0001
1000
0010
0001
0000
,
1001
0000
1000
0010
0000
0010
0100
0000
0100
0001
0000
0001
,
0010
0000
0010
0100
0000
0100
1000
0000
1000
0001
0000
0001
,
0100
0000
0100
0010
0000
0010
1000
0000
1000
0100
0000
0100
,
0001
0000
0001
0100
0000
0100
0010
0000
0010
0001
0000
0001
,
0100
0000
0100
0010
0000
0010
1000
0000
1000
0100
0000
0100
,
0010
0000
0010
0001
0000
0001
0100
0000
0100
0010
0000
0010
,
1000
0000
1000
0100
0000
0100
0001
0000
0001
1000
0000
1000
,
0010
0000
0010
0100
0000
0100
1000
0000
1000
0001
0000
0001
,
1000
0000
0010
0000
0100
0001
0100
0000
0010
0000
1000
0000
0001
0100
0001
0000
,
0010
0000
0100
0000
1000
0010
1000
0000
0001
0000
0100
0000
0010
1000
0010
0000
,
1000
0000
0100
0000
0010
0001
0010
0000
0001
0000
0100
0000
0001
1000
0001
0000
,
1000
0000
0100
0000
1000
0001
1000
0000
0010
0000
1000
0000
0100
0010
0100
0000
,
0010
0000
0001
0000
0100
1000
0100
0000
0001
0000
1000
0000
0100
0001
0100
0000
,
1000
0000
0001
0000
0010
1000
0010
0000
0001
0000
1000
0000
0010
0001
0010
0000
,
0100
0000
0001
0000
1000
0010
1000
0000
0100
0000
0010
0000
0001
1000
0001
0000
,
0100
0000
0010
0000
0100
0001
0100
0000
0001
0000
1000
0000
0010
1000
0010
0000
,
1000
0000
0000
0100
0000
1000
0100
0000
0010
0000
0000
0001
0000
0010
0001
0000
,
0100
0000
0000
0010
0000
0100
0010
0000
1000
0000
0000
0001
0000
1000
0001
0000
,
1000
0000
0000
0100
0000
0010
0001
0000
0100
0000
0000
0010
0000
1000
0001
0000
,
0010
0000
0000
0100
0000
1000
0010
0000
0110
0000
0000
0000
1001
0000
0000
0000
,
1100
0000
1000
0100
0000
0010
0001
0000
0011
0000
0100
0010
0000
1000
0001
0000
,
0101
0000
0100
0010
0000
1000
0100
0000
1100
0000
1000
0010
0000
0100
0001
0000
,
0011
0000
0100
1000
0000
0010
0100
0000
0110
0000
0010
1000
0000
0001
0010
0000
,
0110
0000
0100
1000
0000
0010
0100
0000
0110
0000
0000
0010
0200
0000
0000
0000
,
0000
0000
0000
0000
,
0000
0000
0000
0000
,
0000
0000
0000
0000
,
0000
0000
0000
0000
,
0310
1000
0100
0010
0100
2000
0000
0000
3001
0100
0010
0100
0001
0020
0000
0000
,
0130
1000
0001
0100
0010
2000
0000
0000
3001
0010
0100
0010
0001
0100
0010
0010
,
0100
0001
1000
0100
0010
0200
0000
0000
1300
0010
0100
0001
0010
0200
0000
0000
,
0310
0001
0100
1000
0001
0020
0000
0000
1030
0100
0010
0001
0100
0010
0110
0000
,
0110
1000
0100
0001
,
0100
0010
0001
0100
,
0010
1000
0001
0010
,
0100
1000
0100
0010
,
0001
1000
0010
0100
,
0001
0010
0100
1000
,
0010
0100
0000
0000
0100
0001
0000
0000
,
0001
1000
0000
0000
1000
0100
0000
0000
,
0100
0010
0100
1000
,
0010
0100
0001
0010
,
0100
1000
0010
0100
,
0001
0010
0100
1000
,
0100
0010
0100
1000
,
0001
0100
0010
0100
,
0001
0010
0100
1000
,
0001
0100
0010
0100
,
1000
0100
0001
0010
,
1000
0010
0100
1000
,
0010
0100
0000
0000
0100
0001
0000
0000
,
0001
1000
0000
0000
1000
0010
0000
0000
,
0010
1000
0100
0010
,
0100
1000
0001
0100
,
0010
0100
0001
1000
,
0100
0010
0001
0000
,
0001
0100
0010
0100
,
0001
0010
1000
0010
,
0100
1000
0010
0100
,
0001
0010
0100
0010
,
0001
0100
1000
0001
,
0010
0100
0001
0010
,
1000
0001
0100
0010
,
0001
0100
0010
1000
,
0010
0100
0001
0010
,
0100
1000
0010
0100
,
0001
1000
0100
1000
,
0010
0100
0001
0100
,
0010
1000
0100
0001
,
0100
0010
0001
0100
,
0010
1000
0100
0000
0010
0001
0100
0000
,
1000
0100
0001
0000
0010
0100
1000
0000
,
0010
0100
0001
0100
,
0010
1000
0001
0010
,
0100
1000
0010
0100
,
0010
1000
0100
0001
,
0100
0010
0001
0100
,
0010
1000
0100
0010
,
0100
1000
0010
0100
,
0001
0010
0001
0000
1000
0100
1000
0000
,
0010
0100
0010
1000
,
0001
0010
0100
1000
,
0010
0100
0001
0000
1000
0100
0010
0000
,
0001
0100
1000
0000
0001
0010
0100
0000
,
0001
0010
0100
1000
,
0010
0100
0001
1000
,
0100
1000
0010
0000
0100
0001
0010
0000
,
0100
1000
0100
0000
0010
0001
0010
0000
,
0100
1000
0100
0000
0010
0001
0010
0000
,
0100
1000
0010
0000
0100
0001
0010
0000
,
0100
1000
0001
0000
1000
0001
0010
0000
,
0100
1000
0010
0000
0100
0001
1000
0000
,
0100
0010
0001
0000
1000
0010
0100
0000
,
0001
0010
0100
0000
1000
0010
0100
0000
,
0001
0100
0010
1000
0001
0010
0100
1000
,
0010
0100
0001
1000
0100
0010
0001
1000
,
0020
0000
0000
0000
,
0030
0000
0000
0000
;

//---------------dance-single - Blank----------------
#NOTES:
     dance-single:
     Blank:
     Challenge:
     17:
     0.796238,1.300339,0.411233,0.029374,0.455293,759.000000,703.000000,56.000000,4.000000,0.000000,0.000000,0.796238,1.300339,0.411233,0.029374,0.455293,759.000000,703.000000,56.000000,4.000000,0.000000,0.000000:
// measure 0
0110
0001
0010
0100
1000
0001
0110
0000
,  // measure 1
1001
0000
0001
0100
0000
0010
1000
0000
0100
0010
0000
0100
,  // measure 2
1000
0000
0010
0100
0000
0001
0010
0000
1000
0010
0000
0001
,  // measure 3
0100
0000
0010
1000
0000
0001
0010
0000
0100
1000
0000
0010
,  // measure 4
0100
0000
0001
0100
0000
0010
1000
0000
0001
0010
0000
0100
,  // measure 5
1100
0000
1000
1010
0000
0010
0110
0000
0100
0101
0000
0001
,  // measure 6
1001
0000
1000
1100
0000
0100
0110
0000
0010
0011
0000
0001
,  // measure 7
1001
0000
1000
1010
0000
0010
0110
0000
0100
0101
0000
0001
,  // measure 8
1001
0000
0000
0000
1000
0000
1100
0000
0000
0000
0100
0000
0110
0000
0000
0000
0001
0000
1001
0000
0000
1000
0000
0000
,  // measure 9
0010
1000
0010
0000
0100
0001
0100
0000
0001
0010
0001
0000
1000
0010
1000
0000
,  // measure 10
0100
1000
0100
0000
0010
0001
0010
0000
0001
0100
0001
0000
1000
0100
1000
0000
,  // measure 11
0010
0001
0010
0000
0100
0010
0100
0000
0001
1000
0001
0000
0010
0100
0010
0000
,  // measure 12
1000
0001
1000
0000
0010
0100
0010
0000
0100
0001
0100
0000
1000
0010
1000
0000
,  // measure 13
0010
0100
0010
0000
0100
0001
0100
0000
0001
1000
0001
0000
0010
0001
0010
0000
,  // measure 14
0100
1000
0100
0000
1000
0010
1000
0000
0001
0100
0001
0000
0100
0010
0100
0000
,  // measure 15
1000
0100
1000
0000
0001
0010
0001
0000
0010
1000
0010
0000
1000
0100
1000
0000
,  // measure 16
0001
0100
0001
0000
0010
0001
0010
0000
0100
0010
0100
0000
1000
0100
1000
0000
,  // measure 17
1100
0000
0000
1010
0000
0010
0100
0000
0101
0000
0000
1001
0000
1000
0100
0000
,  // measure 18
0110
0000
0000
0011
0000
0001
0100
0000
0110
0000
0000
1010
0000
1000
0100
0000
,  // measure 19
1001
0000
0000
0101
0000
0100
0010
0000
1010
0000
0000
1100
0000
0100
0010
0000
,  // measure 20
0011
0000
0000
1100
0000
1000
0010
0000
0110
0000
0100
0000
1001
0000
0100
0000
,  // measure 21
0011
0000
0000
0101
0000
0100
0010
0000
1010
0000
0000
1100
0000
0100
0010
0000
,  // measure 22
0011
0000
0000
1100
0000
1000
0010
0000
0101
0000
0000
1010
0000
1000
0100
0000
,  // measure 23
0101
0000
0000
1100
0000
1000
0010
0000
0110
0000
0000
0101
0000
0001
0010
0000
,  // measure 24
1100
0000
0000
1010
0000
0100
0001
0000
1001
0000
0000
0100
0220
0000
0000
0000
,  // measure 25
0000
0000
0000
0000
,  // measure 26
0000
0000
0000
0000
,  // measure 27
0000
0000
0000
0000
,  // measure 28
0000
0000
0000
0000
0000
0000
0000
0300
,  // measure 29
0130
0001
0010
0100
1000
0010
0100
0001
0010
1000
0001
0100
0010
0001
1000
0010
,  // measure 30
0100
1000
0001
0010
1000
0001
0010
0100
1000
0001
0100
0010
1000
0001
1001
1001
,  // measure 31
0001
0010
1000
0001
0100
1000
0001
0100
0010
1000
0100
0010
0001
0100
0010
1000
,  // measure 32
0100
1000
0010
0100
0001
0010
1000
0010
0001
0100
1000
0100
0001
1000
1001
0110
,  // measure 33
0010
0100
0010
0000
1000
0001
1000
0000
,  // measure 34
0100
1000
0100
0000
0010
0001
0010
0000
,  // measure 35
0001
0100
0001
0000
1000
0010
1000
0000
,  // measure 36
0010
0100
0010
0000
0100
0001
0100
0000
,  // measure 37
0001
1000
0001
0000
0010
0100
0010
0000
,  // measure 38
0100
1000
0100
0000
1000
0001
1000
0000
,  // measure 39
0001
0100
0001
0000
1000
0100
1000
0000
,  // measure 40
0001
0010
0001
0000
1000
0010
1000
0000
,  // measure 41
0100
0001
0100
0000
0010
0001
0010
0000
,  // measure 42
1000
0001
1000
0000
0010
0001
0010
0000
,  // measure 43
0001
0100
0001
0000
1000
0100
1000
0000
,  // measure 44
0010
1000
0010
0000
0100
0001
0100
0000
,  // measure 45
0010
1000
0010
0000
0001
1000
0001
0000
,  // measure 46
1000
0100
1000
0000
0100
0010
0100
0000
,  // measure 47
0001
0100
0001
0000
1000
0100
1000
0000
,  // measure 48
0010
1000
0010
0000
0100
0001
0100
0000
,  // measure 49
0001
0010
0001
0000
1000
0100
1000
0000
,  // measure 50
0010
0100
0010
0000
1000
0001
1000
0000
,  // measure 51
0001
0100
0010
0000
0010
1000
0100
0000
,  // measure 52
0100
0010
0001
0000
0001
1000
0001
0000
,  // measure 53
1000
0100
1000
0000
0001
0010
0001
0000
,  // measure 54
0100
0010
0100
0000
0001
1000
0001
0000
,  // measure 55
1000
0100
1000
0000
0010
1000
0010
0000
,  // measure 56
0100
0001
0100
0000
0001
0010
0001
0000
,  // measure 57
1000
0100
0001
0000
1000
0010
0001
0000
,  // measure 58
1000
0010
0001
0000
1000
0100
0001
0000
,  // measure 59
0010
0100
1000
0000
0001
0100
0010
0000
,  // measure 60
1000
0100
0010
0000
0001
0100
0010
0000
,  // measure 61
1000
0001
0010
0000
0001
1000
0100
0000
,  // measure 62
1000
0010
0100
0000
0001
1000
0100
0000
,  // measure 63
0010
0001
0010
0001
1000
0100
1000
0100
,  // measure 64
1000
0010
0100
0001
1000
0100
0010
0001
,  // measure 65
1000
0100
1000
0000
0001
0100
0001
0000
,  // measure 66
1000
0010
1000
0000
0001
0010
0001
0000
,  // measure 67
1000
0100
1000
0000
0001
0100
0001
0000
,  // measure 68
1000
0010
1000
0000
0001
0010
0001
0000
,  // measure 69
0100
0010
1000
0000
0001
0010
0100
0000
,  // measure 70
1000
0010
0100
0000
0001
0010
0100
0000
,  // measure 71
1000
0010
1000
0000
0100
0001
0100
0000
,  // measure 72
0001
0010
0001
0000
1000
0100
1000
0000
,  // measure 73
1000
0100
0010
0000
0001
0100
0010
0000
,  // measure 74
0100
0001
1000
0000
0100
0010
0001
0000
,  // measure 75
1000
0010
0100
0000
0001
1000
0100
0000
,  // measure 76
0010
0001
1000
0000
0010
0100
0001
0000
,  // measure 77
1000
0010
0100
0000
0001
0010
0100
0000
,  // measure 78
1000
0001
0100
0000
0010
1000
0100
0000
,  // measure 79
0001
0100
1000
0000
0010
0100
0001
0000
,  // measure 80
1000
0100
0010
0000
0001
0100
0010
0000
,  // measure 81
1000
0100
1000
0001
0100
0010
0100
0001
,  // measure 82
0010
0001
0010
1000
0001
0100
0001
1000
,  // measure 83
0010
0001
0100
0000
0010
1000
0100
0000
,  // measure 84
1000
0010
0100
0000
0001
0010
0100
0000
,  // measure 85
0100
1000
0010
0000
0100
0001
0010
0000
,  // measure 86
0100
1000
0001
0000
0100
0010
1000
0000
,  // measure 87
0001
0010
0100
0000
1000
0010
0100
0000
,  // measure 88
0001
1000
0100
0000
1000
0010
0100
0000
,  // measure 89
0001
0100
0001
0100
0010
1000
0010
1000
,  // measure 90
0001
0010
0001
0010
0100
1000
0100
1000
,  // measure 91
0001
0100
0001
0100
1000
0100
1000
0100
,  // measure 92
0010
1000
0010
1000
0001
0010
0001
0010
,  // measure 93
0100
1000
0010
0100
0001
1000
0100
1000
,  // measure 94
0001
0010
0001
0100
0010
1000
0001
0010
,  // measure 95
0100
1000
0010
0100
0001
1000
0100
0001
,  // measure 96
0100
1000
0010
0001
0010
0100
0001
0010
,  // measure 97
0220
0000
0000
0000
,  // measure 98
0300
0000
0000
0030
0000
0000
0000
0000
;

//---------------dance-single - Blank----------------
#NOTES:
     dance-single:
     Blank:
     Medium:
     11:
     0.433263,0.719657,0.088121,0.176243,0.051404,413.000000,401.000000,12.000000,24.000000,0.000000,0.000000,0.433263,0.719657,0.088121,0.176243,0.051404,413.000000,401.000000,12.000000,24.000000,0.000000,0.000000:
0001
0000
0100
0010
0100
0001
1000
0000
,
1001
0000
0100
0000
0010
0000
0001
0100
,
0001
0000
0010
0000
0100
1000
0001
1000
,
0100
0000
0010
0000
0001
0000
0100
0010
,
0100
0000
0001
0000
0010
0100
0010
0001
,
1000
0000
0010
0000
0100
0000
0001
1000
,
0100
0000
0001
0000
0100
1000
0001
0100
,
0010
0000
0100
0000
0001
0000
0010
0100
,
1000
0000
0001
0000
0100
0010
0100
0001
,
1000
0100
1000
0010
0100
0001
0010
0000
,
0010
0001
1000
0010
0100
0001
0010
0000
,
0100
1000
0001
0100
0010
0100
0001
0000
,
0010
0100
1000
0001
0100
0000
0110
0000
,
0010
1000
0100
0010
0100
1000
0001
0000
,
0010
0100
0010
0001
1000
0010
0100
0000
,
0010
1000
0001
0010
0100
1000
0001
0000
,
0100
0010
1000
0001
0010
0000
0110
0000
,
0010
0000
0001
0100
0010
0000
0010
0100
,
0001
0000
0001
1000
0100
0000
0100
1000
,
0001
0000
0001
1000
0010
0000
0010
0100
,
0010
0000
0010
1000
0100
0000
0110
0000
,
0011
0000
0001
0100
1000
0000
1000
0100
,
0001
0000
0001
0010
0100
0000
0100
1000
,
0010
0000
0010
0100
0001
0000
0001
1000
,
0100
0000
0010
0001
1000
0000
2002
0000
,
0000
0000
0000
0000
,
0000
0000
0000
0000
,
0000
0000
0000
0000
,
0000
0000
3003
0000
,
1000
0000
0100
0000
0010
0001
0000
0000
0010
0000
0100
0000
1000
0001
0000
0000
,
0100
0000
0010
0000
0100
0001
0000
0000
1000
0000
0100
0000
0010
0000
0001
0001
,
1000
0000
0100
1000
0000
0010
0000
0000
0100
0000
0001
0010
0000
0001
0000
0000
,
1000
0000
0010
0100
0000
0010
0000
0100
0001
0000
1000
0100
0000
0010
0001
1000
,
0001
0100
0010
1000
,
0100
0010
0100
1000
,
0001
0100
0010
1000
,
0100
0010
0100
1000
,
0010
0100
0001
0010
,
0100
1000
0010
0100
,
0001
0000
0011
0000
,
0110
0000
1100
0000
,
1000
0001
0100
0010
,
0100
0001
0010
0100
,
1000
0010
0100
0001
,
0100
0010
1000
0000
,
0001
0010
0100
1000
,
0100
0010
0001
1000
,
0010
0100
0001
0100
,
0010
0000
0110
0000
,
0010
1000
0100
0001
,
0100
0010
0001
0000
,
0100
0010
1000
0001
,
0010
0100
1000
0000
,
0001
0100
0010
1000
,
0100
0010
0100
0000
,
1000
0001
0100
0000
,
0110
0000
1001
0000
,
0001
0010
0100
0010
,
0001
0100
0010
0000
,
0010
1000
0100
1000
,
0001
0100
0010
0000
,
0010
1000
0100
0000
,
0010
0001
0100
0000
,
0010
1000
0100
0001
,
0100
0010
0001
1000
,
0010
0200
0000
0302
,
0000
0000
0013
0100
,
1000
0001
0100
0020
,
0000
0000
0230
0000
,
0302
0000
1003
0200
,
0000
0000
1300
0100
,
0010
0001
0100
0010
,
0100
0001
0010
0100
,
1000
0001
0100
0010
,
0100
0001
0020
0000
,
0130
2000
0000
3001
,
0100
0010
0200
0000
,
0301
0020
0000
0130
,
2000
0000
3001
0100
,
0010
0100
0001
1000
,
0100
0010
0001
1000
,
0020
0000
0230
0000
,
0301
0010
0100
1000
,
0010
0100
0001
0020
,
0000
0000
0130
1000
,
0100
0010
0001
1000
,
0020
0000
0130
0001
,
0100
0010
1000
0001
,
0010
0100
1000
0001
,
0200
0000
0310
0100
,
0001
0010
0200
0000
,
1300
0010
0100
0001
,
2000
0000
3200
0000
,
0310
0001
0100
0010
,
0100
0001
0010
0100
,
1000
0001
0100
0010
,
2000
0000
3002
0000
,
2003
0000
0000
0000
,
3000
0000
0000
0000
;

//---------------dance-single - Blank----------------
#NOTES:
     dance-single:
     Blank:
     Easy:
     8:
     0.294787,0.498619,0.044061,0.022030,0.000000,281.000000,275.000000,6.000000,3.000000,0.000000,0.000000,0.294787,0.498619,0.044061,0.022030,0.000000,281.000000,275.000000,6.000000,3.000000,0.000000,0.000000:
0010
0000
0100
0000
0001
1000
0001
0000
,
1001
0100
0010
0001
,
0100
0000
0010
0000
0100
0001
0000
0001
,
1000
0100
0010
0001
,
1000
0000
0010
0000
0100
0010
0000
0010
,
0100
0001
0010
1000
,
0001
0000
0100
0000
1000
0010
0000
0010
,
0100
0001
1000
0100
,
0010
0000
0001
0000
0100
0010
0000
0010
,
0100
0001
0010
0100
,
1000
0001
0100
0010
,
1000
0100
0010
0001
,
1000
0000
0010
0000
0100
0001
0100
0000
,
0010
1000
0100
0001
,
0100
1000
0010
0100
,
0001
0010
0100
1000
,
0001
0000
0100
0000
0010
1000
0010
0000
,
0010
0100
0100
0001
,
0001
1000
1000
0100
,
0100
0010
0010
0001
,
0001
1000
1010
0101
,
0100
0100
0001
0001
,
1000
1000
0100
0100
,
0010
0010
0001
0001
,
0100
0100
0010
1001
,
0000
0000
0000
0000
,
0000
0000
0000
0000
,
0000
0000
0000
0000
,
0000
0000
0000
0000
,
1000
0100
1000
0000
0010
0100
0010
0000
,
0100
0001
0100
0000
0001
0000
0010
0000
,
0100
1000
0100
0000
0010
0001
0010
0000
,
0100
1000
0100
0000
0010
0000
0001
1001
,
1000
0000
0010
0000
,
0100
0000
0001
0000
,
0010
0000
0100
0000
,
1000
0000
0001
0000
,
0100
0000
0010
0000
,
0100
0000
0001
0000
,
0010
0100
1000
0000
,
0001
0100
0010
0000
,
1000
0000
0100
0000
,
0001
0000
0100
0000
,
0010
0000
0001
0000
,
1000
0000
0010
0000
,
0100
0000
0001
0000
,
0010
0000
0100
0000
,
1000
0000
0010
0000
,
0100
0001
0100
0000
,
0010
0000
1000
0000
,
0100
0000
0001
0000
,
0100
0000
0010
0000
,
0001
0000
1000
0000
,
0010
0000
0100
0000
,
0001
0000
0100
0000
,
0010
0000
1000
0100
,
1000
0001
0100
0000
,
0010
0000
0100
0000
,
0001
0000
0010
0000
,
0100
0000
0010
0000
,
0001
1000
0001
0000
,
0100
0000
0010
0000
,
1000
0000
0100
0000
,
0010
0000
0001
0000
,
1000
0010
1000
0000
,
0010
0000
0100
0000
,
0001
0000
0010
0000
,
0100
0000
1000
0000
,
0001
0000
0100
0000
,
0010
0000
0100
0000
,
0001
0000
0010
0000
,
0100
1000
0001
0000
,
0001
1000
0100
0000
,
0010
0000
0001
0000
,
1000
0000
0010
0000
,
0100
0000
0001
0000
,
0010
0000
0100
0000
,
1000
0000
0010
0000
,
0100
0000
0010
0000
,
1000
0100
0010
0100
,
1000
0001
0100
0000
,
0010
0000
1000
0000
,
0001
0000
0010
0000
,
0100
0000
1000
0020
,
0000
0000
0130
0000
,
0001
0000
0010
0000
,
0100
1000
0100
0000
,
0010
0000
0001
0000
,
1000
0010
1000
0010
,
0000
0000
0100
0001
,
0000
0001
0100
0000
,
0010
0000
1000
0000
,
0002
0000
0013
0000
,
0100
0000
1000
0000
,
0001
0100
0010
0000
,
0100
0000
0001
0000
,
2000
0000
3001
0000
,
1001
0000
0000
0000
;

//---------------dance-single - Blank----------------
#NOTES:
     dance-single:
     Blank:
     Beginner:
     5:
     0.142673,0.249310,0.066091,0.000000,0.000000,136.000000,127.000000,9.000000,0.000000,0.000000,0.000000,0.142673,0.249310,0.066091,0.000000,0.000000,136.000000,127.000000,9.000000,0.000000,0.000000,0.000000:
0000
0000
0000
0000
,
0001
0000
0001
0000
,
0001
0000
0001
0000
,
1000
0000
1000
0000
,
1000
0000
1000
0000
,
0010
0000
0010
0000
,
0010
0000
0010
0000
,
0100
0000
0100
0000
,
0100
0000
0100
0000
,
0001
0000
0001
0000
,
0010
0010
0010
0000
,
0100
0000
0100
0000
,
1000
1000
1000
0000
,
0010
0000
0010
0000
,
0100
0100
0100
0000
,
0001
0000
0001
0000
,
1000
1000
1000
0000
,
1001
0000
0000
0000
,
0110
0000
0000
0000
,
0110
0000
0000
0000
,
1001
0000
0000
0000
,
1001
0000
0000
0000
,
0110
0000
0000
0000
,
0110
0000
0000
0000
,
1001
0000
0100
0100
,
0000
0000
0000
0000
,
0000
0000
0000
0000
,
0000
0000
0000
0000
,
0000
0000
0000
0000
,
0010
0000
1000
0000
,
0001
0000
0000
0000
,
0010
0000
0100
0000
,
1000
0000
0000
0000
0000
0000
0000
0010
,
0010
0000
0000
0000
,
1000
0000
0000
0000
,
0100
0000
0000
0000
,
1000
0000
0000
0000
,
0010
0000
0000
0000
,
0100
0000
0000
0000
,
0001
0000
0001
0000
,
0001
0000
0000
0000
,
0010
0000
0000
0000
,
0100
0000
0000
0000
,
1000
0000
0000
0000
,
0100
0000
0000
0000
,
0010
0000
0000
0000
,
0001
0000
0000
0000
,
1000
0000
1000
0000
,
1000
0000
0000
0000
,
0010
0000
0000
0000
,
0100
0000
0000
0000
,
0001
0000
0000
0000
,
1000
0000
0000
0000
,
0001
0000
0000
0000
,
0010
0000
0000
0000
,
0100
0000
0100
0000
,
0100
0000
0000
0000
,
1000
0000
0000
0000
,
0010
0000
0000
0000
,
0100
0000
0000
0000
,
0001
0000
0000
0000
,
0100
0000
0000
0000
,
1000
0000
0000
0000
,
0010
0000
0010
0000
,
0010
0000
0010
0000
,
0010
0000
0000
0000
,
1000
0000
0000
0000
,
0100
0000
0000
0000
,
0001
0000
0000
0000
,
0010
0000
0000
0000
,
0100
0000
0000
0000
,
1000
0000
1000
0000
,
1000
0000
0000
0000
,
0010
0000
0000
0000
,
0100
0000
0000
0000
,
0001
0000
0000
0000
,
0010
0000
0000
0000
,
0100
0000
0000
0000
,
1000
0000
0000
0000
,
0010
0000
0010
0000
,
0010
0000
0000
0000
,
0100
0000
0000
0000
,
0001
0000
0000
0000
,
0010
0000
0000
0010
,
0000
0000
0010
0000
,
0001
0000
0000
0000
,
1000
0000
0000
0000
,
0100
0000
0100
0000
,
0100
0000
0000
0000
,
1000
0000
0000
0000
,
0010
0000
0000
0000
,
0100
0000
0000
0000
,
0001
0000
0000
0000
,
1000
0000
0000
0000
,
0100
0000
0000
0000
,
0001
0000
0000
0000
,
0001
0000
0000
0000
,
1001
0000
0000
0000
;
