#TITLE:Celestia's Ballad (Sim Gretina Remix);
#SUBTITLE:;
#ARTIST:Sim Gretina;
#TITLETRANSLIT:;
#SUBTITLETRANSLIT:;
#ARTISTTRANSLIT:;
#GENRE:Happy Hardcore;
#CREDIT:;
#BANNER:Celestia's Ballad (Sim Gretina Remix).png;
#BACKGROUND:Celestia's Ballad (Sim Gretina Remix)-bg.png;
#LYRICSPATH:;
#CDTITLE:;
#MUSIC:Celestia's Ballad (Sim Gretina Remix).mp3;
#OFFSET:-0.009957;
#SAMPLESTART:59.439999;
#SAMPLELENGTH:15.000000;
#SELECTABLE:YES;
#BPMS:0.000000=80.000000
,88.000000=160.000000
;
#STOPS:
;
#BGCHANGES:;
#KEYSOUNDS:;
#ATTACKS:;

//---------------dance-single - ----------------
#NOTES:
     dance-single:
     :
     Easy:
     6:
     0.251673,0.283783,0.156211,0.060749,0.017357,178.000000,18.000000,7.000000,0.000000,0.000000,0.000000,0.251673,0.283783,0.156211,0.060749,0.017357,178.000000,18.000000,7.000000,0.000000,0.000000,0.000000:
0000
0000
0000
0110
0000
0000
0011
0000
0000
0000
0010
0000
,
0100
0000
1000
0000
0000
1001
0000
0000
,
0000
0000
0000
0110
0000
0000
1010
0000
1000
0000
0001
0000
,
0010
0000
0100
0000
0000
0110
0000
0000
,
0100
0100
1100
0000
,
0010
0010
0011
0000
,
0001
0001
1001
0000
,
0100
0100
0110
0010
,
1000
0000
0000
0000
,
0101
0000
0000
1000
0000
0000
1000
0000
,
1100
0000
0000
0001
0000
0000
0100
0000
,
0101
0000
0000
0001
,
1000
1000
0001
0001
,
0010
0110
0100
1000
,
0010
0010
0100
0100
,
0001
0001
1000
1000
,
0100
0010
0001
0010
,
0100
1000
0010
1000
,
0001
0010
0100
1000
,
0001
0000
0000
2000
0000
0000
0000
0000
0000
0000
3001
0000
,
1000
0000
0100
0000
0010
0000
0000
0001
,
0001
0100
0001
0100
0010
1000
0100
0010
,
0001
0001
1000
0000
,
1000
1000
0010
0000
,
1000
1000
0001
0000
,
0010
0001
0010
0100
,
1000
1000
0001
0000
,
0100
0100
0001
0000
,
0001
0001
1000
0000
,
0100
0100
1000
0000
,
0110
0001
1000
0000
,
0010
1000
0001
0000
,
0110
1000
0001
0000
,
0010
0001
1000
0000
,
1001
0010
0100
0000
,
1000
0010
0100
0000
,
2000
0000
3200
0000
,
0320
0000
0000
0032
,
1003
0000
1000
0001
,
0000
0001
0000
0000
0001
0000
0001
0000
,
0100
0000
0100
0000
,
0010
0100
0010
0000
,
1000
0000
1000
0001
,
0000
0001
0000
0000
0001
0000
0001
0000
,
0100
0000
0100
0000
,
0010
0100
0010
0000
,
1000
0001
1000
0001
,
0000
0001
0000
0000
0001
0000
0001
0000
,
0010
0100
0010
0100
,
1000
0001
1000
0001
,
0100
0010
0100
0010
,
0000
0010
0000
0000
0010
0000
0010
0000
,
1000
0100
0010
0001
,
1000
0010
0100
0001
,
2002
0000
3003
0000
;

//---------------dance-single - ----------------
#NOTES:
     dance-single:
     :
     Medium:
     9:
     0.389287,0.449323,0.199603,0.121497,0.138854,277.000000,23.000000,14.000000,0.000000,0.000000,0.000000,0.389287,0.449323,0.199603,0.121497,0.138854,277.000000,23.000000,14.000000,0.000000,0.000000,0.000000:
0000
0000
0000
0001
0000
0000
0020
0000
0000
0000
0130
0010
,
0002
0000
2003
0000
0000
3010
0000
0000
,
0000
0000
0010
2000
0000
0000
0001
0000
3001
0000
1000
0100
,
0020
0000
0000
0000
0000
0000
0000
0000
0000
0000
0000
0000
0000
0000
0000
0000
0000
0000
0000
0000
0000
0000
0000
0000
0000
0000
0000
0000
0000
0000
0000
0000
0130
0000
0000
0000
0000
0000
0000
0000
0000
0000
0000
0000
0000
0000
0000
0000
0000
0000
0000
0000
0000
0000
0010
0000
0000
0000
0000
0000
0000
0000
0000
0000
0000
0000
0000
0000
0000
0000
0000
0000
0000
0000
0000
0000
0000
0000
0000
0000
0000
0000
0000
0000
0000
0000
0000
0000
0000
0000
0000
0000
0000
0000
0000
0000
0000
0000
0000
0000
0000
0000
0000
0000
0000
0000
0000
0000
0000
0000
0000
0000
0000
0000
0000
0000
0000
0000
0000
0000
0001
0000
0000
0000
0000
0000
0000
0000
0000
0000
0000
0000
0000
0000
0000
0000
0000
0000
0000
0000
0000
0000
0000
0000
0000
0000
0000
0000
0000
0000
0000
0000
0000
0000
0000
0000
0000
0000
0000
0000
0000
0000
0000
0000
0000
0000
0000
0000
0000
0000
0000
0000
0000
0000
0000
0000
0000
0000
0000
0000
0000
0000
0000
0000
0000
0000
0000
0000
0000
0000
0000
0000
,
0110
0000
0010
0100
1000
0001
0100
0000
0010
0000
0000
0000
,
0110
0000
0100
0001
1000
0100
0010
0000
0110
0000
0000
0000
,
0011
0000
0010
0100
1000
0010
0100
0000
0101
0000
0000
0001
,
1000
0000
1000
0100
0000
0010
0100
0000
1000
0100
0000
0020
,
0000
0000
0130
0000
0000
0000
0000
0000
0000
0000
0000
0000
,
0011
0000
0001
1001
0000
0000
1100
0000
,
1010
0000
1000
1001
0000
0000
0101
0000
,
0110
0010
1001
0200
,
0310
0010
0100
0000
0001
0001
1000
0000
,
0100
0100
0010
0000
0001
0001
1000
0000
,
0100
0010
0001
0000
0100
0010
1000
0000
,
0001
1000
0010
0000
1000
0001
0010
0000
,
0100
0100
1000
0000
0010
0010
0001
0000
,
0010
0010
0100
0000
0001
0001
1000
0000
,
0100
0010
0001
0000
0010
0100
1000
0000
,
0001
0000
0000
0001
0000
0000
1000
0000
0000
0000
0000
0000
0010
0000
0000
0010
0000
0000
0100
0000
0001
0000
1000
0000
,
0200
0000
0320
0000
0032
0000
0000
1003
,
1000
0000
1000
0000
0001
0000
0001
0000
1000
0010
1000
0010
0100
0001
0100
0001
,
1000
0100
1000
0101
,
0000
0010
0010
0010
,
0100
0001
0100
1010
,
0000
0000
0001
0010
0100
1000
0001
0000
,
0100
0010
0100
1001
,
0000
0010
0010
0010
,
0100
0010
0100
1001
,
0000
1000
0010
0100
,
0101
0001
1000
1100
,
0000
1000
1000
1000
,
1010
1000
0001
0011
,
0000
0010
0010
0010
,
1001
0100
0010
1001
,
0000
0000
0100
0000
0100
0000
0100
0010
,
0020
0000
2030
0000
,
3002
0000
0000
0013
,
0010
0100
0010
0000
0100
0010
0100
0010
,
0000
0100
1000
0000
0100
1000
0000
0000
,
0001
0100
0001
0000
0100
0001
0100
0010
,
0000
0100
0010
0000
0100
0001
0000
0000
,
1000
0001
1000
0000
0001
1000
0001
0010
,
0000
0001
0010
0000
0100
0010
0000
0000
,
0100
1000
0100
0000
1000
0100
1000
0010
,
0000
1000
0010
0000
0100
0010
0000
0000
,
0100
0001
1000
0000
0100
1000
0001
0100
,
0000
0001
0100
0000
0010
0100
0000
0000
,
0010
1000
0001
0000
0010
0001
1000
0100
,
0000
1000
0100
0000
0010
0100
0000
0000
,
1000
0100
0001
0000
1000
0100
0001
0000
,
1000
0010
0001
0000
1000
0010
0001
0000
,
0010
1000
0010
1000
0001
0010
0001
0010
,
0100
1000
0100
1000
0001
0100
0001
0100
,
0020
0000
0030
0000
;

//---------------dance-single - ----------------
#NOTES:
     dance-single:
     :
     Beginner:
     2:
     0.083064,0.118243,0.000000,0.026035,0.000000,64.000000,0.000000,3.000000,0.000000,0.000000,0.000000,0.083064,0.118243,0.000000,0.026035,0.000000,64.000000,0.000000,3.000000,0.000000,0.000000,0.000000:
0000
0000
0000
0000
,
0000
0000
0000
0000
,
0000
0000
0000
0000
,
0000
0000
0000
0000
,
0010
0000
0000
0000
,
0010
0000
0000
0000
,
0100
0000
0000
0000
,
0100
0000
0000
0000
,
0001
0000
0000
0000
,
1000
0000
0000
0000
,
0100
0000
0000
0000
,
0010
0000
0000
0000
,
0001
0000
0000
0000
,
0100
0000
0000
0000
,
0010
0000
0000
0000
,
1000
0000
0000
0000
,
0001
0000
0000
0000
,
0010
0000
0000
0000
,
0100
0000
0000
0000
,
1000
0000
0000
0000
,
0010
0000
0000
0000
,
0200
0000
0000
0000
,
0301
0000
0000
0000
,
0001
0000
0000
0000
,
1000
0000
0000
0000
,
1000
0000
0000
0000
,
0100
0000
0000
0000
,
0100
0000
0000
0000
,
0010
0000
0000
0000
,
0010
0000
0000
0000
,
0001
0000
0001
0000
,
0001
0000
0000
0000
,
1000
0000
1000
0000
,
1000
0000
0000
0000
,
0010
0000
0010
0000
,
0010
0000
0000
0000
,
0100
0000
0100
0000
,
0200
0000
0300
0100
,
0100
0000
0001
0000
,
0100
0000
0000
0000
,
0010
0000
1000
0000
,
0010
0000
0000
0000
,
1000
0000
0001
0000
,
1000
0000
0000
0000
,
0001
0000
0010
0000
,
0001
0000
0000
0000
,
0010
0000
0100
0000
,
0010
0000
0000
0000
,
0100
0000
1000
0000
,
0100
0000
0000
0000
,
1000
0000
0001
0000
,
1000
0000
0000
0000
,
0010
0000
0100
0000
,
0010
0000
0000
0000
,
0200
0000
0300
0000
;

//---------------dance-single - ----------------
#NOTES:
     dance-single:
     :
     Hard:
     15:
     0.601287,0.591214,0.242994,0.121497,0.442597,443.000000,28.000000,14.000000,0.000000,0.000000,0.000000,0.601287,0.591214,0.242994,0.121497,0.442597,443.000000,28.000000,14.000000,0.000000,0.000000,0.000000:
0000
0000
0000
0002
0000
0000
2003
0000
0000
3000
0001
0100
,
0020
0000
2030
0000
0000
3001
0000
0000
,
0000
0000
0010
1000
0000
0000
0001
0000
0001
0000
0010
0100
,
1000
0000
0000
0000
0000
0000
0000
0000
0000
0000
0000
0000
0000
0000
0000
0000
0000
0000
0000
0000
0000
0000
0000
0000
0000
0000
0000
0000
0000
0000
0000
0000
0010
0000
0000
0000
0000
0000
0000
0000
0000
0000
0000
0000
0000
0000
0000
0000
0000
0000
0000
0000
0000
0000
0010
0000
0000
0000
0000
0000
0000
0000
0000
0000
0000
0000
0000
0000
0000
0000
0000
0000
0000
0000
0000
0000
0000
0000
0000
0000
0000
0000
0000
0000
0000
0000
0000
0000
0000
0000
0000
0000
0000
0000
0000
0000
0000
0000
0000
0000
0000
0000
0000
0000
0000
0000
0000
0000
0000
0000
0000
0000
0000
0000
0000
0000
0000
0000
0000
0000
0001
0000
0000
0000
0000
0000
0000
0000
0000
0000
0000
0000
0000
0000
0000
0000
0000
0000
0000
0000
0000
0000
0000
0000
0000
0000
0000
0000
0000
0000
0000
0000
0000
0000
0000
0000
0000
0000
0000
0000
0000
0000
0000
0000
0000
0000
0000
0000
0000
0000
0000
0000
0000
0000
0000
0000
0000
0000
0000
0000
0000
0000
0000
0000
0000
0000
0000
0000
0000
0000
0000
0000
,
0012
0000
0013
0100
1000
0001
0100
0000
0010
0000
0000
0000
,
1020
0000
0130
0001
0010
1000
0001
0000
0100
0000
0000
0000
,
2100
0000
3010
0100
1000
0001
0010
0000
1000
0000
0000
0001
,
1001
0000
1000
0100
0000
0010
0001
0000
0010
0200
0000
2000
,
0300
0000
3000
0000
,
1100
0000
0000
1100
0000
0000
0010
0000
,
0011
0000
0000
0011
0000
0000
1000
0000
,
1100
0000
0000
0000
0000
2000
0010
0000
,
3010
0000
0100
0010
0000
0100
0010
0000
0000
1000
0000
0000
0100
0000
0000
0010
0000
0000
0001
0000
0000
0100
0000
0010
,
1000
0000
0100
0010
0000
0001
0100
0000
0000
0010
0000
0000
1000
0000
0000
0100
0000
0000
0001
0000
0000
0100
0000
1000
,
0010
0000
0100
0001
0000
1000
0100
0000
0000
0010
0000
0000
0001
0000
0000
0100
0000
0000
0010
0000
0000
1000
0000
0010
,
0001
0000
0010
0100
0000
0001
0010
0000
0000
0100
0000
0000
1000
0000
0000
0001
0000
0000
0100
0000
0000
0010
0000
1000
,
0100
0000
0010
0001
0000
0010
0001
0000
0000
0100
0000
0000
0010
0000
0000
0100
0000
0000
0001
0000
0000
1000
0000
0100
,
1000
0000
0001
0100
0000
0001
0010
0000
0000
0100
0000
0000
1000
0000
0000
0010
0000
0000
0100
0000
0000
0001
0000
1000
,
0100
0000
1000
0010
0000
0100
0001
0000
0000
0010
0000
0000
0100
0000
0000
1000
0000
0000
0001
0000
0000
0100
0000
0010
,
1000
0000
0100
0010
0000
0001
1000
0000
0000
0010
0000
0000
0100
0000
0000
0001
0000
0000
0010
0000
0000
0100
0000
1000
,
0020
0000
0230
0000
0302
0000
0000
1003
,
1100
0000
0000
0000
0101
0000
0000
0000
1010
0000
0000
0000
0011
0000
0000
0000
1000
0000
0001
0000
1000
0000
0001
0000
1000
0000
0001
0000
1000
0001
1000
0001
,
1000
0000
0010
0000
0100
0000
0001
0010
0000
0001
0010
0000
0100
0000
1000
0000
,
0010
0000
0100
0000
0001
0000
1000
0100
0000
1000
0100
0000
0010
0000
0001
0000
,
0100
0000
1000
0000
0100
0000
0010
1000
0000
0010
1000
0000
0100
0000
0010
0000
,
0001
0000
0100
0000
0010
0000
0100
0001
0000
0100
0001
0000
0010
0000
0100
0000
,
1100
0000
1000
0000
0010
0000
0100
0001
0000
0100
0001
0000
0010
0000
0100
0000
,
1000
0000
0001
0000
0100
0000
0010
1000
0000
0010
1000
0000
0100
0000
0010
0000
,
0100
0000
1000
0000
0010
0000
0100
0001
0000
0010
0001
0000
0100
0000
0010
0000
,
1000
0000
0100
0000
0001
0000
0100
0010
0000
0001
0100
0000
0010
0000
0100
0000
,
0101
0000
0001
0000
1001
0000
1000
0100
0000
0100
1000
0000
0010
0000
0100
0000
,
0001
0000
0010
0000
0100
0000
1000
0010
0000
0010
1000
0000
0100
0000
0010
0000
,
0011
0000
0001
0000
0101
0000
0100
0010
0000
0010
0100
0000
0001
0000
0010
0000
,
0100
0000
1000
0000
0010
0000
0100
0001
0000
0001
1000
0000
0100
0000
0010
0000
,
0011
0000
0001
0000
0101
0000
0100
0010
0000
0010
0100
0000
0001
0000
0010
0000
,
0100
0000
0000
0000
0000
0000
1000
0000
0000
0000
0000
0000
0010
0000
0000
0000
0000
0000
0100
0000
0000
0001
0000
0000
0000
0000
0000
0001
0000
0000
1000
0000
0000
0000
0000
0000
0100
0000
0000
0000
0010
0000
0000
0000
0000
0000
0000
0000
,
0001
0100
0001
0100
0010
1000
0010
1000
,
0001
0010
1000
0010
0001
0100
0010
1000
,
0001
0000
0010
0000
0110
0000
1000
0001
0000
1000
0001
0000
0100
0000
0010
0000
,
0100
0000
0001
0000
0011
0000
0100
1000
0000
0100
1000
0000
0001
0000
0100
0000
,
1000
0000
0100
0000
0101
0000
0100
0010
0000
0100
0010
0000
0010
0000
1000
0000
,
0010
0000
0001
0000
0011
0000
0010
1000
0000
0010
1000
0000
0001
0000
0010
0000
,
1000
0000
0010
0000
0011
0000
0100
1000
0000
0100
1000
0000
0100
0000
0010
0000
,
0001
0000
0100
0000
0101
0000
0001
0100
0000
0001
0100
0000
1000
0000
0100
0000
,
0001
0000
0010
0000
1100
0000
0010
0001
0000
0010
0001
0000
0100
0000
0010
0000
,
0100
0000
0001
0000
0101
0000
0010
1000
0000
0010
1000
0000
0001
0010
0100
0010
,
0001
0100
0010
1000
0001
0100
0010
0100
,
0001
0010
0100
1000
0001
0100
1000
0100
,
0001
0010
1000
0010
0001
0100
0010
0100
,
0001
0010
1000
0001
0100
1000
0010
0100
,
0001
0100
1000
0001
0010
1000
0001
0010
,
0100
0001
0100
1000
0001
0100
0010
0100
,
0001
0010
0100
1000
0010
0100
0001
0010
,
0100
1000
0001
0100
0010
0100
0001
1000
,
0200
0000
0300
0000
;
