#TITLE:Canterlot Tame no Tatakai;
#SUBTITLE:;
#ARTIST:fractilx underground;
#TITLETRANSLIT:;
#SUBTITLETRANSLIT:;
#ARTISTTRANSLIT:;
#GENRE:Hyper;
#CREDIT:;
#BANNER:Canterlot Tame no Tatakai.png;
#BACKGROUND:Canterlot Tame no Tatakai-bg.png;
#LYRICSPATH:;
#CDTITLE:;
#MUSIC:Canterlot Tame no Tatakai.mp3;
#OFFSET:-0.035825;
#SAMPLESTART:18.480000;
#SAMPLELENGTH:15.000000;
#SELECTABLE:YES;
#BPMS:0.000000=182.000000
,156.000000=22.750000
,160.000000=45.500000
,168.000000=91.000000
,184.000000=45.500000
,185.000000=364.000000
,377.000000=182.000000
;
#STOPS:
;
#BGCHANGES:;
#KEYSOUNDS:;
#ATTACKS:;

//---------------dance-single - ----------------
#NOTES:
     dance-single:
     :
     Beginner:
     6:
     0.175001,0.534633,0.082165,0.022409,0.000000,150.000000,11.000000,3.000000,0.000000,0.000000,0.000000,0.175001,0.534633,0.082165,0.022409,0.000000,150.000000,11.000000,3.000000,0.000000,0.000000,0.000000:
0000
0000
0000
0000
,
0000
0000
0000
0000
,
0000
0010
0000
0010
,
0000
0010
0000
0010
,
0000
0100
0000
0100
,
0000
0100
0000
0100
,
0001
0000
0001
0000
,
0001
0000
0001
0000
,
1000
0000
1000
0000
,
1000
0000
1000
0000
,
0100
0000
0100
0000
,
0100
0000
0100
0000
,
0010
0000
0010
0000
,
0010
0000
0020
0000
,
0030
0000
0001
0000
,
0001
0000
0001
0000
,
1000
0000
1000
0000
,
1000
0000
1000
0000
,
0010
0000
0010
0000
,
0010
0000
0010
0000
,
0100
0000
0100
0000
,
0100
0000
0100
0000
,
0001
0000
0001
0000
,
0001
0000
0001
0000
,
1000
0000
1000
0000
,
1000
0000
1000
0000
,
0010
0000
0010
0000
,
0010
0000
0010
0000
,
0110
0000
0010
0000
,
0010
0000
0010
0000
,
1000
0000
1000
0000
,
1000
0000
1000
0000
,
0001
0000
0001
0000
,
0001
0000
0001
0000
,
0100
0000
0100
0000
,
0100
0000
0100
0000
,
0110
0000
0100
0000
,
0100
0000
0100
0000
,
0110
0000
0000
0110
,
0110
1000
0100
0100
,
1000
0000
1001
0000
,
0001
0000
1001
0000
,
1000
0000
1100
0000
,
0100
0000
0110
0000
,
0010
0011
0001
0101
,
0001
0100
0010
1000
0001
0010
0100
1000
,
0002
1003
0000
0000
,
0000
1000
0000
0000
,
0000
1000
0000
0000
,
0000
0000
0000
0000
,
0000
0001
0000
0000
,
0000
0001
0000
0000
,
0000
0001
0000
0000
,
0000
0000
0000
0000
,
0000
0010
0000
0000
,
0000
0010
0000
0000
,
0000
0010
0000
0000
,
0000
0000
0000
0000
,
0000
0100
0000
0000
,
0000
0100
0000
0000
,
0000
0100
0000
0000
,
0000
0000
0000
0000
,
0000
1000
0000
0000
,
0000
1000
0000
0000
,
0000
1000
0000
0000
,
0000
0000
0000
0000
,
0000
0001
0000
0000
,
0000
0001
0000
0000
,
0000
0001
0000
0000
,
0000
0000
0000
0000
,
0000
0100
0000
0000
,
0000
0100
0000
0000
,
0000
0100
0000
0000
,
0000
0000
0000
0000
,
0000
0010
0000
0000
,
0000
0010
0000
0000
,
0000
0010
0000
0000
,
0000
0000
0000
0000
,
0000
1000
0000
0000
,
0000
0001
0000
0000
,
0000
1000
0000
0000
,
0000
0000
0000
0000
,
0000
0010
0000
0000
,
0000
0100
0000
0000
,
0000
0010
0000
0000
,
0000
0000
0000
0000
,
0000
1000
0000
0000
,
0000
0100
0000
0000
,
0000
0010
0000
0000
,
0000
0000
0000
0000
,
0000
0001
0000
0000
,
0000
0010
0000
0000
,
0000
0100
0000
0000
,
0000
0000
0000
0000
,
0000
1000
0000
1000
,
0000
1000
0000
1000
,
0000
0001
0000
0001
,
0000
0001
0000
0001
,
0000
0010
0000
0010
,
0000
0010
0000
0010
,
0000
0100
0000
0100
,
0000
0200
0000
0000
,
0000
0310
0000
0000
;

//---------------dance-single - ----------------
#NOTES:
     dance-single:
     :
     Easy:
     10:
     0.296648,0.649197,0.044817,0.022409,0.056022,269.000000,6.000000,3.000000,0.000000,0.000000,0.000000,0.296648,0.649197,0.044817,0.022409,0.056022,269.000000,6.000000,3.000000,0.000000,0.000000,0.000000:
0000
0000
0000
0000
,
0000
0000
0000
0000
,
0000
1000
0000
1000
,
0000
0001
0000
0001
,
0000
0010
0000
0010
,
0000
0100
0000
0100
,
1000
1000
1000
1000
,
0001
0001
0001
0001
,
0100
0100
0100
0100
,
0010
0010
0010
0010
,
1000
1000
1000
1000
,
0100
0100
0100
0100
,
0010
0010
0010
0010
,
0001
0001
0002
0000
,
1003
0001
0100
0001
,
1000
0001
0100
0001
,
0010
0100
1000
0100
,
0010
0100
1000
0100
,
1000
0010
0100
0010
,
1000
0010
0100
0010
,
0100
0001
0010
0001
,
0100
0001
0010
0001
,
1000
0001
0100
0001
,
1000
0001
0100
0001
,
1000
0100
0010
0100
,
1000
0100
0010
0100
,
0010
0001
0100
0001
,
0010
0001
0100
0001
,
1000
0100
1000
0010
,
1000
0100
1000
0010
,
0100
0100
0001
0001
,
1000
1000
0100
0100
,
0010
0010
0100
0100
,
1000
1000
0001
0001
,
0100
0100
1000
1000
,
0010
0010
0001
0001
,
0100
0100
1000
1000
,
0010
0010
0001
0001
,
1001
0000
0000
0110
,
0110
1010
0101
0101
,
0000
0000
0001
0000
0000
0000
0001
0000
0000
0000
1000
0000
0000
1000
0000
0000
0000
0000
0100
0000
0000
0000
0100
0000
0000
0000
0010
0000
0000
0000
0010
0000
,
0000
0000
0001
0000
0000
0000
0001
0000
0100
0000
0000
0000
0100
0000
0000
0000
0010
0000
0000
1000
0000
0000
0010
0000
0000
0000
1000
0000
0000
0000
1000
0000
,
0000
0001
0000
0001
0000
0010
0000
0010
,
0000
0100
0000
0100
1000
0000
1000
0000
,
0001
0001
0100
0100
,
0010
0000
0000
1000
0000
0000
0010
0000
0000
0000
1000
0000
0000
0000
1000
0000
,
0002
0003
0000
0001
,
0000
0000
0000
0001
,
0000
0000
0000
1000
,
0000
0000
1000
0000
,
0000
0000
0000
0010
,
0000
0000
0000
0010
,
0000
0000
0000
0100
,
0000
0000
0000
0000
,
0100
0000
0000
0001
,
0000
0000
0000
0010
,
0000
0000
0000
0001
,
0000
0000
0000
0100
,
0000
1000
0000
0000
,
0001
0000
0000
1000
,
0000
0000
0000
0100
,
0000
0000
0000
0100
,
0000
0000
0000
0010
,
0000
0000
0000
0010
,
0000
0000
0000
1000
,
0000
0000
0001
0000
,
0000
0000
0000
0010
,
0000
0000
0000
0010
,
0000
0000
0000
0001
,
0000
0000
0000
0000
,
1000
0000
0000
0100
,
0000
0000
0000
0100
,
0000
0000
0000
1000
,
0000
0000
0000
0001
,
0000
0100
0000
0000
,
0010
0000
0000
0100
,
0000
0000
0000
0001
,
0000
0000
0000
0001
,
0000
1000
0000
1000
,
0000
1000
0000
1000
,
0000
0001
0000
0001
,
0000
0001
0000
0001
,
0000
0010
0000
0010
,
0000
0010
0000
0010
,
0000
0100
0000
0100
,
0000
0100
0000
0100
,
0000
1000
0000
0100
,
0000
0010
0000
0001
,
0000
1000
0000
0100
,
0000
0010
0000
0001
,
0000
1000
0000
0000
,
0010
0000
0000
0100
,
0000
0000
0000
0001
,
0000
0001
0000
1000
,
0000
0100
0010
0100
,
0010
0001
1000
0001
,
1000
0010
0001
0010
,
0001
1000
0100
1000
,
0100
0001
0100
1000
,
0100
0001
0010
1000
,
0010
0000
0001
0000
0000
1000
0000
0000
,
0001
0020
0000
0000
,
0000
0130
0000
0000
;

//---------------dance-single - ----------------
#NOTES:
     dance-single:
     :
     Hard:
     17:
     0.783235,1.000000,0.448173,0.141921,0.328660,655.000000,60.000000,19.000000,0.000000,0.000000,0.000000,0.783235,1.000000,0.448173,0.141921,0.328660,655.000000,60.000000,19.000000,0.000000,0.000000,0.000000:
0000
0000
0000
0000
,
0000
0000
0000
0000
,
0010
0010
1000
0010
1000
1000
0001
0010
,
0001
0001
0010
0001
0100
0100
0001
0100
,
0010
0010
0100
0010
1000
1000
0100
1000
,
0100
0100
0010
0100
0010
0010
0001
0010
,
0001
0100
0001
0100
1000
0100
1000
0100
,
0001
0010
0001
0010
1000
0010
1000
0010
,
0100
0010
0100
0010
0001
1000
0001
1000
,
0010
0000
0100
0000
0010
0000
0100
0001
0000
0001
1000
0000
0001
0000
1000
0000
,
0100
0010
0100
1000
0010
0100
0010
0001
,
1000
0100
0001
0100
0001
0010
0100
1000
,
0001
1000
0010
1000
0001
0100
0010
0100
,
0001
0000
0010
0000
0100
0000
0010
0001
0000
0001
2000
0000
0000
0000
0000
0000
,
3010
1000
0100
1000
0010
1000
0100
1000
,
0001
0010
0100
0010
0001
0010
0100
0010
,
0001
1000
0100
1000
0001
1000
0100
1000
,
0010
0000
0100
0000
0001
0000
0100
0010
0000
0010
0100
0000
0001
0000
0100
0000
,
0010
1000
0001
1000
0100
1000
0001
1000
,
0010
1000
0001
1000
0100
1000
0001
1000
,
0100
0001
1000
0001
0010
0001
1000
0001
,
0100
0000
0001
0000
1000
0000
0001
0010
0000
0010
0001
0000
1000
0000
0001
0000
,
0100
1000
0100
1000
0010
1000
0010
1000
,
0001
0010
0001
0010
0100
0010
0100
0010
,
0001
1000
0001
1000
0010
0100
0010
0100
,
0001
0000
0010
0000
0001
0000
0010
0100
0000
0100
1000
0000
0100
0000
1000
0000
,
0010
1000
0100
1000
0010
0100
0001
0100
,
0001
0010
0100
1000
0010
1000
0001
0100
,
0001
0010
0100
0010
0001
0100
0010
0100
,
0001
0000
1000
0000
0100
0000
1000
0001
0000
0001
0100
0000
0010
0000
0100
0000
,
0001
0000
1000
0000
0100
0000
1000
0010
0000
0010
0100
0000
0001
0000
0000
0000
,
1000
0000
0001
0000
0100
0000
0001
0010
0000
0010
0100
0000
1000
0000
0000
0000
,
0010
0000
1000
0000
0100
0000
0010
0100
0000
0100
0010
0000
0001
0000
0000
0000
,
0011
0001
0100
0110
0010
1000
1010
0000
,
1000
0000
0001
0000
0100
0000
0010
0100
0000
0100
0001
0000
0010
0000
0001
0000
,
1000
0000
0001
0000
0100
0000
0010
0100
0000
0100
0001
0000
1000
0000
0000
0000
,
0100
0000
0010
0000
0100
0000
1000
0001
0000
0001
0100
0000
0010
0000
1000
0000
,
1100
0100
0010
0110
0010
0001
0201
0000
,
0310
0000
0000
1001
,
2002
0000
0000
0000
0000
0000
0000
3003
2200
0000
0000
0000
0000
0000
0000
3300
0220
0000
0000
0000
0000
0000
0000
0330
0022
0000
0000
0000
0000
0000
0000
0033
,
0001
0010
0100
1000
0000
0100
1000
0010
1000
0010
0100
0001
0000
0001
0000
0001
1001
1000
0100
2000
0000
0000
3010
0000
1000
0001
0010
0200
0000
0000
0310
0000
,
0110
0100
1000
0001
0000
0100
0001
0100
0010
0000
1010
0000
1100
0000
0101
0000
0200
0000
0000
0310
0000
0000
0100
1000
0000
0001
0000
0100
0000
0010
0200
0000
,
0301
0100
0010
0100
0001
0100
0010
0100
1001
1000
0100
1000
0001
1000
0100
1000
,
1010
0100
0001
0100
0010
0100
0001
0100
0011
0010
0100
1000
0001
0010
0100
1000
,
1001
0001
0100
0001
1001
1000
0100
1000
1100
0000
0110
0000
0011
0000
0101
0000
,
0110
0000
0000
0000
1010
0000
0100
0000
1010
0000
0000
0000
1001
0000
0100
0000
0001
0000
0010
0000
0100
0000
1000
0000
0001
0010
0001
0010
0100
1000
0100
1000
,
0002
0103
0001
1000
,
0001
0010
0100
1000
,
0100
1000
0010
0100
,
0001
1000
1100
1100
,
0100
0010
0100
1000
,
0100
0010
1000
0010
,
0001
0100
0001
0100
,
0010
1000
0001
1000
,
1010
0010
0100
0110
,
0100
0001
0000
0001
1000
0000
0100
0000
,
0010
0110
0100
1100
,
1100
0000
1000
0001
1000
0000
0001
0000
,
0100
0010
1000
1010
,
1000
0001
0011
0011
,
0010
0100
0010
0110
,
0100
0000
1000
0000
0001
0000
0100
0001
,
0100
0010
1000
0000
0001
0000
1000
0000
,
0100
0001
1000
0001
,
0100
0010
0100
0110
,
0100
1000
1001
1001
,
0001
0100
0010
1000
,
0010
1000
0001
0010
,
0001
0100
0010
0110
,
0010
1000
0001
0010
,
0011
0001
0100
0101
,
0100
0010
0000
0010
1000
0000
1001
0000
,
0001
0011
0010
0110
,
0110
0000
0100
1000
0100
0000
1100
0000
,
1100
1000
0001
1001
,
0001
0100
0101
0101
,
0100
0010
1000
1010
,
1000
0000
0001
0000
0001
0000
0010
0100
,
0010
0100
0010
0000
0100
0000
0010
0000
,
0100
1000
0001
1000
,
0001
0100
0010
0100
,
0010
1000
0001
1000
,
0001
0010
0001
0100
,
1000
0001
0010
1000
,
0100
0010
0100
1000
,
0001
0100
0010
1000
,
0001
0010
0001
0010
,
0001
1000
0100
1000
,
0100
0010
0001
0100
,
1000
0001
1000
0100
,
0001
1000
0100
1000
,
0100
0010
0100
0010
,
0001
0100
0010
0100
,
0010
0000
1000
0001
0000
0001
1000
0001
,
1000
0001
1000
0100
1000
0100
0000
0010
,
0100
1000
0001
0100
0001
0100
0000
0110
,
0000
0110
0010
1000
0001
0020
0000
0000
,
0130
0000
0010
0001
0100
0020
0000
0000
,
1030
0000
0010
0010
1000
1000
0001
0001
,
0010
0010
0100
0100
0010
0010
0001
0001
,
1000
1000
0010
0010
0100
0100
0001
0001
,
1000
1000
0220
0000
0000
0000
0000
0000
,
0330
1001
0000
0000
;

//---------------dance-single - ----------------
#NOTES:
     dance-single:
     :
     Medium:
     12:
     0.568752,1.000000,0.179269,0.149391,0.205412,489.000000,24.000000,20.000000,0.000000,0.000000,0.000000,0.568752,1.000000,0.179269,0.149391,0.205412,489.000000,24.000000,20.000000,0.000000,0.000000,0.000000:
// measure 0
0000
0000
0000
0000
,  // measure 1
0000
0000
0000
0000
,  // measure 2
0000
1100
0000
0101
,  // measure 3
0000
1010
0000
0011
,  // measure 4
0000
1100
0000
0101
,  // measure 5
0000
1010
0000
0011
,  // measure 6
0001
0010
0001
0000
0100
0001
0100
0000
,  // measure 7
1000
0100
1000
0000
0010
1000
0010
0000
,  // measure 8
0001
0010
0001
0000
1000
0001
1000
0000
,  // measure 9
0001
0100
0001
0000
0100
0010
0100
0000
,  // measure 10
0001
0100
0001
0000
1000
0100
1000
0000
,  // measure 11
0001
0010
0001
0000
1000
0010
1000
0000
,  // measure 12
0001
1000
0001
0000
1000
0100
1000
0000
,  // measure 13
0100
0010
0100
0000
0010
0002
0000
0000
,  // measure 14
1003
0001
0100
0000
0001
1000
0010
0000
,  // measure 15
1000
0100
0010
0000
0100
1000
0010
0000
,  // measure 16
0100
0001
0010
0000
0001
0100
0010
0000
,  // measure 17
0100
0001
1000
0000
0001
1000
0010
0000
,  // measure 18
1000
0010
0001
0000
1000
0100
0001
0000
,  // measure 19
1000
0010
0001
0000
1000
0100
0001
0000
,  // measure 20
0001
0010
1000
0000
0001
0100
1000
0000
,  // measure 21
0001
0010
1000
0000
0001
0100
1000
0000
,  // measure 22
0100
0010
0001
0000
0100
0010
0100
0000
,  // measure 23
0001
0010
0100
0000
0010
0100
0010
0000
,  // measure 24
0100
1000
0010
0000
0100
0010
0100
0000
,  // measure 25
0010
1000
0100
0000
0010
0100
0010
0000
,  // measure 26
0100
1000
0001
0000
0100
1000
0100
0000
,  // measure 27
0001
0010
0100
0000
1000
0100
1000
0000
,  // measure 28
0100
0010
0001
0000
0100
1000
0100
0000
,  // measure 29
0001
1000
0001
0000
1000
0100
1000
0000
,  // measure 30
0100
0010
0100
0010
0100
0010
0100
0000
,  // measure 31
1000
0001
1000
0001
1000
0001
1000
0000
,  // measure 32
0001
0100
0001
0100
0001
0100
0001
0000
,  // measure 33
1000
0010
1000
0010
1000
0010
1000
0000
,  // measure 34
0001
0010
0001
0010
0001
0010
0001
0000
,  // measure 35
1000
0100
1000
0100
1000
0100
1000
0000
,  // measure 36
0001
1000
0001
1000
0001
1000
0001
0000
,  // measure 37
0100
0010
0100
0010
0100
0010
0100
0000
,  // measure 38
0110
0000
0000
1001
,  // measure 39
2002
3003
2200
3300
0220
0330
0022
0033
,  // measure 40
0000
0001
0010
0001
0000
0100
0010
0100
0000
0010
1000
0010
0000
1000
0000
1000
0001
0010
0100
2000
0000
0000
3010
0000
1000
0010
0100
0002
0000
0000
1003
0000
,  // measure 41
0001
1000
0100
1000
0000
0100
1000
0010
0100
0000
0010
0000
1000
0000
0001
0000
1001
0000
0000
0001
0000
0000
0010
0100
0000
1000
0000
0001
0000
0100
0010
0000
,  // measure 42
1000
0010
0100
0001
0000
1000
0100
1000
0001
1000
0010
0100
0000
0100
0000
0100
,  // measure 43
0001
0010
0100
2000
0000
0000
3010
0000
1000
0010
0100
0020
0000
0000
0130
0000
,  // measure 44
0010
1000
0001
0010
0000
0100
0010
0001
0100
0000
0010
0000
1000
0000
0001
0000
,  // measure 45
1001
0000
0000
0010
0000
0000
1000
0010
0000
0100
0000
0001
0000
1000
0002
0000
,  // measure 46
0000
1003
0001
1000
,  // measure 47
0001
0000
0010
0001
,  // measure 48
0010
0100
0010
0100
,  // measure 49
0010
0000
0010
0000
,  // measure 50
0010
0001
0010
0100
,  // measure 51
2000
0000
0000
3001
,  // measure 52
0000
1000
0010
0100
,  // measure 53
0002
0000
0000
1003
,  // measure 54
0000
0001
1000
0100
,  // measure 55
1000
0000
0100
0010
,  // measure 56
0100
1000
0000
1100
,  // measure 57
0000
0110
0000
0011
,  // measure 58
0000
1001
0000
0000
,  // measure 59
0010
0000
0000
1000
,  // measure 60
0010
0000
0100
0000
,  // measure 61
0010
0000
1000
0001
,  // measure 62
0000
0010
0100
0010
,  // measure 63
0100
0000
1000
0100
,  // measure 64
1000
0100
1000
0001
,  // measure 65
0100
0000
0100
0000
,  // measure 66
0100
0010
0100
0010
,  // measure 67
0200
0000
0000
0301
,  // measure 68
0000
0100
0001
0010
,  // measure 69
0002
0000
0000
0013
,  // measure 70
0000
0001
0010
0100
,  // measure 71
1000
0000
1000
0001
,  // measure 72
1000
0010
0000
0110
,  // measure 73
0000
1010
0000
1001
,  // measure 74
0000
0002
0000
0000
,  // measure 75
0013
0000
0000
0001
,  // measure 76
0010
0000
0100
0000
,  // measure 77
0010
0000
0001
1000
,  // measure 78
0000
0010
1000
0010
,  // measure 79
1000
0010
1000
0010
,  // measure 80
0000
1000
0001
1000
,  // measure 81
0001
1000
0001
1000
,  // measure 82
0000
0001
0010
0001
,  // measure 83
0010
0001
0010
0001
,  // measure 84
0000
0010
0100
0010
,  // measure 85
0100
0010
0100
0010
,  // measure 86
0000
0100
1000
0100
,  // measure 87
1000
0100
1000
0100
,  // measure 88
0000
1000
0001
1000
,  // measure 89
0001
1000
0001
1000
,  // measure 90
0000
0001
0100
0001
,  // measure 91
0100
0001
0100
0001
,  // measure 92
0000
0100
0010
0100
,  // measure 93
0010
0100
0010
0100
,  // measure 94
0000
0000
0001
0010
0001
0010
0001
0010
,  // measure 95
0001
0000
1000
0010
1000
0010
1000
0010
,  // measure 96
1000
0000
0001
0100
0001
0100
0001
0100
,  // measure 97
0001
0000
1000
0100
1000
0100
1000
0100
,  // measure 98
1000
0000
0100
1000
0010
0100
0001
0010
,  // measure 99
0100
1000
0001
0100
1000
0100
0001
0010
,  // measure 100
1000
0010
0001
0010
0100
1000
0010
0100
,  // measure 101
0010
0100
0002
0000
0000
0000
0000
0000
,  // measure 102
0003
1001
0000
0000
;
