#TITLE:Call Upon the Seaponies (EuroSHOOBEDOO Mix);
#SUBTITLE:;
#ARTIST:Eurobeat Brony;
#GENRE:Eurobeat;
#TITLETRANSLIT:;
#SUBTITLETRANSLIT:;
#ARTISTTRANSLIT:;
#CREDIT:;
#BANNER:Call Upon the Seaponies (EuroSHOOBEDOO Mix).png;
#BACKGROUND:Call Upon the Seaponies (EuroSHOOBEDOO Mix)-bg.png;
#LYRICSPATH:;
#CDTITLE:;
#MUSIC:Call Upon the Seaponies (EuroSHOOBEDOO Mix).mp3;
#OFFSET:-0.065;
#SAMPLESTART:13.780;
#SAMPLELENGTH:15.000;
#SELECTABLE:YES;
#BPMS:0.000=157.000;
#STOPS:;
#BGCHANGES:;

//---------------dance-single - ----------------
#NOTES:
     dance-single:
     :
     Hard:
     14:
     0.758,0.781,0.300,0.366,0.468: // measure 1
0000
0000
0000
0000
,  // measure 2
0000
0000
0000
0000
,  // measure 3
0000
0000
0000
0000
,  // measure 4
0000
0000
0000
0000
,  // measure 5
1000
0100
0001
0000
0100
0000
1001
0000
,  // measure 6
1000
0010
0001
0000
0010
0000
1001
0000
,  // measure 7
1100
1000
0001
0000
0101
0001
1000
0000
,  // measure 8
0001
0001
0010
0010
0100
0100
1000
1000
,  // measure 9
0000
0000
0000
0000
,  // measure 10
0002
0000
0000
0000
1003
0010
1000
0010
0200
0000
0000
0000
0301
0000
2000
0000
,  // measure 11
0000
0000
0100
0000
0100
0000
3100
0000
0020
0000
0000
0000
0031
1000
0001
1000
,  // measure 12
0001
0000
0100
0000
1000
0000
0100
0000
0010
0100
0010
0100
0010
0100
0010
0000
,  // measure 13
0100
0001
0010
0100
1000
0000
1001
0000
,  // measure 14
2000
0000
0000
0000
3001
0100
0001
0100
0020
0000
0000
0000
1030
0000
0002
0000
,  // measure 15
0000
0000
0010
0000
0010
0000
0013
0000
0200
0000
0000
0000
1300
0001
1000
0001
,  // measure 16
1000
0000
0010
0000
0001
0000
0010
0000
0100
0010
0100
0010
0100
0010
0100
0000
,  // measure 17
0010
1000
0100
0010
0001
0000
1001
0000
,  // measure 18
0001
0000
0100
0000
1000
0000
0100
0000
0010
0000
0000
0010
0000
0000
0010
0000
,  // measure 19
1000
0100
0001
0100
0020
0000
0031
0000
,  // measure 20
1000
0000
0010
0000
0001
0000
0010
0000
0100
0000
0000
0100
0000
0000
0100
0000
,  // measure 21
0001
0000
0010
0000
1000
0000
0010
0000
0100
0000
1000
0001
0000
1000
0001
0000
,  // measure 22
1000
0000
0100
0000
0001
0000
0100
0000
0010
0000
0000
0001
0000
0000
1000
0000
,  // measure 23
0001
0000
0100
0000
1000
0000
0100
0000
0010
1000
0010
1000
0001
0000
0000
0000
,  // measure 24
1010
1010
0101
0101
,  // measure 25
0001
0010
1000
0100
0002
0000
1003
0000
,  // measure 26
1001
0000
0000
0001
0100
0000
0000
0010
0000
0010
0000
0010
0100
0000
0000
0000
,  // measure 27
0001
0010
1000
0000
0020
0000
0130
0000
,  // measure 28
1000
0000
0100
0010
0100
0000
1000
0000
0002
0000
0000
0000
1003
0000
0000
0000
,  // measure 29
0001
0100
0000
0010
0000
0000
0100
0000
0001
0000
0010
0000
0100
0000
0000
0000
,  // measure 30
1001
0000
0000
1000
0010
0000
0000
0100
0000
0100
0000
0100
0010
0000
0000
0000
,  // measure 31
1000
0100
0001
0000
0200
0000
0310
0000
,  // measure 32
0001
0000
0100
0010
0100
0000
0001
0000
2000
0000
0000
0000
3001
0000
0000
0000
,  // measure 33
1001
0001
0100
0010
1000
0010
0100
0001
,  // measure 34
2000
0000
0000
0000
3001
0100
0001
0100
0020
0000
0000
0000
1030
0000
0002
0000
,  // measure 35
0000
0000
0010
0000
0010
0000
0013
0000
0200
0000
0000
0000
1300
0001
1000
0001
,  // measure 36
1000
0000
0010
0000
0001
0000
0010
0000
0100
0010
0100
0010
0100
0010
0100
0000
,  // measure 37
0010
1000
0100
0010
0001
0000
1001
0000
,  // measure 38
0002
0000
0000
0000
1003
0010
1000
0010
0200
0000
0000
0000
0301
0000
2000
0000
,  // measure 39
0000
0000
0100
0000
0100
0000
3100
0000
0020
0000
0000
0000
0031
1000
0001
1000
,  // measure 40
0001
0000
0100
0000
1000
0000
0100
0000
0010
0100
0010
0100
0010
0100
0010
0000
,  // measure 41
0100
0001
0010
0100
1000
0000
1001
0000
,  // measure 42
1000
0000
0010
0000
0001
0000
0010
0000
0100
0000
0000
0100
0000
0000
0100
0000
,  // measure 43
0001
0010
1000
0010
0200
0000
1300
0000
,  // measure 44
0001
0000
0100
0000
1000
0000
0100
0000
0010
0000
0000
0010
0000
0000
0010
0000
,  // measure 45
1000
0000
0100
0000
0001
0000
0100
0000
0010
0000
0001
1000
0000
0001
1000
0000
,  // measure 46
0001
0000
0010
0000
1000
0000
0010
0000
0100
0000
0000
1000
0000
0000
0001
0000
,  // measure 47
1000
0000
0010
0000
0001
0000
0010
0000
0100
0001
0100
0001
1000
0000
0000
0000
,  // measure 48
0101
0101
1010
1010
,  // measure 49
1000
0100
0001
0010
2000
0000
3001
0000
,  // measure 50
1001
0000
0000
1000
0010
0000
0000
0100
0000
0100
0000
0100
0010
0000
0000
0000
,  // measure 51
1000
0100
0001
0000
0200
0000
0310
0000
,  // measure 52
0001
0000
0010
0100
0010
0000
0001
0000
2000
0000
0000
0000
3001
0000
0000
0000
,  // measure 53
1000
0010
0000
0100
0000
0000
0010
0000
1000
0000
0100
0000
0010
0000
0000
0000
,  // measure 54
1002
0100
1003
0000
2001
0100
3001
0000
,  // measure 55
1001
0000
0001
0000
0011
0000
0001
0000
1001
0000
1000
0000
0010
0100
0010
0100
,  // measure 56
0001
0000
1000
0000
0100
0000
0001
0000
0100
0000
0000
1000
0000
0000
0010
0000
,  // measure 57
0100
0000
0001
0000
0010
0000
0100
1000
0000
0000
0001
1000
0000
1001
0000
0000
,  // measure 58
1000
0000
0010
0000
0001
0000
0010
0000
0100
0000
0000
0001
0000
0000
1000
0000
,  // measure 59
0100
0000
0001
0000
0100
0000
1000
0000
0010
0000
0100
0001
0000
1000
0100
0000
,  // measure 60
0010
0000
0001
0000
0100
0000
1000
0000
0100
0000
0000
0010
0000
0000
1000
0000
,  // measure 61
0001
0000
0010
0000
1000
0000
0010
0000
0001
1000
0100
0010
0001
0000
0000
0000
,  // measure 62
1100
0011
0101
1010
,  // measure 63
0102
0013
2100
3010
,  // measure 64
1100
0011
0101
1010
,  // measure 65
1001
0000
0001
1000
0000
0001
1000
0000
0010
0000
0100
0010
0000
0100
0010
0000
,  // measure 66
1000
0100
1000
0100
1000
0100
0000
0000
0010
0000
0000
0001
0100
0001
0100
0001
,  // measure 67
0100
0000
0010
1000
0000
0010
1000
0000
0001
0000
0010
0001
0000
0010
0001
0000
,  // measure 68
1000
0100
1000
0000
0100
0000
0010
0000
0001
0010
0001
0000
0100
0000
0010
0000
,  // measure 69
1000
0000
0001
0100
0000
0001
1000
0000
0001
0000
1000
0100
0000
1000
0001
0000
,  // measure 70
1000
0100
1000
0000
0100
0000
0001
0000
0100
1000
0100
0000
1000
0001
1000
0000
,  // measure 71
0001
0000
0100
0010
0000
1000
0010
0000
1000
0000
0100
0010
0000
0001
0010
0000
,  // measure 72
0100
1000
0010
0001
0010
0100
0001
1000
,  // measure 73
0002
0000
0000
0000
1003
0010
1000
0010
0200
0000
0000
0000
0301
0000
2000
0000
,  // measure 74
0000
0000
0100
0000
0100
0000
3100
0000
0020
0000
0000
0000
0031
1000
0001
1000
,  // measure 75
0001
0000
0100
0000
1000
0000
0100
0000
0010
0100
0010
0100
0010
0100
0010
0000
,  // measure 76
0100
0001
0010
0100
1000
0000
1001
0000
,  // measure 77
2000
0000
0000
0000
3001
0100
0001
0100
0020
0000
0000
0000
1030
0000
0002
0000
,  // measure 78
0000
0000
0010
0000
0010
0000
0013
0000
0200
0000
0000
0000
1300
0001
1000
0001
,  // measure 79
1000
0000
0010
0000
0001
0000
0010
0000
0100
0010
0100
0010
0100
0010
0100
0000
,  // measure 80
0010
1000
0100
0010
0002
0000
1003
0000
,  // measure 81
2001
0000
0000
0000
3001
0100
0001
0100
0020
0000
0000
0000
1030
0000
0002
0000
,  // measure 82
0000
0000
0010
0000
0010
0000
0013
0000
0200
0000
0000
0000
1300
0001
1000
0001
,  // measure 83
1000
0000
0010
0000
0001
0000
0010
0000
0100
0010
0100
0010
0100
0010
0100
0000
,  // measure 84
0010
1000
0100
0010
0001
0000
1001
0000
,  // measure 85
0002
0000
0000
0000
1003
0010
1000
0010
0200
0000
0000
0000
0301
0000
2000
0000
,  // measure 86
0000
0000
0100
0000
0100
0000
3100
0000
0020
0000
0000
0000
0031
1000
0001
1000
,  // measure 87
0001
0000
0100
0000
1000
0000
0100
0000
0010
0100
0010
0100
0010
0100
0010
0000
,  // measure 88
0100
0001
0010
0100
2000
0000
3001
0000
,  // measure 89
2002
0000
0000
0000
,  // measure 90
3003
0000
0000
0000
;

//---------------dance-single - ----------------
#NOTES:
     dance-single:
     :
     Beginner:
     4:
     0.154,0.225,0.007,0.000,0.000: // measure 1
0000
0000
0000
0000
,  // measure 2
0000
0000
0000
0000
,  // measure 3
0000
0000
0000
0000
,  // measure 4
1000
0000
0000
0000
,  // measure 5
0001
0000
0000
0000
,  // measure 6
0100
0000
0000
0000
,  // measure 7
0010
0000
0000
0000
,  // measure 8
0000
0000
0000
0000
,  // measure 9
1000
0000
0000
0000
,  // measure 10
0100
0000
0000
0000
,  // measure 11
0010
0000
0000
0000
,  // measure 12
0001
0000
0001
0000
,  // measure 13
0001
0000
0000
0000
,  // measure 14
0100
0000
0000
0000
,  // measure 15
0010
0000
0000
0000
,  // measure 16
1000
0000
1000
0000
,  // measure 17
1000
0000
0000
0000
,  // measure 18
0001
0000
0001
0000
,  // measure 19
0001
0000
0001
0000
,  // measure 20
1000
0000
1000
0000
,  // measure 21
1000
0000
1000
0000
,  // measure 22
0010
0000
0010
0000
,  // measure 23
0010
0000
0010
0000
,  // measure 24
0100
0000
0100
0000
,  // measure 25
0100
0000
0100
0000
,  // measure 26
0001
0000
0001
0000
,  // measure 27
0001
0000
0000
0000
,  // measure 28
1000
0000
1000
0000
,  // measure 29
1000
0000
0000
0000
,  // measure 30
0010
0000
0010
0000
,  // measure 31
0010
0000
0000
0000
,  // measure 32
0100
0000
0100
0000
,  // measure 33
0100
0000
0000
0000
,  // measure 34
0010
0000
0000
0000
,  // measure 35
0100
0000
0000
0000
,  // measure 36
1000
0000
1000
0000
,  // measure 37
1000
0000
0000
0000
,  // measure 38
0010
0000
0000
0000
,  // measure 39
0100
0000
0000
0000
,  // measure 40
0001
0000
0001
0000
,  // measure 41
0001
0000
0000
0000
,  // measure 42
1000
0000
1000
0000
,  // measure 43
1000
0000
1000
0000
,  // measure 44
0001
0000
0001
0000
,  // measure 45
0001
0000
0001
0000
,  // measure 46
0100
0000
0100
0000
,  // measure 47
0100
0000
0100
0000
,  // measure 48
0010
0000
0010
0000
,  // measure 49
0010
0000
0010
0000
,  // measure 50
1000
0000
1000
0000
,  // measure 51
1000
0000
0000
0000
,  // measure 52
0001
0000
0001
0000
,  // measure 53
0001
0000
0000
0000
,  // measure 54
1000
0000
0100
0000
,  // measure 55
0010
0000
0001
0000
,  // measure 56
1000
0000
1000
0000
,  // measure 57
0010
0000
0010
0000
,  // measure 58
0100
0000
0100
0000
,  // measure 59
0001
0000
0001
0000
,  // measure 60
1000
0000
1000
0000
,  // measure 61
0100
0000
0100
0000
,  // measure 62
0010
0000
0010
0000
,  // measure 63
0001
0000
0001
0000
,  // measure 64
0100
0000
0100
0000
,  // measure 65
0010
0010
0010
0000
,  // measure 66
0010
0000
0010
0000
,  // measure 67
0100
0100
0100
0000
,  // measure 68
0100
0000
0100
0000
,  // measure 69
0001
0001
0001
0000
,  // measure 70
0001
0000
0001
0000
,  // measure 71
1000
1000
1000
0000
,  // measure 72
1000
0000
1000
0000
,  // measure 73
0001
0000
0000
0000
,  // measure 74
0010
0000
0000
0000
,  // measure 75
0100
0000
0100
0000
,  // measure 76
0100
0000
0000
0000
,  // measure 77
1000
0000
0000
0000
,  // measure 78
0010
0000
0000
0000
,  // measure 79
0100
0000
0100
0000
,  // measure 80
0100
0000
0000
0000
,  // measure 81
0001
0000
0001
0000
,  // measure 82
1000
0000
1000
0000
,  // measure 83
0010
0000
0010
0000
,  // measure 84
0100
0100
0100
0000
,  // measure 85
0001
0000
0001
0000
,  // measure 86
0010
0000
0010
0000
,  // measure 87
0100
0000
0100
0000
,  // measure 88
1000
1000
1000
0000
,  // measure 89
1001
0000
0000
0000
;

//---------------dance-single - ----------------
#NOTES:
     dance-single:
     :
     Easy:
     6:
     0.334,0.358,0.080,0.015,0.000: // measure 1
0000
0000
0000
0000
,  // measure 2
0000
0000
0000
0000
,  // measure 3
0000
0000
0000
0000
,  // measure 4
0000
0000
0000
0000
,  // measure 5
1000
0100
0010
0001
,  // measure 6
0010
0100
1000
0001
,  // measure 7
1000
0010
0100
0001
,  // measure 8
0100
0010
1000
0001
,  // measure 9
0000
0000
0000
0000
,  // measure 10
1000
0100
0010
0100
,  // measure 11
1000
0001
1000
0000
,  // measure 12
0001
0100
0010
0100
,  // measure 13
0001
1000
0001
0000
,  // measure 14
1000
0010
0001
0010
,  // measure 15
0100
0001
1000
0000
,  // measure 16
0001
0100
1000
0100
,  // measure 17
0010
1000
0001
0000
,  // measure 18
1000
0100
0010
0100
,  // measure 19
1000
1000
1000
0000
,  // measure 20
0001
0100
0010
0100
,  // measure 21
0001
0001
0001
0001
,  // measure 22
1000
0010
0100
0001
,  // measure 23
1000
1000
1000
0000
,  // measure 24
0001
0001
1000
1000
,  // measure 25
0101
1100
1001
0000
,  // measure 26
1000
0010
0100
0100
,  // measure 27
0001
1000
0100
0000
,  // measure 28
0010
0010
0010
0000
,  // measure 29
0100
1000
0001
0100
,  // measure 30
0010
1000
0001
0001
,  // measure 31
1000
0100
0010
0000
,  // measure 32
0001
0001
0001
0000
,  // measure 33
1000
0010
0100
0001
,  // measure 34
1000
0100
0010
0100
,  // measure 35
1000
0001
1000
0000
,  // measure 36
0001
0100
0010
0100
,  // measure 37
0001
1000
0001
0000
,  // measure 38
1000
0010
0001
0010
,  // measure 39
0100
0001
1000
0000
,  // measure 40
0001
0100
1000
0100
,  // measure 41
0010
1000
0001
0000
,  // measure 42
1000
0100
0010
0100
,  // measure 43
1000
1000
1000
0000
,  // measure 44
0001
0100
0010
0100
,  // measure 45
0001
0001
0001
0001
,  // measure 46
1000
0010
0100
0001
,  // measure 47
1000
1000
1000
0000
,  // measure 48
0001
0001
1000
1000
,  // measure 49
0101
1100
1001
0000
,  // measure 50
1000
0010
0100
0100
,  // measure 51
0001
1000
0100
0000
,  // measure 52
0010
0010
0010
0000
,  // measure 53
0100
1000
0001
0100
,  // measure 54
0010
0010
0100
0100
,  // measure 55
1000
0001
1000
0001
,  // measure 56
1000
0100
0010
0001
,  // measure 57
0010
0100
1000
1001
,  // measure 58
0001
0100
0010
1000
,  // measure 59
0010
0100
0001
0001
,  // measure 60
1000
0100
0010
0001
,  // measure 61
0010
0100
1000
1001
,  // measure 62
0001
0001
0100
0100
,  // measure 63
0010
0010
1000
1000
,  // measure 64
0001
0001
0010
0010
,  // measure 65
0100
1000
0010
1000
,  // measure 66
0001
0001
1000
1000
,  // measure 67
0001
0010
0100
0010
,  // measure 68
0001
0001
0100
0100
,  // measure 69
0010
1000
0100
1000
,  // measure 70
0001
0001
0100
0100
,  // measure 71
0010
1000
0100
0010
,  // measure 72
0001
0001
1000
1000
,  // measure 73
0001
0010
0100
0010
,  // measure 74
0001
1000
0001
0000
,  // measure 75
1000
0010
0100
0010
,  // measure 76
1000
0001
1000
0000
,  // measure 77
0001
0100
1000
0100
,  // measure 78
0010
1000
0001
0000
,  // measure 79
1000
0010
0001
0010
,  // measure 80
0100
0001
1000
1001
,  // measure 81
1000
0100
0010
0100
,  // measure 82
1000
0001
1000
0000
,  // measure 83
0001
0100
0010
0100
,  // measure 84
0001
1000
0001
0000
,  // measure 85
1000
0010
0001
0010
,  // measure 86
0100
0001
1000
0000
,  // measure 87
0001
0100
1000
0100
,  // measure 88
0010
1000
0001
1001
,  // measure 89
0220
0000
0000
0000
,  // measure 90
0330
0000
0000
0000
;

//---------------dance-single - ----------------
#NOTES:
     dance-single:
     :
     Medium:
     10:
     0.591,0.553,0.329,0.344,0.000: // measure 1
0000
0000
0000
0000
,  // measure 2
0000
0000
0000
0000
,  // measure 3
0000
0000
0000
0000
,  // measure 4
0000
0000
0000
0000
,  // measure 5
1000
0100
0010
0000
0001
0000
1001
0000
,  // measure 6
0001
0100
0010
0000
1000
0000
1001
0000
,  // measure 7
1000
0100
0001
0000
0001
0100
1000
0000
,  // measure 8
0010
0100
0010
0100
0001
1000
0001
1000
,  // measure 9
0000
0000
0000
0000
,  // measure 10
0002
0000
0103
0010
2000
0000
3010
0000
,  // measure 11
0100
0001
0010
0100
1000
0000
1001
0000
,  // measure 12
1000
0010
1000
0000
0001
0010
0001
0000
,  // measure 13
1000
1000
0001
0001
0100
0000
1010
0000
,  // measure 14
2000
0000
3010
0100
0002
0000
0103
0000
,  // measure 15
0010
1000
0100
0010
0001
0000
1001
0000
,  // measure 16
0001
0100
0001
0000
1000
0100
1000
0000
,  // measure 17
0001
0001
1000
1000
0010
0000
0101
0000
,  // measure 18
1000
0100
1000
0000
0002
0000
1003
0000
,  // measure 19
0001
0100
0001
0000
1000
0000
1001
0000
,  // measure 20
1000
0010
1000
0000
0002
0000
1003
0000
,  // measure 21
0001
0010
0001
0000
1000
0000
1001
0000
,  // measure 22
1000
0010
0100
0000
0002
0000
1003
0000
,  // measure 23
0001
0010
0100
0000
1000
0000
1001
0000
,  // measure 24
2000
3020
0230
0302
,  // measure 25
1003
0100
0010
0001
2000
0000
3001
0000
,  // measure 26
1100
0000
0101
0000
1000
1000
1000
0000
,  // measure 27
0001
0010
0100
0000
2000
0000
3001
0000
,  // measure 28
1000
0010
0100
0010
2000
0000
3001
0000
,  // measure 29
1000
0100
0010
0001
1000
1000
0001
0000
,  // measure 30
0011
0000
1010
0000
0001
0001
0001
0000
,  // measure 31
1000
0100
0010
0000
0002
0000
1003
0000
,  // measure 32
0001
0100
0010
0100
0002
0000
1003
0000
,  // measure 33
0001
0010
0100
1000
0001
0001
1000
1000
,  // measure 34
2001
0000
3010
0100
0002
0000
0103
0000
,  // measure 35
0010
1000
0100
0010
0001
0000
1001
0000
,  // measure 36
0001
0100
0001
0000
1000
0100
1000
0000
,  // measure 37
0001
0001
1000
1000
0010
0000
0101
0000
,  // measure 38
0002
0000
0103
0010
2000
0000
3010
0000
,  // measure 39
0100
0001
0010
0100
1000
0000
1001
0000
,  // measure 40
1000
0010
1000
0000
0001
0010
0001
0000
,  // measure 41
1000
1000
0001
0001
0100
0000
1010
0000
,  // measure 42
0001
0010
0001
0000
2000
0000
3001
0000
,  // measure 43
1000
0010
1000
0000
0001
0000
1001
0000
,  // measure 44
0001
0100
0001
0000
2000
0000
3001
0000
,  // measure 45
1000
0100
1000
0000
0001
0000
1001
0000
,  // measure 46
0001
0100
0010
0000
2000
0000
3001
0000
,  // measure 47
1000
0100
0010
0000
0001
0000
1001
0000
,  // measure 48
0002
0203
0320
2030
,  // measure 49
3001
0010
0100
1000
0002
0000
1003
0000
,  // measure 50
0011
0000
1010
0000
0001
0001
0001
0000
,  // measure 51
1000
0100
0010
0000
0002
0000
1003
0000
,  // measure 52
0001
0100
0010
0100
0002
0000
1003
0000
,  // measure 53
0001
0010
0100
1000
0001
0001
1000
0000
,  // measure 54
0001
0100
1000
0000
1000
0100
0001
0000
,  // measure 55
1000
1000
0001
0001
0010
0010
0100
0100
,  // measure 56
1000
0010
0100
0000
0002
0000
1003
0000
,  // measure 57
0001
0010
0100
0010
0001
0000
1001
0000
,  // measure 58
1000
0010
0100
0000
0002
0000
1003
0000
,  // measure 59
0001
0010
0100
1000
0001
0001
1000
0000
,  // measure 60
0001
0100
0010
0000
2000
0000
3001
0000
,  // measure 61
1000
0100
0010
0001
1000
1000
0001
0000
,  // measure 62
1100
1100
0101
0101
,  // measure 63
1010
1010
0011
0011
,  // measure 64
1100
0011
0101
1010
,  // measure 65
1000
0010
0100
0001
0100
0010
1000
0000
,  // measure 66
0001
0010
0100
1000
0100
0010
0001
0000
,  // measure 67
1000
0010
0100
0001
1000
0010
0100
0000
,  // measure 68
0001
0010
0100
1000
0001
0010
0100
0000
,  // measure 69
1000
0100
0001
0100
1000
0001
1000
0000
,  // measure 70
0001
0010
1000
0010
0001
1000
0001
0000
,  // measure 71
1000
0100
0001
0100
1000
0010
0001
0010
,  // measure 72
2000
3020
0230
0302
,  // measure 73
2003
0000
3010
0100
0002
0000
0103
0000
,  // measure 74
0010
1000
0100
0010
0001
0000
1001
0000
,  // measure 75
0001
0100
0001
0000
1000
0100
1000
0000
,  // measure 76
0001
0001
1000
1000
0010
0000
0101
0000
,  // measure 77
0002
0000
0103
0010
2000
0000
3010
0000
,  // measure 78
0100
0001
0010
0100
1000
0000
1001
0000
,  // measure 79
1000
0010
1000
0000
0001
0010
0001
0000
,  // measure 80
1000
1000
0001
0001
0100
0000
1010
0000
,  // measure 81
0002
0000
0103
0010
2000
0000
3010
0000
,  // measure 82
0100
0001
0010
0100
1000
0000
1001
0000
,  // measure 83
1000
0010
1000
0000
0001
0010
0001
0000
,  // measure 84
1000
1000
0001
0001
0100
0000
1010
0000
,  // measure 85
2000
0000
3010
0100
0002
0000
0103
0000
,  // measure 86
0010
1000
0100
0010
0001
0000
1001
0000
,  // measure 87
0001
0100
0001
0000
1000
0100
1000
0000
,  // measure 88
0001
0001
1000
1000
0010
0000
0101
0000
,  // measure 89
2002
0000
0000
0000
,  // measure 90
3003
0000
0000
0000
;
