#VERSION:0.81;
#TITLE:Buy Some Apples (feat. MEMJ-bot);
#SUBTITLE:;
#ARTIST:Sim Gretina;
#TITLETRANSLIT:;
#SUBTITLETRANSLIT:;
#ARTISTTRANSLIT:;
#GENRE:Electro-Disco;
#ORIGIN:;
#CREDIT:;
#BANNER:Buy Some Apples (feat. MEMJ-bot).png;
#BACKGROUND:Buy Some Apples (feat. MEMJ-bot)-bg.png;
#PREVIEWVID:;
#JACKET:Buy Some Apples (feat. MEMJ-bot)-jacket.png;
#CDIMAGE:;
#DISCIMAGE:;
#LYRICSPATH:;
#CDTITLE:;
#MUSIC:Buy Some Apples (feat. MEMJ-bot).mp3;
#OFFSET:0.638057;
#SAMPLESTART:69.540009;
#SAMPLELENGTH:15.000000;
#SELECTABLE:YES;
#BPMS:0.000=123.000;
#STOPS:;
#DELAYS:;
#WARPS:;
#TIMESIGNATURES:0.000=4=4;
#TICKCOUNTS:0.000=4;
#COMBOS:0.000=1;
#SPEEDS:0.000=1.000=0.000=0;
#SCROLLS:0.000=1.000;
#FAKES:;
#LABELS:0.000=Song Start;
#BGCHANGES:;
#KEYSOUNDS:;
#ATTACKS:
;

//---------------dance-single - ----------------
#NOTEDATA:;
#CHARTNAME:;
#STEPSTYPE:dance-single;
#DESCRIPTION:;
#CHARTSTYLE:;
#DIFFICULTY:Beginner;
#METER:1;
#RADARVALUES:0.065248,0.071048,0.008458,0.033832,0.000000,49.000000,1.000000,4.000000,0.000000,0.000000,0.000000,0.000000,0.000000,0.065248,0.071048,0.008458,0.033832,0.000000,49.000000,1.000000,4.000000,0.000000,0.000000,0.000000,0.000000,0.000000;
#CREDIT:;
#NOTES:
0000
0000
0000
0000
,
0000
0000
0000
0000
,
0000
0000
0000
0000
,
0000
0000
0000
1000
,
0000
0000
0000
0000
,
0100
0000
0000
0000
,
0010
0000
0000
0000
,
0010
0000
0000
0000
,
0001
0000
0000
0000
,
0100
0000
0000
0000
,
0010
0000
0000
0000
,
0010
0000
0000
1000
,
0000
0000
0000
0000
,
0010
0000
0000
0000
,
0100
0000
0000
0000
,
0100
0000
0000
0000
,
0001
0000
0000
0000
,
0010
0000
0000
0000
,
0100
0000
0000
0000
,
0100
0000
0000
0000
,
2000
0000
0000
0000
,
0000
0000
0000
0000
,
3002
0000
0000
0000
,
0000
0000
0000
0000
,
0023
0000
0000
0000
,
0000
0000
0000
0000
,
0230
0000
0000
0000
,
0000
0000
0000
0000
,
0300
0010
0000
0000
,
0000
0010
0000
0000
,
0000
0001
0000
0000
,
0000
1000
0000
0000
,
0100
0000
0000
0000
,
0100
0000
0000
0000
,
1000
0000
0000
0000
,
0001
0000
0000
0000
,
0100
0000
0000
0000
,
0100
0000
0000
0000
,
0010
0000
0000
0000
,
1000
0000
0000
0000
,
0100
0000
0000
0000
,
0100
0000
0000
0000
,
1000
0000
0000
0000
,
0010
0000
0000
0000
,
0100
0000
0000
0000
,
0100
0000
0000
0000
,
0001
0000
0000
0000
,
0010
0000
0000
0000
,
0001
0000
0000
0000
,
0001
0000
0000
0000
,
1000
0000
0000
0000
,
0100
0000
0000
0000
,
1000
0000
0000
0000
,
1000
0000
0000
0000
,
0001
0000
0000
0000
,
0100
0000
0000
0000
,
0110
0000
0000
0000
;

//---------------dance-single - ----------------
#NOTEDATA:;
#CHARTNAME:;
#STEPSTYPE:dance-single;
#DESCRIPTION:;
#CHARTSTYLE:;
#DIFFICULTY:Easy;
#METER:5;
#RADARVALUES:0.198161,0.189461,0.016916,0.000000,0.000000,162.000000,2.000000,0.000000,0.000000,0.000000,0.000000,0.000000,0.000000,0.198161,0.189461,0.016916,0.000000,0.000000,162.000000,2.000000,0.000000,0.000000,0.000000,0.000000,0.000000,0.000000;
#CREDIT:;
#NOTES:
0000
0000
0000
0000
,
0000
0000
0000
0000
,
0000
0000
0000
0000
,
0000
0000
0000
1000
,
0001
0010
0001
0000
,
0010
0100
0010
0000
,
0100
1000
0001
0000
,
0100
0001
0100
0000
,
0010
1000
0100
0000
,
0010
0001
0100
0000
,
0001
1000
0100
0000
,
1000
0001
0010
0110
,
0100
1000
0010
0000
,
0100
0001
0010
0000
,
0001
1000
0010
0000
,
1000
0001
0100
0000
,
0010
0100
0001
0000
,
0010
0100
1000
0000
,
0001
0010
0100
0000
,
1000
0010
0100
0000
,
0100
0000
0100
0001
,
0100
0001
1000
0000
,
0100
0000
0100
1000
,
0100
1000
0010
0000
,
0100
0000
0010
0100
,
0010
0100
0001
0000
,
1000
0000
0001
1000
,
0001
1000
0100
0000
,
0010
0100
0000
0100
,
1000
0001
0000
0001
,
1000
0010
0000
0010
,
0100
0001
0000
0001
,
1000
0100
1000
0000
,
0001
0100
0001
0000
,
1000
0010
1000
0000
,
0001
0010
0001
0010
,
0100
1000
0001
0000
,
0100
0001
1000
0000
,
0010
1000
0001
0000
,
0010
0001
1000
0100
,
0010
0100
1000
0000
,
0010
0100
0001
0000
,
0100
0001
1000
0000
,
0100
0001
1000
0000
,
0010
0100
1000
0000
,
0010
0100
0001
0000
,
0100
1000
0001
0000
,
0010
1000
0100
0010
,
0100
0000
0010
0100
,
1000
0100
1000
0000
,
0010
0000
0100
0010
,
1000
0010
1000
0000
,
0001
0000
0010
0001
,
0100
0001
0100
0000
,
0010
0000
0100
0001
,
0100
0001
0010
0000
,
0110
0000
0000
0000
;

//---------------dance-single - ----------------
#NOTEDATA:;
#CHARTNAME:;
#STEPSTYPE:dance-single;
#DESCRIPTION:;
#CHARTSTYLE:;
#DIFFICULTY:Hard;
#METER:9;
#RADARVALUES:0.381822,0.331557,0.143788,0.135329,0.008458,283.000000,17.000000,16.000000,0.000000,0.000000,0.000000,0.000000,0.000000,0.381822,0.331557,0.143788,0.135329,0.008458,283.000000,17.000000,16.000000,0.000000,0.000000,0.000000,0.000000,0.000000;
#CREDIT:;
#NOTES:
// measure 0
0000
0000
0000
0000
,  // measure 1
0000
0000
0000
0000
,  // measure 2
0000
0000
0000
0000
,  // measure 3
0000
0000
0000
1010
,  // measure 4
0010
0100
0001
0000
0100
0001
0000
0001
,  // measure 5
1000
0000
1000
0100
0000
0100
0010
0000
,  // measure 6
0100
1000
0010
0000
0010
0100
0000
0100
,  // measure 7
0001
0000
0001
1000
0000
1000
0100
0000
,  // measure 8
0010
0100
1000
0000
1000
0001
0000
0001
,  // measure 9
0100
0000
0100
0010
0000
0010
1000
0000
,  // measure 10
0010
1000
0100
0000
0100
0001
0000
0001
,  // measure 11
1000
0000
1000
0010
0000
0010
0022
0033
,  // measure 12
0001
0100
0010
0000
0010
1000
0000
1000
,  // measure 13
0001
0000
0001
0010
0000
0010
0100
0000
,  // measure 14
0010
0100
1000
0000
1000
0010
0000
0010
,  // measure 15
0001
0000
0001
1000
0000
1000
0100
0000
,  // measure 16
0010
0100
0001
0000
0001
0010
0000
0010
,  // measure 17
0100
0000
0100
1000
0000
1000
0010
0000
,  // measure 18
0100
0010
1000
0000
0010
1000
0000
1000
,  // measure 19
0001
0000
0001
0010
0000
0010
0100
0000
,  // measure 20
1000
0100
1000
0100
0000
1000
0001
1000
,  // measure 21
0002
0000
0203
0000
0310
0100
0000
0001
,  // measure 22
1000
0001
1000
0001
0000
1000
0100
1000
,  // measure 23
0200
0000
0320
0000
0031
0010
0000
0001
,  // measure 24
0100
0010
0100
0010
0000
1000
0001
1000
,  // measure 25
0002
0000
0023
0000
0130
0010
0000
0001
,  // measure 26
1000
0010
1000
0010
0000
0100
0010
0100
,  // measure 27
0020
0000
2030
0000
3001
0010
0000
0100
,  // measure 28
0010
0000
0011
0001
0000
0000
1001
0000
,  // measure 29
1000
0000
1010
0010
0000
0000
0110
0000
,  // measure 30
0100
0000
0101
0001
0000
0000
1001
0000
,  // measure 31
1000
0000
0000
0000
0100
0000
0000
0000
0010
0000
0000
0000
0001
1000
0001
1000
,  // measure 32
0001
0100
0001
0100
0010
0000
1010
0000
,  // measure 33
1000
0001
1000
0001
0010
0000
0110
0000
,  // measure 34
0100
1000
0100
1000
0010
0000
0110
0000
,  // measure 35
0100
0001
0100
0001
0010
0000
0110
0000
,  // measure 36
0100
1000
0001
0100
0001
0000
1001
0000
,  // measure 37
0100
0001
1000
0100
1000
0000
1001
0000
,  // measure 38
0001
0010
0100
1000
0001
0000
0101
0000
,  // measure 39
0100
0001
1000
0010
0100
0000
0110
0000
,  // measure 40
0010
1000
0001
0000
0001
0100
0000
0100
,  // measure 41
1000
0000
1000
0001
0000
0001
0010
0000
,  // measure 42
0010
0100
0001
0000
0001
0010
0000
0010
,  // measure 43
0100
0000
0100
1000
0000
1000
0001
0000
,  // measure 44
0100
0001
0010
0000
0010
0100
0000
0100
,  // measure 45
0001
0000
0001
1000
0000
1000
0010
0000
,  // measure 46
0100
0010
0001
0000
0001
1000
0000
1000
,  // measure 47
0010
0000
0010
0100
0000
0100
0001
0000
,  // measure 48
2000
0000
0000
0001
0000
0100
0001
3100
,  // measure 49
0001
0000
0010
0000
0100
1000
0000
1000
,  // measure 50
0002
0000
0000
1000
0000
0100
1000
0103
,  // measure 51
1000
0000
0010
0000
0100
0001
0000
0001
,  // measure 52
2000
0000
0000
0001
0000
0010
0001
3010
,  // measure 53
0001
0000
0000
0200
0000
0000
0000
0000
,  // measure 54
0302
0000
0000
1000
0000
0010
1000
0013
,  // measure 55
1000
0000
0000
0200
0000
0000
0000
0300
,  // measure 56
1001
0000
0000
0000
;

//---------------dance-single - ----------------
#NOTEDATA:;
#CHARTNAME:;
#STEPSTYPE:dance-single;
#DESCRIPTION:;
#CHARTSTYLE:;
#DIFFICULTY:Medium;
#METER:6;
#RADARVALUES:0.288783,0.260509,0.059207,0.042290,0.000000,227.000000,7.000000,5.000000,0.000000,0.000000,0.000000,0.000000,0.000000,0.288783,0.260509,0.059207,0.042290,0.000000,227.000000,7.000000,5.000000,0.000000,0.000000,0.000000,0.000000,0.000000;
#CREDIT:;
#NOTES:
// measure 0
0000
0000
0000
0000
,  // measure 1
0000
0000
0000
0000
,  // measure 2
0000
0000
0000
0000
,  // measure 3
0000
0000
0000
0110
,  // measure 4
0000
0010
0100
0000
0010
0100
0000
0010
,  // measure 5
0100
0000
0010
0100
0000
0010
0100
0000
,  // measure 6
0000
0001
0100
0000
0001
0100
0000
0001
,  // measure 7
0100
0000
0001
0100
0000
0001
0100
0000
,  // measure 8
0000
0010
1000
0000
0010
1000
0000
0010
,  // measure 9
1000
0000
0010
1000
0000
0010
1000
0000
,  // measure 10
0000
0001
1000
0000
0001
1000
0000
0001
,  // measure 11
1000
0000
0001
1000
0000
0001
1001
0000
,  // measure 12
0000
0001
0010
0000
0001
0010
0000
0001
,  // measure 13
0010
0000
0001
0010
0000
0001
0010
0000
,  // measure 14
0000
0100
1000
0000
0100
1000
0000
0100
,  // measure 15
1000
0000
0100
1000
0000
0100
1000
0000
,  // measure 16
0000
1000
0001
0000
1000
0001
0000
1000
,  // measure 17
0001
0000
1000
0001
0000
1000
0001
0000
,  // measure 18
0000
0100
0010
0000
0100
0010
0000
0100
,  // measure 19
0010
0000
0100
0010
0000
0100
0020
0000
,  // measure 20
0000
0000
0000
0000
0000
1030
0010
1000
,  // measure 21
0010
0000
1000
0000
0001
0010
0000
0100
,  // measure 22
0010
0000
0000
0000
0000
0001
0010
0100
,  // measure 23
1000
0000
0010
0000
1000
0010
0000
0100
,  // measure 24
0000
0000
0000
0000
0000
0001
0100
0010
,  // measure 25
1000
0000
0001
0000
0010
0100
0000
0010
,  // measure 26
0001
0000
0000
0000
0000
1000
0010
0100
,  // measure 27
0010
0000
1000
0000
0001
0010
0000
0100
,  // measure 28
0010
0000
0000
0001
0000
0000
0000
0000
,  // measure 29
0001
0000
0000
0100
0000
0000
0010
0000
,  // measure 30
1000
0000
0000
0001
0000
0000
0000
0000
,  // measure 31
0010
0000
0000
0100
0000
0000
1000
0100
,  // measure 32
0010
0010
0100
1000
,  // measure 33
0010
0010
0100
0101
,  // measure 34
0001
0001
1000
0100
,  // measure 35
1000
1000
0001
0011
,  // measure 36
0010
0010
0100
1000
,  // measure 37
0010
0010
0100
0101
,  // measure 38
0001
0001
1000
0100
,  // measure 39
1000
1000
0001
0011
,  // measure 40
0000
0010
0100
0000
0010
0100
0000
0010
,  // measure 41
0100
0000
0010
0100
0000
0010
0100
0000
,  // measure 42
0000
1000
0001
0000
1000
0001
0000
1000
,  // measure 43
0001
0000
1000
0001
0000
1000
0001
0000
,  // measure 44
0000
0100
0001
0000
0100
0001
0000
0100
,  // measure 45
0001
0000
0100
0001
0000
0100
0001
0000
,  // measure 46
0000
1000
0010
0000
1000
0010
0000
1000
,  // measure 47
0010
0000
1000
0010
0000
1000
0010
0000
,  // measure 48
0200
0000
0000
0301
0000
0000
0100
0000
,  // measure 49
0010
0000
1000
0000
0001
1000
0000
1000
,  // measure 50
0200
0000
0000
0310
0000
0000
0100
0000
,  // measure 51
1000
0000
0010
0000
0100
0001
0000
0001
,  // measure 52
2000
0000
0000
3100
0000
0000
1000
0000
,  // measure 53
0010
0000
0000
0100
0000
0000
0001
0000
,  // measure 54
0020
0000
0000
0130
0000
0000
0010
0000
,  // measure 55
0001
0000
0000
1000
0000
0000
0010
0000
,  // measure 56
0110
0000
0000
0000
;
