#TITLE:Boo Hoo;
#SUBTITLE:;
#ARTIST:Assertive Fluttershy;
#TITLETRANSLIT:;
#SUBTITLETRANSLIT:;
#ARTISTTRANSLIT:;
#GENRE:Speed Electro;
#CREDIT:;
#BANNER:Boo Hoo.png;
#BACKGROUND:Boo Hoo-bg.png;
#LYRICSPATH:;
#CDTITLE:;
#MUSIC:Boo Hoo.mp3;
#OFFSET:-0.000000;
#SAMPLESTART:10.780000;
#SAMPLELENGTH:15.000000;
#SELECTABLE:YES;
#BPMS:0.000000=175.000000
,192.000000=87.500000
;
#STOPS:
;
#BGCHANGES:;
#KEYSOUNDS:;
#ATTACKS:;

//---------------dance-single - ----------------
#NOTES:
     dance-single:
     :
     Easy:
     7:
     0.339005,0.506651,0.355089,0.008661,0.000000,274.000000,233.000000,41.000000,1.000000,0.000000,0.000000,0.339005,0.506651,0.355089,0.008661,0.000000,274.000000,233.000000,41.000000,1.000000,0.000000,0.000000:
0000
0000
0000
0000
,
0000
0000
0000
0000
,
0000
0000
0000
0000
,
0000
0000
0000
0000
,
0010
0000
0010
0000
,
0000
0000
0000
0000
,
1000
0000
1000
0000
,
0001
0001
0001
0001
,
0100
0000
0100
0000
,
0010
0000
0010
1000
,
0010
0000
0010
0000
,
0100
0000
0100
1000
,
0100
0000
0100
0000
,
0010
0000
0010
0001
,
0010
0000
0010
0000
,
0100
0000
0100
0001
,
0100
0010
0100
0010
,
1000
0001
1000
0001
,
0010
0001
0010
0001
,
1000
0100
1000
0100
,
1000
0010
1000
0010
,
0100
0001
0100
0001
,
1000
0001
1000
0001
,
0010
0100
0010
0100
,
1100
0000
1100
0000
,
1001
0000
1001
0001
,
0101
0000
0101
0000
,
0011
0010
0011
0010
,
0110
0000
0110
0000
,
1100
0000
1100
1000
,
1001
0000
1001
0000
,
0101
0100
0101
0100
,
0010
0100
0001
0100
,
0010
1000
0100
1000
,
0010
0001
0010
1000
,
0100
0001
0100
1000
,
0010
1000
0001
0100
,
0010
0001
1000
0100
,
0010
1000
0001
0100
,
0010
0100
0010
0110
,
0100
0001
0100
0001
,
0010
0001
0010
0001
,
1000
0001
1000
0001
,
0100
0001
0100
0001
,
0010
0100
0010
0100
,
1000
0100
1000
0100
,
0001
0100
0001
0100
,
0010
0110
1001
0110
,
0010
0010
0010
0000
0001
1000
0001
0000
,
0100
0100
0100
0000
0001
1000
0001
0000
,
1000
1000
0100
0000
0010
0010
0001
0000
,
0001
0001
0100
0000
0010
0010
1000
1000
,
0010
0010
0110
0000
0100
0100
0101
0000
,
0001
0001
1001
0000
1000
1000
1100
0000
,
0100
0100
0110
0000
0010
0010
0011
0000
,
0001
0001
1001
0000
1000
0001
1000
0001
,
0100
1010
0010
0101
,
0001
1010
1000
0101
,
0001
1100
1000
0011
,
0001
0000
0110
0000
1000
0100
0010
0001
,
0100
1001
0010
1001
,
0001
0110
1000
0110
,
0010
0011
0001
0101
,
0100
0000
1100
0000
1000
0010
0001
0100
,
2000
0000
0000
0000
,
3000
0000
0000
0000
;

//---------------dance-single - ----------------
#NOTES:
     dance-single:
     :
     Hard:
     16:
     0.832665,1.041450,0.822767,0.008661,0.632232,673.000000,578.000000,95.000000,1.000000,0.000000,0.000000,0.832665,1.041450,0.822767,0.008661,0.632232,673.000000,578.000000,95.000000,1.000000,0.000000,0.000000:
0010
1000
0010
1000
0001
0010
0001
0010
,
0000
0100
0000
1000
0000
0001
1000
1000
,
0010
1000
0010
1000
0001
0010
0001
0010
,
0100
1000
0000
0010
0000
1000
0001
0001
,
0100
0010
0100
0010
1000
0001
1000
0001
,
0000
0010
0000
0100
0000
1000
0010
0010
,
0100
0001
0100
0001
1000
0100
1000
0100
,
0010
0000
0100
0000
0010
0000
0100
0000
1000
0000
0100
0000
1000
0100
0010
0001
,
0100
0000
0001
0000
0010
0000
0100
0000
0010
0100
0010
0000
0100
0000
1000
0000
,
0001
0000
0100
0000
0010
0000
1000
0001
1000
0000
0001
0000
0010
0000
0100
0000
,
1000
0000
0100
0000
0010
0000
0100
0000
1000
0010
1000
0000
0010
0000
0100
0000
,
0001
0000
1000
0000
0001
0000
0010
0100
0010
0000
0100
0000
1000
0000
0001
0000
,
0100
0000
0010
0000
1000
0000
0100
0000
0010
0001
0010
0000
0100
0000
1000
0000
,
0001
0000
0100
0000
0010
0000
0001
0010
0001
0000
0010
0000
1000
0000
0100
0000
,
0010
0000
0001
0000
0100
0000
0010
0000
1000
0100
1000
0000
0100
0000
0010
0000
,
0001
0000
1000
0000
0010
0000
1000
0001
1000
0000
0100
0000
0010
0100
0010
0100
,
0010
0001
0101
0000
0001
1000
1100
0000
,
0100
0010
0011
0010
0000
0010
0110
0000
,
0100
1000
1001
0000
0001
0010
1010
0000
,
0010
0100
1100
0100
0000
1000
1001
0000
,
0001
0100
0110
0000
0010
1000
1001
0000
,
0001
0010
0110
0010
0000
0001
1001
0000
,
1000
0010
0011
0000
0010
0100
0101
0000
,
0001
0010
1010
0010
0000
0100
1100
0000
,
0100
0000
0110
0000
0000
0000
0000
0000
0010
0001
0010
0000
0000
0000
0000
0000
,
0001
0000
0101
0000
0000
0000
0100
0010
0100
0000
0010
0000
1000
0000
0000
0000
,
0001
0000
1001
0000
0000
0000
0000
0000
1000
0100
1000
0000
0000
0000
0000
0000
,
0100
0000
0110
0000
0000
0000
0010
0001
0010
0000
0001
0000
0101
0000
0000
0000
,
0100
0000
0110
0000
0000
0000
0000
0000
0010
1000
0010
0000
0000
0000
0000
0000
,
1000
0000
1001
0000
0000
0000
0001
0010
0001
0000
0100
0000
0110
0000
0000
0000
,
0010
0000
1010
0000
0000
0000
0000
0000
1000
0001
1000
0000
0000
0000
0000
0000
,
0001
0000
0011
0000
0000
0000
0010
0100
0010
0000
0100
0000
1000
0100
1000
0100
,
0010
0001
0101
0000
0001
1000
1100
0000
,
0100
0000
0010
0000
0011
0000
0010
0100
0010
0100
0010
0000
0110
0000
0000
0000
,
0100
1000
1100
0000
1000
0001
1001
0000
,
0001
0000
0100
0000
1100
0000
0100
0001
0100
0001
0100
0000
0101
0000
0000
0000
,
0001
1000
1010
0000
0010
0100
0101
0000
,
0001
0000
0010
0000
0110
0000
0100
1000
0100
1000
0100
0000
1100
0000
0000
0000
,
1000
0010
0110
0000
0100
0001
1001
0000
,
0001
0000
0010
0000
1010
0000
0010
0100
0010
0100
0010
0000
0100
1000
0001
0010
,
0100
1000
1001
0000
1000
0010
0110
0000
,
0100
0001
1001
0000
0001
0010
0110
0000
,
0100
1000
1001
0000
1000
0010
0110
0000
,
0100
0001
1001
0000
0001
0010
0110
0000
,
0011
1100
1010
0101
,
1010
0011
1100
0101
,
0001
0000
0001
0000
0001
0000
0001
0000
1000
0001
1000
0001
1000
0001
1000
0001
,
0010
0000
0000
0000
0110
0000
0000
0000
1001
0000
0000
0000
0010
0100
0010
0100
,
1000
0000
0100
0100
0010
0001
1000
0010
0110
0000
0100
0100
0101
0000
0001
0001
,
0011
0000
0010
0010
0100
1000
0001
0100
0110
0000
0010
0010
1010
0000
1000
1000
,
1001
0000
0001
0001
0010
1000
0001
0100
1100
0000
0100
0100
0110
0000
0010
0010
,
0011
0000
0000
0000
0001
0000
0001
0000
0100
0000
1000
0000
0100
0000
0001
0000
0010
0000
0100
0000
0000
0000
0010
0100
0010
0001
0010
0001
0100
0010
1000
0001
,
0010
0000
0100
0100
1000
0010
0100
0010
1010
0000
1000
1000
1001
0000
0001
0001
,
0011
0000
0100
0100
0010
0001
0100
0001
0011
0000
0001
0001
1001
0000
1000
1000
,
1100
0000
0100
0100
0010
0001
0100
0010
0110
0000
0100
0100
0101
0000
0001
0001
,
1001
0000
0000
0000
1000
0000
1000
0000
0100
0000
0010
0000
1000
0000
0010
0000
0001
0000
0010
0000
0000
0000
0001
0010
0100
1000
0001
0100
0010
1000
0001
0100
,
0001
0000
1000
1000
0001
0100
0001
1000
1100
0000
0100
0100
0101
0000
0010
0010
,
1010
0000
0010
0010
0100
1000
0001
0100
0110
0000
0010
0010
0011
0000
0100
0100
,
1100
0000
0100
0010
1000
0001
0010
0100
0110
0000
0010
0010
0011
0000
0001
0001
,
0101
0000
0000
0000
0100
0000
0100
0000
0010
0000
1000
0000
0001
0000
0010
0000
0100
0000
0010
0000
0000
0000
0001
0010
0001
0010
0100
1000
0100
1000
0001
0100
,
0001
0000
1000
1000
0001
0100
0001
0010
0011
0000
0010
0010
0110
0000
0100
0100
,
1100
0000
0100
0100
1000
0100
0010
0100
0101
0000
0100
0100
0110
0000
0100
0100
,
1100
0000
1000
1000
0001
0010
0001
0100
0101
0000
0001
0001
1001
0000
1000
1000
,
1010
0000
0000
0000
0010
0000
0010
0000
0100
0000
0001
0000
0010
0000
0100
0000
0010
0000
0001
0000
0000
0000
0010
0100
0010
0100
1000
0100
0010
0001
0100
0010
,
0200
0000
0000
0000
,
0300
0000
0000
0000
;

//---------------dance-single - ----------------
#NOTES:
     dance-single:
     :
     Medium:
     12:
     0.528303,0.665142,0.077946,0.008661,0.129911,427.000000,418.000000,9.000000,1.000000,0.000000,0.000000,0.528303,0.665142,0.077946,0.008661,0.129911,427.000000,418.000000,9.000000,1.000000,0.000000,0.000000:
0000
0000
0000
0000
,
0000
0000
0000
0000
,
0000
0000
0000
0000
,
0000
0000
0000
0000
,
0010
1000
0100
0000
1000
0001
0100
0000
,
0001
0000
0010
0100
0000
0100
0010
0000
,
0001
1000
0100
0000
1000
0001
0100
0000
,
0010
0000
1000
0001
0000
0001
1000
0000
,
0010
1000
0100
0000
0010
0001
0100
0000
,
0010
1000
0100
0010
0100
1000
0001
0000
,
0100
0010
1000
0000
0001
0010
0100
0000
,
1000
0001
0100
1000
0100
0001
0010
0000
,
0100
1000
0010
0000
0100
0001
1000
0000
,
0100
0010
0001
0100
0010
0100
0001
0000
,
1000
0100
0010
0000
0100
1000
0001
0000
,
0100
0010
0100
0001
1000
0100
0010
0000
,
0001
0100
0001
0100
0010
1000
0010
1000
,
0001
0010
0100
1000
0001
0100
0010
0000
,
0010
1000
0010
1000
0010
0100
0010
0100
,
0001
0010
0100
0010
0001
1000
0100
0000
,
0100
0010
0100
0010
0001
0010
0001
0010
,
0001
1000
0100
1000
0001
1000
0100
0000
,
0100
0010
0100
0010
0001
1000
0001
1000
,
0010
0100
0001
0100
0010
1000
0001
0000
,
0010
0000
0100
0000
1000
0001
0100
0000
,
0010
0000
0100
0001
0000
0001
0100
0000
,
0010
0000
1000
0000
0100
1000
0001
0000
,
0100
0000
0010
1000
0000
1000
0001
0000
,
0010
0000
0100
0000
1000
0001
1000
0000
,
0100
0000
0010
0100
0000
0100
1000
0000
,
0001
0000
0100
0000
0010
0100
0001
0000
,
0100
0010
0000
0100
0000
0001
1000
0000
,
0100
0010
0100
0000
1000
0001
1000
0000
,
0001
0100
0001
0100
0000
0100
0010
0000
,
1000
0100
1000
0000
0001
0100
0001
0000
,
1000
0010
0000
1000
0000
0001
0010
0000
,
0100
1000
0100
0000
1000
0001
1000
0000
,
0001
0100
0001
0100
0000
0100
0010
0000
,
1000
0001
1000
0000
0001
0010
0001
0000
,
1000
0100
0000
1000
0000
0100
0010
0000
,
0100
1000
0001
0000
0100
0010
0100
0000
,
0001
1000
0100
0000
0010
0001
0100
0000
,
0010
1000
0100
0000
0010
0100
1000
0000
,
0001
0100
0010
0000
1000
0001
0010
0000
,
0100
1000
0001
0100
,
0010
1000
0001
0010
,
0100
1000
0010
0001
0010
1000
0100
0010
,
0002
1000
1003
1001
,
1000
0000
0100
0000
0110
0000
0010
0000
0001
0000
0100
1000
0100
0000
0001
0010
,
0001
0000
1000
0000
1100
0000
0001
0000
0100
0000
0010
1000
0100
0000
1000
0010
,
0100
0000
0001
0000
0011
0000
0100
0000
0010
0000
0001
0100
0010
0000
0100
0001
,
0010
0000
0100
0000
1100
0000
1000
0000
0001
0000
0100
0010
0000
0100
0001
0000
,
1000
0000
0100
0000
1100
0000
1000
0000
0010
0000
0100
0001
0010
0000
0001
0100
,
0010
0000
1000
0000
1100
0000
0100
0000
0010
0000
0001
0100
1000
0000
1000
0100
,
0001
0000
0010
0000
0110
0000
0100
0000
1000
0000
0001
0100
0010
0000
0100
0001
,
0010
0000
0100
0000
1000
0000
0001
0000
0100
0000
0000
0010
0000
0100
0001
0000
,
1000
0100
1000
0000
0001
0000
0100
0000
0010
0000
1000
0000
0100
0000
0010
0000
,
0100
0000
1000
0100
1000
0000
0001
0000
0100
0000
0010
0000
0100
0000
0001
0000
,
1000
0000
0001
0010
0001
0000
0100
0000
1000
0000
0100
0000
0001
0000
1000
0000
,
0100
0000
0010
0001
0010
0000
0100
0000
1000
0000
0010
0000
0001
0000
0010
0000
,
1000
0000
0001
0010
0001
0000
1000
0000
0100
0000
1000
0001
0100
0000
0010
0000
,
0100
0000
0001
0010
0001
0000
1000
0000
0100
0000
1000
0010
1000
0000
0001
0000
,
0100
0000
0010
0100
0010
0000
1000
0000
0001
0000
1000
0100
1000
0000
0001
0000
,
0100
0000
0001
1000
0001
0000
0100
0000
0010
1000
0000
0010
0000
0100
0001
0000
,
1001
0000
0000
0000
;

//---------------dance-single - ----------------
#NOTES:
     dance-single:
     :
     Beginner:
     4:
     0.169502,0.277143,0.008661,0.034643,0.000000,137.000000,136.000000,1.000000,4.000000,0.000000,0.000000,0.169502,0.277143,0.008661,0.034643,0.000000,137.000000,136.000000,1.000000,4.000000,0.000000,0.000000:
0000
0000
0000
0000
,
0000
0000
0000
0000
,
0000
0000
0000
0000
,
0000
0000
0000
0000
,
0010
0000
0010
0000
,
0010
0000
0000
0000
,
1000
0000
1000
0000
,
1000
0000
0000
0000
,
0001
0000
0001
0000
,
0001
0000
0000
0000
,
0010
0000
0010
0000
,
0010
0000
0000
0000
,
0100
0000
0100
0000
,
0100
0000
0000
0000
,
1000
0000
1000
0000
,
1000
0000
0000
0000
,
0000
0001
0000
0001
,
0000
0001
0000
0001
,
0000
1000
0000
1000
,
0000
1000
0000
1000
,
0000
0100
0000
0100
,
0000
0100
0000
0100
,
0000
0010
0000
0010
,
0000
0010
0000
0010
,
0100
0000
0100
0000
,
0100
0000
0000
0000
,
1000
0000
1000
0000
,
1000
0000
0000
0000
,
0010
0000
0010
0000
,
0010
0000
0000
0000
,
0001
0000
0001
0000
,
0001
0000
0000
0000
,
0000
0010
0000
0010
,
0000
0010
0000
0010
,
0000
1000
0000
1000
,
0000
1000
0000
1000
,
0000
0100
0000
0100
,
0000
0100
0000
0100
,
0000
0001
0000
0001
,
0000
0001
0000
0001
,
0000
0100
0000
0100
,
0000
0010
0000
0010
,
0000
0100
0000
0100
,
0000
0010
0000
0010
,
0010
0010
0010
0010
,
0010
0010
0010
0010
,
0010
0010
0010
0010
,
0000
0001
1000
0001
,
1000
1000
1000
0000
,
0001
0001
0001
0000
,
0010
0010
0010
0000
,
0100
0100
0100
0000
,
1000
0100
1000
0000
,
0100
1000
0100
0000
,
0010
0001
0010
0000
,
0001
0010
0001
0000
,
1000
0010
0001
0000
,
1000
0100
0001
0000
,
1000
0010
0001
0000
,
1000
0100
0001
0000
,
2000
0100
3100
0000
,
0200
0010
0310
0000
,
0020
0001
0031
0000
,
0002
0000
0100
0000
0103
0000
0100
0100
,
0110
0000
0000
0000
;

//---------------dance-single - ----------------
#NOTES:
     dance-single:
     :
     Challenge:
     17:
     0.898239,1.125892,0.995981,0.017321,0.892053,726.000000,611.000000,115.000000,2.000000,0.000000,0.000000,0.898239,1.125892,0.995981,0.017321,0.892053,726.000000,611.000000,115.000000,2.000000,0.000000,0.000000:
// measure 0
0000
0000
0000
0000
,  // measure 1
0000
0000
0000
0000
,  // measure 2
0000
0000
0000
0000
,  // measure 3
0000
0000
0000
0000
,  // measure 4
0100
1000
0001
1000
0100
1000
0001
1000
,  // measure 5
0010
0100
0010
1000
0001
1000
0100
0010
,  // measure 6
0001
0100
1000
0100
0001
0100
1000
0100
,  // measure 7
0001
0000
0010
0000
0100
0000
1000
0000
0000
0000
0010
0000
1000
0010
0100
0001
,  // measure 8
1000
0000
0100
0000
0001
0000
0100
1000
0001
0100
0010
0000
0100
0000
0001
1000
,  // measure 9
0100
0000
0010
0000
0001
0000
1000
0010
0100
0000
0100
0000
1010
0000
0000
0000
,  // measure 10
0001
0000
0010
0000
0100
0000
1000
0001
1000
0010
0100
0000
0010
0000
1000
0100
,  // measure 11
0010
0000
0001
0000
1000
0000
0010
0100
0001
1000
0100
0000
0011
0000
0000
0000
,  // measure 12
1100
0000
0010
0000
0001
0000
0100
0010
0100
0001
1000
0000
0100
0000
0010
0001
,  // measure 13
1000
0000
0010
0000
1000
0000
1000
0001
0010
0100
0010
0000
0011
0000
0000
0000
,  // measure 14
0001
0000
1000
0000
0010
0000
1000
0100
0010
0001
1000
0000
0001
0000
0100
0010
,  // measure 15
1000
0000
0001
0000
0010
0000
0100
1000
0001
0100
0010
0000
0100
0010
1000
0100
,  // measure 16
0010
0001
1001
0000
1010
1000
1001
0000
,  // measure 17
0110
1000
0001
0011
0000
1000
0101
0000
,  // measure 18
1010
1000
1001
0000
0011
0001
1001
0000
,  // measure 19
1100
0000
0001
0000
0100
0000
0010
1000
0000
1000
0100
0000
1100
0000
0000
0000
,  // measure 20
1100
0001
0101
0000
0101
1000
1100
0000
,  // measure 21
0011
1000
0010
0110
0000
1000
1010
0000
,  // measure 22
1100
0001
0101
0000
0101
1000
1100
0000
,  // measure 23
1010
0000
0001
0000
0010
0000
0001
0010
0000
0100
1000
0000
1001
0000
0000
0000
,  // measure 24
0101
0000
1010
0000
0000
0000
0001
0100
0010
1000
0100
0000
0000
0000
0000
0000
,  // measure 25
0011
0000
0100
0000
1000
0000
0001
0100
0000
0100
0001
0000
1010
0000
0000
0000
,  // measure 26
1100
0000
0011
0000
0000
0000
0001
1000
0010
0100
0001
0000
0000
0000
0000
0000
,  // measure 27
1010
0000
0100
0000
0001
0000
1000
0100
0000
0100
0010
0000
0011
0000
0000
0000
,  // measure 28
1001
0000
0101
0000
0000
0000
0010
1000
0100
0010
0100
0000
0000
0000
0000
0000
,  // measure 29
0011
0000
0100
0000
1000
0000
0001
0100
0000
0100
0010
0000
1010
0000
0000
0000
,  // measure 30
0110
0000
0101
0000
0000
0000
1000
0010
0100
0001
1000
0000
0000
0000
0000
0000
,  // measure 31
1100
0001
0100
1010
0000
0001
0011
0000
,  // measure 32
1000
0100
0010
0000
0001
0100
0000
0010
1000
0001
0010
0000
0100
1000
0000
0001
,  // measure 33
0100
0010
1000
0000
0100
0000
0010
0001
0000
1000
0100
0000
0011
0000
0000
0000
,  // measure 34
1000
0010
0100
0000
0010
1000
0000
0001
0100
0001
1000
0000
0001
1000
0000
0100
,  // measure 35
0010
0100
1000
0000
0001
0000
1000
0010
0000
1000
0100
0000
0011
0000
0000
0000
,  // measure 36
0100
1000
0001
0000
0100
0001
0000
0100
0001
1000
0010
0000
0100
0001
0000
1000
,  // measure 37
0100
0010
0100
0000
1000
0000
0001
0100
0000
0010
1000
0000
1010
0000
0000
0000
,  // measure 38
0100
0001
1000
0000
0100
1000
0000
0100
0010
0001
1000
0000
0001
0100
0000
0010
,  // measure 39
1000
0001
0010
0000
0100
0000
0010
0001
0000
1000
0010
0000
1001
0000
0000
0000
,  // measure 40
0101
0001
1001
0000
1001
1000
1100
0000
,  // measure 41
1100
0100
0110
0000
0110
0010
0011
0000
,  // measure 42
0011
0001
1001
0000
1001
1000
1010
0000
,  // measure 43
1010
0010
0110
0000
0110
0100
0101
0000
,  // measure 44
0101
0100
0110
0010
1010
1000
1001
0001
,  // measure 45
0011
0010
0110
0100
1100
1000
1001
0001
,  // measure 46
0101
0000
1010
0000
1100
0000
0011
0000
0010
0001
0100
0010
1000
0100
0010
0001
,  // measure 47
1000
1001
0110
1001
,  // measure 48
1010
0000
0010
0010
0100
0001
0010
0100
0011
0000
0001
0100
1010
0000
0010
0100
,  // measure 49
1001
0000
0000
0000
0001
0000
0001
0010
0000
0100
1000
0000
0010
0000
0100
0000
0101
0000
0000
0000
1000
0000
0001
0000
0011
0000
0000
0000
0100
0000
1000
0000
,  // measure 50
1001
0000
1000
1000
0010
0100
0001
0010
1010
0000
0100
1000
0011
0000
1000
0010
,  // measure 51
0101
0000
0000
0000
0010
0000
1000
0000
0001
0000
0010
0000
0100
0000
1000
0000
1010
0000
0101
0000
0000
0000
1000
0100
0010
0001
1000
0010
0100
0010
1000
0001
,  // measure 52
0010
0000
0000
0000
0010
0000
0010
0000
0001
0000
1000
0000
0010
0000
1000
0100
0010
0000
0000
0000
0010
0000
0001
1000
0010
0000
0000
0000
0100
0000
0010
1000
,  // measure 53
0100
0000
0000
0000
1000
0000
0100
0010
0000
0010
0001
0000
1000
0000
0010
0100
0001
0000
0000
0000
1000
0000
0100
0010
0001
0000
0000
0000
0100
0000
0010
1000
,  // measure 54
0100
0000
0000
0000
1000
0000
0100
0000
0001
0000
0100
0000
0010
0000
0001
1000
0010
0000
0000
0000
1000
0000
0010
0100
0001
0000
0000
0000
0010
0000
0100
1000
,  // measure 55
0001
0000
0000
0000
0100
0000
1000
0000
0100
0000
0001
0000
0010
0000
0100
0000
0110
0000
1001
0000
0000
0000
1000
0100
0010
0100
1000
0100
0010
0001
1000
0010
,  // measure 56
0100
0000
0010
1000
0100
0010
0001
0100
1010
0000
0001
0010
0011
0000
1000
0100
,  // measure 57
1100
0000
0000
0000
0010
0000
0001
1000
0000
0010
0100
0000
0010
0000
1000
0000
1010
0000
0000
0000
0001
0000
0100
0000
0101
0000
0000
0000
1000
0000
0100
0000
,  // measure 58
0011
0000
0100
0001
0100
1000
0100
0010
0011
0000
1000
0010
1010
0000
1000
0100
,  // measure 59
0011
0000
0000
0000
0010
0000
0100
0000
0001
0000
0100
0000
0010
0000
0001
0000
1001
0000
1100
0000
0000
0000
0001
0100
0010
0100
0001
0100
0010
1000
0001
0010
,  // measure 60
0100
0000
1000
0100
0001
0100
0010
0001
1100
0000
0001
0100
0101
0000
0001
0100
,  // measure 61
1010
0000
0000
0000
0001
0000
0100
0010
0000
1000
0100
0000
0010
0000
0001
0000
1100
0000
0000
0000
1000
0000
0001
0000
0101
0000
0000
0000
0001
0000
1000
0000
,  // measure 62
0110
0000
0100
0001
0100
0010
0100
1000
0011
0000
0100
0010
1010
0000
0010
1000
,  // measure 63
0101
0000
0000
0000
0100
0000
1000
0000
0100
0000
0010
0000
0100
0000
0001
0000
1000
0000
0100
0000
0000
0000
1000
0100
0010
0001
0100
0010
1000
0100
0010
0002
,  // measure 64
2000
0000
0000
0000
,  // measure 65
3003
0000
0000
0000
;
