#TITLE:Big Macintosh (Jackle App Remix) ("Flight" Special);
#SUBTITLE:;
#ARTIST:Silva Hound;
#TITLETRANSLIT:;
#SUBTITLETRANSLIT:;
#ARTISTTRANSLIT:;
#GENRE:Dance;
#CREDIT:;
#BANNER:Big Macintosh (JackleApp Remix).png;
#BACKGROUND:Big Macintosh (JackleApp Remix)-bg.png;
#LYRICSPATH:;
#CDTITLE:;
#MUSIC:Big Macintosh (JackleApp Remix).ogg;
#OFFSET:-5.720000;
#SAMPLESTART:15.080000;
#SAMPLELENGTH:15.000000;
#SELECTABLE:YES;
#BPMS:0.000000=128.000000
;
#STOPS:0.000000=3.740000
;
#BGCHANGES:;
#KEYSOUNDS:;
#ATTACKS:;

//---------------dance-single - gaining wings special----------------
#NOTES:
     dance-single:
     :
     Challenge:
     16:
     0.684978,0.716311,1.000000,0.419987,0.163328,256.000000,119.000000,36.000000,0.000000,0.000000,0.000000,0.684978,0.716311,1.000000,0.419987,0.163328,256.000000,119.000000,36.000000,0.000000,0.000000,0.000000:
// measure 0
2002
3003
0000
0000
0000
0000
0000
0000
0000
0000
0000
0000
0000
0000
0000
0000
0000
0000
0000
0000
0000
0000
0000
0000
0000
0000
0000
0000
0000
0000
0000
0000
,  // measure 1
0000
0000
0000
0000
,  // measure 2
0000
0000
0000
0000
,  // measure 3
1100
0100
1100
0100
0110
0010
0011
1000
,  // measure 4
1002
0103
1002
0103
2001
3100
2001
3100
,  // measure 5
1001
0000
0001
0100
0101
0000
1000
0100
1100
0000
0001
0100
0101
0000
1000
0100
,  // measure 6
0011
1000
1010
0001
0011
1000
1010
0001
,  // measure 7
0011
0001
1100
1000
1001
0001
0101
0001
,  // measure 8
2001
3100
0011
1000
1002
0103
1010
0001
,  // measure 9
0011
0000
1000
0010
1010
0000
0001
0010
0011
0000
1000
0100
1100
0000
0001
0100
,  // measure 10
0101
1000
0101
1000
1100
0001
1100
0001
,  // measure 11
1001
1100
1001
1100
1001
0101
1001
0101
,  // measure 12
1001
0011
1001
0011
1001
1010
1001
1010
,  // measure 13
1001
0000
1000
0100
0011
0000
1000
0010
1010
0000
0001
0100
0101
0000
1000
0100
,  // measure 14
1100
0011
1100
0011
1001
0110
1001
0110
,  // measure 15
2020
0000
0000
0000
0000
0000
0000
3030
,  // measure 16
0101
0000
0000
0000
1010
0000
1000
0100
1100
0000
0000
0000
0011
0000
1000
0000
,  // measure 17
1001
0000
0000
0000
0110
0000
0001
1000
1001
0000
0000
0000
0110
0000
0001
0000
,  // measure 18
0011
0000
0000
0000
1100
0000
0001
0100
1010
0000
0000
0000
0101
0000
1000
0000
,  // measure 19
1001
0000
0000
0000
1100
0000
0010
0001
1001
0000
0000
0000
1010
0000
0100
0000
,  // measure 20
0101
0000
0000
0000
1001
0000
1000
0100
1100
0000
0000
0000
0011
0000
0010
0000
,  // measure 21
0110
0000
0000
0000
1001
0000
0001
0100
1010
0000
0000
0000
1001
0000
1000
0000
,  // measure 22
1100
0000
0000
0000
0011
0000
0100
1000
1001
0000
0000
0000
1100
0000
0010
0000
,  // measure 23
0011
0000
0000
0000
0101
0000
0010
1000
1001
0000
0000
0000
0110
0000
0001
0000
,  // measure 24
1001
0000
0001
0000
0100
0000
0010
1000
1010
0000
1000
0000
0001
0000
0010
0000
,  // measure 25
0110
0000
0100
0000
1000
0000
0001
0100
0101
0000
0010
0000
1000
0000
0001
0000
,  // measure 26
1001
0000
0001
0000
0010
0000
0100
1000
1100
0000
1000
0000
0001
0000
0100
0000
,  // measure 27
1010
0000
0001
0000
0010
0000
0100
1000
0011
0000
1000
0000
0010
0000
0100
0000
,  // measure 28
0110
0000
1000
0000
0001
0000
0010
0100
0110
0000
1000
0000
0001
0000
0100
0000
,  // measure 29
1010
0000
0001
0000
1000
0000
0100
0010
0011
0000
1000
0000
0001
0000
0010
0000
,  // measure 30
1100
0000
0001
0000
1000
0000
0010
0100
0101
0000
1000
0000
0001
0000
0010
0000
,  // measure 31
1100
0000
0001
0000
1000
0000
0010
0100
0101
0000
1000
0000
0001
0000
0010
0000
,  // measure 32
0200
0320
0032
2003
,  // measure 33
3020
0000
0000
0000
0230
0000
0000
0000
0302
0000
0000
0000
2003
0000
0000
3000
,  // measure 34
2200
0000
0000
3300
0022
0000
0000
0033
2002
0000
0000
3003
2020
0000
0000
3030
,  // measure 35
0202
0000
0000
0303
2020
0000
0000
3030
2002
0000
0000
3003
0220
0000
0000
0330
,  // measure 36
2200
0000
0000
0000
,  // measure 37
0000
0000
0000
0000
,  // measure 38
0000
0000
0300
3001
0000
0000
0000
0000
;
