#TITLE:Becoming Popular (Assertive Fluttershy Mix);
#SUBTITLE:;
#ARTIST:Assertive Fluttershy;
#TITLETRANSLIT:;
#SUBTITLETRANSLIT:;
#ARTISTTRANSLIT:;
#GENRE:UK Hardcore;
#CREDIT:;
#BANNER:Becoming Popular (Assertive Fluttershy mix).png;
#BACKGROUND:Becoming Popular (Assertive Fluttershy mix)-bg.png;
#LYRICSPATH:;
#CDTITLE:;
#MUSIC:Becoming Popular (Assertive Fluttershy mix).mp3;
#OFFSET:-0.079;
#SAMPLESTART:57.635;
#SAMPLELENGTH:15.000;
#SELECTABLE:YES;
#BPMS:0.000=200.000
;
#STOPS:
;
#BGCHANGES:;
#KEYSOUNDS:;
#ATTACKS:;

//---------------dance-single - ----------------
#NOTES:
     dance-single:
     :
     Hard:
     13:
     0.546,0.606,0.475,0.333,0.000,362.000,57.000,40.000,0.000,0.000,4.000,0.546,0.606,0.475,0.333,0.000,362.000,57.000,40.000,0.000,0.000,4.000:
0000
0000
0000
0000
,
0000
0000
0000
0000
,
0000
0000
0000
0000
,
0000
0000
0000
0000
,
0000
0000
0000
0000
,
0000
0000
0000
0000
,
0000
0000
0000
0000
,
0000
0000
0000
0000
,
1000
0101
0100
1001
,
0010
0000
0100
0000
0001
0010
0001
0010
,
0001
0100
1010
0100
,
1001
0000
0001
0000
0010
0100
0010
0100
,
0010
1010
0100
0001
,
1000
0000
1001
0000
1000
0100
0010
0001
,
1000
0010
0011
1000
,
0101
0000
0100
0000
0001
0010
0100
1000
,
2020
0000
0000
0000
,
0000
0000
0000
0000
0000
0000
0000
0030
,
0200
0000
0000
0000
,
0000
0000
0000
0300
,
0002
0000
0000
0000
,
3000
0000
0000
0000
,
0203
0000
0000
0000
,
0000
0000
0000
0000
0000
0000
0000
0300
,
0020
1000
0000
1000
,
0000
0000
1000
0000
0000
0000
1000
0030
,
0002
0010
0000
1000
,
0000
0000
0100
0000
0000
0000
0010
0003
,
2000
0001
0000
0010
,
0000
0001
0000
3010
,
0001
0000
0001
0000
1000
0100
0001
0010
,
1000
0000
0100
0000
0010
0000
0001
0100
,
1000
1010
0100
0010
,
0100
0000
0001
1000
0000
0010
0001
0010
,
0100
0110
0010
1001
,
0001
0100
1000
0001
0000
1000
0001
0100
,
0001
0110
0001
1000
,
0100
0000
0010
1000
0000
0010
0100
0001
,
0100
1010
0100
1001
,
1000
0010
0001
1000
0000
0100
0001
0100
,
2000
0010
0001
0010
,
0100
0000
3001
0000
0200
0302
0203
0320
,
0032
1000
0010
1000
,
0010
0000
0103
0000
2000
3200
0302
0203
,
2300
0001
0010
0001
,
0010
0000
3001
0000
0020
0032
2003
3002
,
0203
1000
0001
1000
,
0304
0000
0400
0000
0000
0000
0000
0000
0003
0300
0000
0000
1001
0000
0000
0000
,
0100
0010
0001
0110
,
0100
0001
1000
0010
,
0100
0000
1001
0000
1000
0000
0001
0100
,
1000
0000
1010
0000
0001
0000
0010
0001
,
0100
0000
0001
0000
0100
0000
1000
0100
,
0001
1010
0010
0101
,
0100
1001
0100
0001
,
0010
0001
0010
0100
1000
0001
1000
0100
,
0001
0101
0010
1000
,
0001
0000
0110
0000
0001
0100
0010
0100
,
1000
2100
0001
0010
,
0100
0000
3001
0000
0001
0100
0010
0100
,
0001
0000
0100
0000
1001
0000
1000
0010
,
0002
1003
0020
1030
,
0200
0310
1002
0003
,
0101
0000
1100
0000
1000
0001
0100
0010
,
0002
0000
0000
0000
,
0000
0100
0000
0010
0000
1000
0000
0013
,
0000
0001
0010
0100
0000
0010
0000
0100
,
0000
0010
1000
0001
0100
0010
0200
0300
,
0000
0101
0000
1001
0000
1000
0000
1100
,
0000
0001
0000
0110
0000
0100
0000
0001
,
0000
0100
0010
1000
0000
0010
0000
0001
,
0000
1000
0010
0001
0000
0001
0100
1000
,
0000
0010
0000
0011
0000
0010
0000
1100
,
0000
1000
0000
1100
0000
0010
0000
0110
,
0000
0010
0001
1000
0000
0010
0000
0101
,
0000
0010
0000
1001
0000
0100
1000
0100
,
0000
0011
0000
1010
0000
0100
0000
1001
,
0000
0010
0000
0110
0000
0001
0000
0010
,
0000
0001
0100
1000
0000
1000
0000
0001
,
1000
0010
4000
0040
0000
0000
0000
0000
,
3030
0001
1010
1000
,
0010
0110
0001
0011
,
0100
1001
0100
1010
,
0010
0101
0100
1100
,
1000
0010
0001
0110
,
0010
0001
0100
1000
,
1001
0100
0100
1000
,
0001
0101
1000
1010
,
2000
0001
0100
0001
,
3200
1000
0001
1000
,
0302
1000
1000
0100
,
0023
1000
0001
0001
,
2030
0100
0100
0001
,
3020
0100
1000
0100
,
0230
0010
0001
0310
,
0110
0000
0110
0000
1000
0001
1000
0001
,
2002
0000
0000
0000
,
3003
0000
0000
0000
;

//---------------dance-single - ----------------
#NOTES:
     dance-single:
     :
     Medium:
     11:
     0.588,0.600,0.533,0.075,0.000,421.000,64.000,9.000,0.000,0.000,0.000,0.588,0.600,0.533,0.075,0.000,421.000,64.000,9.000,0.000,0.000,0.000:
0010
0000
0000
0010
0000
0000
0000
0000
,
0000
0001
0000
0001
0000
1000
0010
1000
,
0010
0000
0000
0010
0000
0000
0000
0000
,
0000
1000
0000
1000
0001
0000
0010
0000
,
0100
0000
0000
0100
0000
0000
0000
0000
,
0000
1000
0000
1000
0000
0001
0100
0001
,
0100
0000
0000
0100
0000
0000
0000
0000
,
0000
0001
0000
0001
1000
1000
0100
0000
,
0010
0000
0000
0010
0000
0000
0000
0000
,
0000
0001
0000
0010
0000
0100
1000
0001
,
0100
0000
0000
0100
0000
0000
0000
0000
,
0000
0010
0000
0010
1000
0000
0001
0000
,
0010
0000
0000
0010
0000
0000
0000
0000
,
0000
0100
0000
0100
0000
1000
0001
1000
,
0010
0000
0000
0010
0000
0000
0000
0000
,
0101
0000
0101
0000
0001
0001
0010
0000
,
0100
0000
0000
1000
0100
0001
0100
1000
,
0000
1000
0000
0001
0000
0001
0010
1000
,
0010
0001
0100
1000
0100
0001
0100
1000
,
0000
1000
0000
0001
0000
0010
1000
0100
,
0010
0100
0010
0000
0100
1000
0010
0100
,
0000
0100
0000
0001
0000
0001
0010
0010
,
0100
0010
0000
0110
0000
0100
1000
0001
,
0000
0101
0000
1010
0000
1000
0001
1000
,
0100
0010
0100
0010
0100
1000
0100
1000
,
0000
0001
0000
1000
0000
0010
1000
0001
,
0100
0001
0100
0001
1000
0001
1000
0001
,
0000
0011
0000
0011
0000
0010
0100
1000
,
0010
0100
0010
0100
0001
0010
0001
0010
,
0000
0100
0000
0110
0000
0100
1000
1000
,
0100
1000
0000
1001
0000
0001
0100
0001
,
0000
0100
0000
0100
0000
0010
1000
0001
,
0010
0110
0100
1100
,
1000
0000
1001
0000
0001
0100
0001
0010
,
0100
0110
0010
0011
,
0001
0000
1001
0000
1000
0010
1000
0100
,
0010
0110
0100
1100
,
1000
0000
1001
0000
0001
0100
0001
0010
,
0100
1100
1000
1010
,
0010
0000
0110
0000
0100
0001
0010
0001
,
0100
0110
0010
1010
,
1000
0000
1001
0000
0001
0010
0001
0100
,
0010
1010
1000
1001
,
0001
0000
0011
0000
0100
0010
0001
1000
,
0010
0110
0100
0101
,
0001
0000
1001
0000
1000
0100
0001
0100
,
1000
1010
0010
0110
,
0100
0001
0100
0000
0001
0000
0010
0000
,
0100
0000
0100
1000
0000
0100
0010
0000
,
0001
0100
0001
1000
,
1100
0000
0110
1100
,
0000
0000
0000
1000
0100
0010
0001
0000
,
1001
0000
0010
0100
,
1001
1000
0100
0010
,
0011
0000
1100
1010
,
0000
0000
0000
0000
0010
0100
0002
0000
,
1003
0000
0001
1000
0000
1000
0010
0000
,
0100
0010
1000
0001
,
0010
0100
0000
0010
0000
0000
1100
0000
,
0000
0100
0020
0000
,
0130
0000
0010
0010
0001
0000
1000
0000
,
0010
1000
0001
0010
,
0100
1000
0001
0100
,
1010
0000
1001
0000
0001
0010
0001
0000
,
0020
0000
0000
0000
,
0000
0100
0000
0100
0000
0130
0000
0100
,
0000
1000
0100
1000
0000
1000
0000
1000
,
0000
0001
0100
0001
0000
0100
0010
0000
,
1000
0010
0000
0010
0000
0010
0000
0010
,
0000
0100
0000
0100
0000
0100
0000
0100
,
0000
0001
1000
0001
0000
0001
0000
0001
,
0000
1000
0001
1000
0000
0100
0010
0100
,
0000
1000
0000
1000
0000
1000
0000
1000
,
0000
0010
0000
0010
0000
0010
0000
0010
,
0000
0100
0010
0100
0000
0100
0000
0100
,
0000
0001
1000
0001
0000
1000
0010
0000
,
0100
0010
0000
0010
0000
0010
0000
0010
,
0000
1000
0000
1000
0000
1000
0000
1000
,
0000
0001
0010
0001
0000
0001
0000
0001
,
0100
0010
2000
0000
3002
0000
0013
0000
,
0110
0000
0000
0110
0000
0000
0000
0000
,
0000
1001
0000
1001
0000
1000
0100
0010
,
0100
0000
0000
0110
0000
0000
0000
0000
,
0000
1001
0000
0001
1000
0000
0010
0000
,
0110
0000
0000
0110
0000
0000
0000
0000
,
0000
1001
0000
1001
0000
1000
0100
0010
,
0100
0000
0000
0110
0000
0000
0000
0000
,
0000
0011
0000
0010
0100
1000
0020
0000
,
0130
0000
0000
0110
0000
0000
0000
0000
,
0000
1001
0000
1001
0000
0001
0100
1000
,
0100
0000
0000
0110
0000
0000
0000
0000
,
0000
0110
0000
0010
2000
0000
3002
0000
,
0013
0000
0000
0110
0000
0000
0000
0000
,
0000
1001
0000
1001
0000
1000
0100
0001
,
0100
0000
0000
0110
0000
0000
0000
0000
,
0010
0001
0010
0001
1000
0100
2000
0000
,
3001
0000
0000
0000
;

//---------------dance-single - ----------------
#NOTES:
     dance-single:
     :
     Easy:
     7:
     0.382,0.479,0.192,0.058,0.000,291.000,23.000,7.000,0.000,0.000,0.000,0.382,0.479,0.192,0.058,0.000,291.000,23.000,7.000,0.000,0.000,0.000:
0010
0000
0010
0000
,
0000
1000
0001
1000
,
0100
0000
0100
0000
,
0000
0010
0001
0100
,
0010
0000
0010
0000
,
0000
1000
0001
1000
,
0100
0000
0100
0000
,
0000
1000
0100
0020
,
0130
0000
0100
0000
,
0000
1000
0001
1000
,
0010
0000
0010
0000
,
0000
1000
0001
0020
,
0130
0000
0100
0000
,
0000
1000
0001
1000
,
0010
0000
0010
0000
,
0100
0001
0010
0100
,
1000
0000
0001
0001
,
0100
0000
0010
0010
,
1010
0000
1000
1000
,
0001
0000
0010
0010
,
0110
0000
0100
0100
,
1000
0000
0010
0010
,
0011
0000
1000
0100
,
0001
0010
0100
1000
,
1001
0000
1000
1000
,
0010
0000
0100
0100
,
0101
0000
0001
0001
,
0010
0000
0100
0100
,
1100
0000
1000
0010
,
1000
0000
0001
0010
,
0110
0000
0100
0100
,
1000
0100
0010
0001
,
0100
0010
0100
0010
,
0100
0010
0100
0001
,
0010
0100
0010
0100
,
0010
0100
0010
0001
,
0100
0010
0100
0010
,
0100
0010
0010
1000
,
0010
0100
0010
0100
,
0010
0100
0100
0001
,
0010
0001
0010
0001
,
0010
0001
1000
0001
,
1000
0100
1000
0100
,
1000
0100
1000
0001
,
0100
0001
0100
0001
,
0100
0001
0100
0001
,
1000
0010
1000
0010
,
1010
1010
2020
3030
,
2000
0000
3001
0000
,
0001
0010
0100
1000
,
0010
0000
0000
0010
0000
0000
0110
0000
,
0000
0000
0100
0100
,
0001
0000
0100
0100
,
1000
0100
0010
1000
,
0001
0000
0000
1000
0000
0000
1001
0000
,
0000
0000
1000
1000
,
0010
0000
0000
0010
0000
0000
0010
0000
,
0100
0001
1000
0010
,
0100
0000
0000
0100
0000
0000
0100
0000
,
0000
0000
0110
0000
,
0010
1000
0001
0010
,
0100
1000
0001
0100
,
0010
0010
1000
0001
,
0011
0110
0200
0000
,
0320
0000
0000
0000
,
0000
0100
0100
0130
,
0000
1000
1000
1000
,
0000
0001
0001
1001
,
0000
0010
0010
0010
,
0000
0100
0100
0100
,
0000
1000
1000
1001
,
0000
0001
0001
0011
,
0000
0100
1000
0100
,
0000
0010
0001
0010
,
0000
0001
1000
1001
,
0000
1000
0010
1010
,
0000
1000
0100
0001
,
0000
1000
0010
0001
,
0000
1000
0010
0110
,
0000
0001
0010
0110
,
0100
0000
0100
0000
,
0000
1000
0001
1000
,
0010
0000
0010
0000
,
0000
0100
0001
1000
,
0100
0000
0100
0000
,
0000
1000
0001
1000
,
0010
0000
0010
0000
,
1000
0010
0100
0001
,
0010
0000
0010
0000
,
0000
0001
1000
0001
,
0100
0000
0100
0000
,
0000
0010
0001
1000
,
0010
0000
0010
0000
,
0000
1000
0001
1000
,
0100
0000
0100
0000
,
1000
0100
0010
0011
;

//---------------dance-single - ----------------
#NOTES:
     dance-single:
     :
     Beginner:
     5:
     0.206,0.239,0.000,0.067,0.000,165.000,0.000,8.000,0.000,0.000,0.000,0.206,0.239,0.000,0.067,0.000,165.000,0.000,8.000,0.000,0.000,0.000:
0000
0000
0000
0000
,
0000
0000
0000
0000
,
0000
0000
0000
0000
,
0000
0000
0000
0000
,
0010
0000
0010
0000
,
0000
0000
0010
0000
,
1000
0000
1000
0000
,
0000
0000
1000
0000
,
0001
0000
0001
0000
,
0000
0000
0001
0000
,
0100
0000
0100
0000
,
0000
0000
0100
0000
,
0010
0000
0010
0000
,
0000
0000
0010
0000
,
1000
0000
1000
0000
,
0001
0001
0001
0000
,
2000
0000
0000
0000
,
0000
0000
0000
0000
,
3200
0000
0000
0000
,
0000
0000
0000
0000
,
0320
0000
0000
0000
,
0000
0000
0000
0000
,
0032
0000
0000
0000
,
0000
0000
0000
0000
,
2003
0000
0000
0000
,
0000
0000
0000
0000
,
3020
0000
0000
0000
,
0000
0000
0000
0000
,
0230
0000
0000
0000
,
0000
0000
0000
0000
,
0302
0000
0000
0000
,
0000
0000
0000
0000
,
1003
0000
1000
0000
,
1000
0000
1000
0000
,
0001
0000
0001
0000
,
0001
0000
0001
0000
,
0010
0000
0010
0000
,
0010
0000
0010
0000
,
0100
0000
0100
0000
,
0100
0000
0100
0000
,
1000
0000
1000
0000
,
1000
0000
1000
0000
,
0001
0000
0001
0000
,
0001
0000
0001
0000
,
0100
0000
0100
0000
,
0100
0000
0100
0000
,
0010
0000
0010
0000
,
0010
0010
0010
0000
,
1000
0000
1000
0000
,
1000
0000
1000
0000
,
0001
0000
0001
0000
,
0001
0000
0100
0000
,
0001
0000
0100
0000
,
0001
0000
0100
0000
,
0010
0000
0100
0000
,
0100
0000
0010
0000
,
1000
0000
1000
0000
,
1000
0000
1000
0000
,
0001
0000
0001
0000
,
0001
0000
0100
0000
,
0001
0000
0001
0000
,
0010
0000
0001
0000
,
0010
0000
0001
0000
,
0010
0000
0001
0000
,
0100
0000
0000
0000
,
0000
0100
0100
0100
,
0000
0100
0100
0100
,
0000
0100
0100
0100
,
0000
0010
0010
0010
,
0000
0010
0010
0010
,
0000
0010
0010
0010
,
0000
0010
0010
0010
,
0000
1000
1000
1000
,
0000
1000
1000
1000
,
0000
1000
1000
1000
,
0000
1000
1000
1000
,
0000
0001
0001
0001
,
0000
0001
0001
0001
,
0000
0001
0001
0001
,
0000
0001
0001
0001
,
1000
0000
1000
0000
,
0000
0000
1000
0000
,
0001
0000
0001
0000
,
0000
0000
0001
0000
,
0100
0000
0100
0000
,
0000
0000
0100
0000
,
0010
0000
0010
0000
,
0000
0000
0010
0000
,
1000
0000
1000
0000
,
0000
0000
1000
0000
,
0010
0000
0010
0000
,
0000
0000
0010
0000
,
0100
0000
0100
0000
,
0000
0000
0100
0000
,
0001
0000
0001
0000
,
0001
0001
0001
0000
;
