#TITLE:Beat It;
#SUBTITLE:;
#ARTIST:Michelle Creber & Gabriel Brown;
#TITLETRANSLIT:;
#SUBTITLETRANSLIT:;
#ARTISTTRANSLIT:;
#GENRE:;
#CREDIT:;
#BANNER:Beat It.png;
#BACKGROUND:Beat It-bg.png;
#LYRICSPATH:;
#CDTITLE:;
#MUSIC:Beat It.ogg;
#OFFSET:-0.672;
#SAMPLESTART:45.460;
#SAMPLELENGTH:15.000;
#SELECTABLE:YES;
#BPMS:0.000=150.000
;
#STOPS:
;
#BGCHANGES:;
#KEYSOUNDS:;
#ATTACKS:;

//---------------dance-single - ----------------
#NOTES:
     dance-single:
     :
     Beginner:
     3:
     0.084,0.123,0.000,0.000,0.000,76.000,0.000,0.000,0.000,0.000,0.000,0.084,0.123,0.000,0.000,0.000,76.000,0.000,0.000,0.000,0.000,0.000:
0000
0000
0000
0000
,
0000
0000
0000
0000
,
0000
0000
0000
0000
,
0000
0000
0000
0000
,
1000
0000
0000
0000
,
0001
0000
0000
0000
,
0010
0000
0000
0000
,
0100
0000
0000
0000
,
1000
0000
0000
0000
,
0010
0000
0000
0000
,
0100
0000
0000
0000
,
0001
0000
0000
0000
,
1000
0000
0000
0000
,
0100
0000
0000
0000
,
1000
0000
0000
0000
,
0000
0000
0000
0000
,
0001
0000
0000
0000
,
0010
0000
0000
0000
,
0001
0000
0000
0000
,
0100
0000
0000
0000
,
0010
0000
0000
0000
,
0100
0000
0000
0000
,
0010
0000
0000
0000
,
0000
0000
0000
0000
,
1000
0000
0000
0000
,
0001
0000
0000
0000
,
1000
0000
0000
0000
,
0100
0000
0000
0000
,
0010
0000
0010
0000
,
0010
0000
0000
0000
,
0001
0000
0000
0000
,
0100
0000
0000
0000
,
0010
0000
0000
0000
,
1000
0000
0000
0000
,
0100
0000
0000
0000
,
0010
0000
0000
0000
,
0100
0000
0000
0000
,
0100
0000
0000
0000
,
1000
0000
0000
0000
,
1000
0000
0000
0000
,
0001
0000
0000
0000
,
0100
0000
0000
0000
,
0001
0000
0000
0000
,
0000
0000
0000
0000
,
1000
0000
0000
0000
,
0100
0000
0000
0000
,
1000
0000
0000
0000
,
1000
0000
0000
0000
,
0010
0000
0000
0000
,
0100
0000
0000
0000
,
0010
0000
0000
0000
,
0000
0000
0000
0000
,
1000
0000
0000
0000
,
0001
0000
0000
0000
,
1000
0000
0000
0000
,
0000
0000
0000
0000
,
0001
0000
0001
0000
,
0001
0000
0000
0000
,
0010
0000
0000
0000
,
0100
0000
0000
0000
,
0100
0000
0000
0000
,
1000
0000
0000
0000
,
0001
0000
0000
0000
,
0100
0000
0000
0000
,
0010
0000
0010
0000
,
0010
0000
0000
0000
,
1000
0000
0000
0000
,
0001
0000
0000
0000
,
0010
0000
0000
0000
,
0100
0000
0000
0000
,
1000
0000
0000
0000
,
0010
0000
0000
0000
,
0100
0000
0000
0000
,
0100
0000
0000
0000
,
0001
0000
0000
0000
,
0001
0000
0000
0000
,
1000
0000
0000
0000
,
1000
0000
0000
0000
,
0100
0000
0000
0000
,
0100
0100
0100
0000
;

//---------------dance-single - ----------------
#NOTES:
     dance-single:
     :
     Medium:
     9:
     0.511,0.430,0.193,0.170,0.004,416.000,25.000,22.000,0.000,0.000,0.000,0.511,0.430,0.193,0.170,0.004,416.000,25.000,22.000,0.000,0.000,0.000: // measure 0
1000
0010
1000
0001
,  // measure 1
0010
0000
0100
0000
0000
1000
0100
0000
,  // measure 2
0010
0001
0100
0001
,  // measure 3
1000
0000
0010
0000
0000
0100
0010
0200
,  // measure 4
0000
0301
0100
0010
1000
0000
0000
0002
,  // measure 5
0000
0013
0001
0000
0110
0000
0000
0200
,  // measure 6
0000
1300
0100
0010
0001
0000
0000
2000
,  // measure 7
0000
3010
1000
0000
0000
0010
0010
0200
,  // measure 8
0000
0310
0100
0001
1000
0000
0000
0200
,  // measure 9
0000
0310
0100
0000
0011
0000
0000
0020
,  // measure 10
0000
0130
0010
0001
1000
0000
0000
0020
,  // measure 11
0000
0130
0010
0000
0000
0001
0001
0100
,  // measure 12
0000
0010
1000
0001
0010
0001
0010
0000
,  // measure 13
0100
0010
0001
0000
1001
0000
0000
1000
,  // measure 14
0010
0000
0100
0010
1000
0100
0001
0100
,  // measure 15
1000
0010
0100
0000
0000
0001
0100
0001
,  // measure 16
0010
0100
0010
0000
0100
0000
1000
0100
,  // measure 17
1000
0001
0100
0000
0010
0000
1000
0000
,  // measure 18
0001
0001
0000
0000
0011
0000
1100
0000
,  // measure 19
1000
1000
0000
0000
1001
0000
0001
0000
,  // measure 20
0000
0100
0001
0100
0010
1000
0001
0000
,  // measure 21
0010
0100
1000
0000
1001
0000
0000
1000
,  // measure 22
0010
0000
0010
0100
0001
1000
0100
0001
,  // measure 23
0100
1000
0010
0000
0110
0000
0000
0100
,  // measure 24
0001
0010
0001
0000
0010
0000
0100
1000
,  // measure 25
0010
0100
0010
0000
0100
0000
0001
0000
,  // measure 26
1000
1000
0000
0000
0100
0000
0010
0001
,  // measure 27
0010
0001
0100
0000
0010
1000
0010
0000
,  // measure 28
1000
0000
0000
2000
0000
0000
0000
0000
3001
0000
0002
0000
0000
0000
0000
0000
,  // measure 29
0013
0020
0000
0000
0130
0200
0000
1300
,  // measure 30
0000
0100
0010
0100
0010
0000
0100
0010
,  // measure 31
0000
0100
1000
0000
0000
0001
0100
0001
,  // measure 32
0000
0100
0010
0000
0100
0010
0000
1000
,  // measure 33
0000
0100
0010
0000
0100
0000
0000
0010
,  // measure 34
0000
0001
0100
0000
0010
1000
0000
0001
,  // measure 35
0000
1000
0001
0000
1000
0000
1001
0000
,  // measure 36
1000
0010
0000
0000
0100
0010
1000
0000
,  // measure 37
0001
0010
0000
0000
0100
0010
0001
0000
,  // measure 38
1000
0001
0000
0000
0100
0001
1000
0000
,  // measure 39
0100
1000
0000
0000
1010
0000
0010
0000
,  // measure 40
0000
0100
0001
0100
0010
1000
0001
0000
,  // measure 41
0010
0100
1000
0000
1001
0000
0000
1000
,  // measure 42
0010
0000
0100
0010
1000
0001
0010
0100
,  // measure 43
0001
1000
0001
0000
0000
0100
0100
0010
,  // measure 44
0001
0010
0002
0000
2003
0000
3010
1000
,  // measure 45
0001
0010
0100
0000
0010
0000
0100
0000
,  // measure 46
1000
1000
0000
0000
1001
0000
0001
0000
,  // measure 47
0100
0100
0000
0000
0100
0110
0000
0110
,  // measure 48
0000
0010
1000
0010
0100
0001
1000
0000
,  // measure 49
0100
0010
0100
0000
0110
0000
0000
0010
,  // measure 50
0001
0100
0001
1000
0100
1000
0010
0100
,  // measure 51
0001
1000
0001
0000
0000
1000
1000
0001
,  // measure 52
0100
0010
1000
1000
0100
0010
0001
0001
,  // measure 53
0100
0010
1000
0000
0001
0000
1000
0000
,  // measure 54
0010
0010
0000
0000
0110
0000
0010
1000
,  // measure 55
0001
1000
0001
0000
0010
0000
0100
0000
,  // measure 56
1000
2000
0000
0000
3001
0002
0000
0000
,  // measure 57
0013
0020
0000
0000
0130
0200
0000
1300
,  // measure 58
0000
0100
0010
0100
0010
0000
0100
0010
,  // measure 59
0000
0010
0001
0000
0100
0001
0100
0010
,  // measure 60
0000
1000
0010
0000
1000
0010
0000
0100
,  // measure 61
0000
0010
1000
0000
0110
0000
0100
0001
,  // measure 62
0000
0010
0001
0000
0100
0001
0000
0010
,  // measure 63
0000
0100
0010
0000
0100
1000
0100
0000
,  // measure 64
1000
2000
0000
0000
3001
0002
0000
0000
,  // measure 65
0013
0020
0000
0000
0130
0200
0000
1300
,  // measure 66
0000
0100
0010
0100
0010
0000
0010
0001
,  // measure 67
0000
0001
0100
0000
0010
0100
0010
0100
,  // measure 68
0000
0100
0001
0000
0010
0001
0000
0010
,  // measure 69
0000
0100
0010
0000
1100
0000
1000
0010
,  // measure 70
0000
1000
0001
0000
0010
0001
0000
0100
,  // measure 71
0000
0010
1000
0000
0100
0010
0100
0000
,  // measure 72
0100
1000
1000
0000
1100
0000
0100
1000
,  // measure 73
1000
0000
1000
0000
0001
1000
0001
1000
,  // measure 74
0000
0001
0001
0000
0101
0000
0100
0001
,  // measure 75
0001
0000
0101
0000
0001
1000
0001
0000
,  // measure 76
1000
0010
0010
0000
1010
0000
1000
0010
,  // measure 77
0010
0000
1010
0000
1000
0001
1000
0001
,  // measure 78
0000
0010
0010
0000
0011
0000
0001
0010
,  // measure 79
0001
0010
0110
0000
;

//---------------dance-single - ----------------
#NOTES:
     dance-single:
     :
     Easy:
     5:
     0.246,0.246,0.008,0.093,0.000,210.000,1.000,12.000,0.000,0.000,0.000,0.246,0.246,0.008,0.093,0.000,210.000,1.000,12.000,0.000,0.000,0.000: // measure 0
0000
0000
0000
0000
,  // measure 1
0000
0000
0000
0000
,  // measure 2
0000
0000
0000
0000
,  // measure 3
0000
0000
0000
0000
,  // measure 4
0001
1000
0001
0000
,  // measure 5
0010
0100
0010
0000
,  // measure 6
0100
1000
0100
0000
,  // measure 7
1000
1000
0000
0000
,  // measure 8
0001
0100
0001
0000
,  // measure 9
1000
0010
1000
0000
,  // measure 10
0010
0100
0010
0000
,  // measure 11
0100
0100
0000
0000
,  // measure 12
0000
0001
0010
0001
,  // measure 13
1000
0100
1000
0000
,  // measure 14
0001
0100
0010
0100
,  // measure 15
0001
1000
0000
0000
,  // measure 16
0001
0010
0100
0100
,  // measure 17
0010
0001
1000
0010
,  // measure 18
0100
0000
0000
0010
,  // measure 19
0100
0000
0000
0000
,  // measure 20
0000
0001
0010
0100
,  // measure 21
1000
0001
0100
0000
,  // measure 22
0010
1000
0010
0100
,  // measure 23
0001
0100
0000
0000
,  // measure 24
0001
0010
0100
0000
,  // measure 25
1000
0001
0100
0010
,  // measure 26
1000
0000
0000
0001
,  // measure 27
0001
1000
0001
0010
,  // measure 28
0200
0300
0200
0300
,  // measure 29
2000
3000
2000
3000
,  // measure 30
0001
0100
0010
0000
,  // measure 31
0010
1000
0000
0010
,  // measure 32
1000
0001
0010
0000
,  // measure 33
0100
1000
0001
0000
,  // measure 34
0100
1000
0100
0000
,  // measure 35
0010
1000
0001
0010
,  // measure 36
0100
0000
0000
0100
,  // measure 37
0100
0000
0000
0010
,  // measure 38
0010
0000
0000
0010
,  // measure 39
0010
0000
0000
0000
,  // measure 40
0000
0001
0100
1000
,  // measure 41
0001
0010
1000
0000
,  // measure 42
0001
0010
0100
1000
,  // measure 43
0010
0100
0000
0000
,  // measure 44
0001
0010
0100
0000
,  // measure 45
0100
1000
0001
0000
,  // measure 46
0100
0000
0000
0100
,  // measure 47
0100
0000
0000
0000
,  // measure 48
0010
1000
0100
1000
,  // measure 49
0001
0010
0100
0000
,  // measure 50
0010
1000
0001
0100
,  // measure 51
1000
0010
0000
0000
,  // measure 52
0100
0001
0010
0000
,  // measure 53
0100
1000
0001
0000
,  // measure 54
0010
0000
0000
0010
,  // measure 55
0010
0010
0010
0100
,  // measure 56
2000
3000
2000
3000
,  // measure 57
0002
0003
0002
0003
,  // measure 58
0100
0010
0100
0000
,  // measure 59
0010
1000
0000
0001
,  // measure 60
0010
0100
1000
0000
,  // measure 61
0010
0100
0001
0000
,  // measure 62
1000
0100
0001
0000
,  // measure 63
1000
0010
0001
1000
,  // measure 64
0020
0030
0020
0030
,  // measure 65
0200
0300
0200
0300
,  // measure 66
0001
0010
0001
0000
,  // measure 67
0001
1000
0000
0010
,  // measure 68
0100
0001
0010
0000
,  // measure 69
0100
1000
0001
0000
,  // measure 70
0100
1000
0001
0000
,  // measure 71
0010
1000
0001
0000
,  // measure 72
0010
1000
1000
0000
,  // measure 73
0001
0001
0000
0000
,  // measure 74
0010
0100
0100
0000
,  // measure 75
1000
1000
0000
0000
,  // measure 76
0000
0010
0010
0000
,  // measure 77
0100
0100
0000
0000
,  // measure 78
0000
0001
0001
0000
,  // measure 79
1000
1000
1001
0000
;

//---------------dance-single - ----------------
#NOTES:
     dance-single:
     :
     Hard:
     11:
     0.565,0.491,0.162,0.093,0.019,479.000,21.000,12.000,0.000,0.000,0.000,0.565,0.491,0.162,0.093,0.019,479.000,21.000,12.000,0.000,0.000,0.000: // measure 0
0010
0000
1010
1000
0001
0000
0011
0001
,  // measure 1
1000
0000
1001
0001
0000
1000
1001
0000
,  // measure 2
0100
0000
1100
1000
0001
0000
0101
0001
,  // measure 3
1000
0000
1001
1000
0000
1001
1000
0001
,  // measure 4
0000
0010
0100
1000
0010
0000
0100
0001
,  // measure 5
0000
0001
1000
0000
0100
0000
0010
0100
,  // measure 6
0000
0100
1000
0001
0100
0000
0010
0100
,  // measure 7
0000
0100
0002
0000
0000
0013
0010
0100
,  // measure 8
0000
1000
0100
1000
0001
0000
0100
0010
,  // measure 9
0000
0010
0100
0000
0101
0000
0001
1000
,  // measure 10
0000
0100
1000
0010
0100
0000
0001
0010
,  // measure 11
0000
0100
0010
0000
0000
0100
1000
0001
,  // measure 12
0000
0100
0010
1000
0100
0010
0100
1000
,  // measure 13
0001
0100
0010
0000
1010
0000
1000
0001
,  // measure 14
0010
0100
1000
0001
0100
0010
0100
0001
,  // measure 15
0010
0100
1000
0000
0001
0000
0100
0010
,  // measure 16
0100
0001
0010
0100
1000
0000
0001
0100
,  // measure 17
0010
0100
0001
1000
0100
0000
0010
0000
,  // measure 18
0100
1000
0001
0000
0100
0000
0010
0000
,  // measure 19
1000
0001
0010
0000
0100
1000
0001
1000
,  // measure 20
0000
0100
0010
0001
0100
0010
0100
0001
,  // measure 21
1000
0100
0010
0000
0011
0000
0001
0100
,  // measure 22
0010
0100
0001
1000
0100
0010
0100
1000
,  // measure 23
0010
0100
0001
0000
1001
0000
1000
0100
,  // measure 24
0010
0100
1000
0000
0010
0000
0100
0001
,  // measure 25
0010
0100
1000
0000
0001
0000
0100
0000
,  // measure 26
0010
0100
0001
0000
1000
0000
0100
0010
,  // measure 27
0100
1000
0001
0000
1001
0000
0010
0000
,  // measure 28
1000
0200
0001
0300
0001
0200
1000
0300
,  // measure 29
1000
0020
0001
0030
0001
0010
1000
0100
,  // measure 30
0000
0100
1000
0001
0100
0000
0010
0100
,  // measure 31
0000
0010
1000
0000
0001
0010
0100
1000
,  // measure 32
0000
0001
0100
0000
0010
1000
0010
0100
,  // measure 33
0000
0100
0001
0000
0010
0000
0100
1000
,  // measure 34
0000
0001
1000
0000
0100
0010
0100
0001
,  // measure 35
0000
0100
1000
0010
0100
0000
0101
0000
,  // measure 36
0010
1000
0100
0000
1000
0000
0101
0000
,  // measure 37
0001
0010
0100
0000
1000
0000
0011
0000
,  // measure 38
0001
0100
1000
0000
0100
0000
0011
0000
,  // measure 39
0010
1000
0100
0000
0001
0000
1010
0000
,  // measure 40
0000
0010
0001
0100
0010
0100
0001
0010
,  // measure 41
0100
1000
0001
0000
0100
0000
0010
0100
,  // measure 42
0001
1000
0100
0010
0100
1000
0001
0100
,  // measure 43
1000
0100
0001
0000
0010
0000
0100
1000
,  // measure 44
0001
1000
0100
0000
0010
0000
0100
1000
,  // measure 45
0010
0100
0001
0020
0000
0000
0130
0000
,  // measure 46
1000
0001
0100
0000
0010
0000
0100
0000
,  // measure 47
0001
1000
0100
0000
0010
0001
0100
0001
,  // measure 48
0000
0010
0100
1000
0010
0100
0001
0010
,  // measure 49
0100
1000
0001
0000
0101
0000
0100
0010
,  // measure 50
0100
0001
1000
0100
0010
0100
1000
0010
,  // measure 51
0001
0010
1000
0000
0001
0000
1000
0100
,  // measure 52
1000
0001
0100
0010
0100
0001
0010
0100
,  // measure 53
1000
0001
0100
0000
0010
0000
1000
0000
,  // measure 54
0001
1000
0010
0000
0100
0000
0001
1000
,  // measure 55
0100
1000
0001
0000
0200
0000
0310
0000
,  // measure 56
1000
0200
0001
0000
1300
0200
0001
0000
,  // measure 57
1300
0020
0001
0000
1030
0010
0001
0010
,  // measure 58
0000
0100
0001
0010
0100
0000
0100
1000
,  // measure 59
0000
1000
0001
0000
0100
0010
0100
0001
,  // measure 60
0000
0001
0010
0000
0100
1000
0001
1000
,  // measure 61
0000
1000
0010
0000
0100
0000
0001
0010
,  // measure 62
0000
0100
0001
0000
0100
1000
0010
0100
,  // measure 63
0000
0100
0001
0000
1000
0000
1001
0000
,  // measure 64
0001
0020
1000
0000
0031
0020
1000
0000
,  // measure 65
0031
0200
1000
0000
0301
0100
1000
0100
,  // measure 66
0000
0001
0010
0100
1000
0000
1000
0010
,  // measure 67
0000
0010
0100
0000
0001
0010
0100
1000
,  // measure 68
0000
1000
0001
0000
0100
0010
0100
1000
,  // measure 69
0000
0100
0001
0000
0010
0100
1000
0100
,  // measure 70
0000
0100
0010
0000
0001
1000
0010
0100
,  // measure 71
0000
0100
0001
0000
0010
0000
0100
0000
,  // measure 72
1000
0100
0100
0000
0010
0000
0100
0001
,  // measure 73
0001
0000
0100
0000
1000
0001
0100
0001
,  // measure 74
1000
0000
0010
1000
0010
0000
0000
0000
0100
0000
0000
0000
0001
0000
0010
0000
,  // measure 75
0010
0000
0001
0000
1000
0010
1000
0010
,  // measure 76
0100
0000
0001
0100
0001
0000
0000
0000
1000
0000
0000
0000
0001
0000
1000
0100
,  // measure 77
1000
0000
0001
0000
1000
0010
1000
0001
,  // measure 78
1000
0000
0001
0010
0001
0000
0000
0000
1000
0000
0000
0000
0001
0000
1000
0010
,  // measure 79
1000
0001
1001
0000
;
