#VERSION:0.81;
#TITLE:Bag Hag (I Didn't Put Those In My Bag);
#SUBTITLE:;
#ARTIST:Sim Gretina;
#TITLETRANSLIT:;
#SUBTITLETRANSLIT:;
#ARTISTTRANSLIT:;
#GENRE:House;
#ORIGIN:;
#CREDIT:;
#BANNER:Bag Hag (I Didn't Put Those In My Bag).png;
#BACKGROUND:Bag Hag (I Didn't Put Those In My Bag)-bg.png;
#PREVIEWVID:;
#JACKET:Bag Hag (I Didn't Put Those In My Bag)-jacket.png;
#CDIMAGE:;
#DISCIMAGE:;
#LYRICSPATH:;
#CDTITLE:;
#MUSIC:Bag Hag (I Didn't Put Those In My Bag).ogg;
#OFFSET:-7.422425;
#SAMPLESTART:96.019997;
#SAMPLELENGTH:15.000000;
#SELECTABLE:YES;
#BPMS:0.000=130.000,192.000=125.278,193.000=130.000;
#STOPS:;
#DELAYS:;
#WARPS:;
#TIMESIGNATURES:0.000=4=4;
#TICKCOUNTS:0.000=4;
#COMBOS:0.000=1;
#SPEEDS:0.000=1.000=0.000=0;
#SCROLLS:0.000=1.000;
#FAKES:;
#LABELS:0.000=Song Start;
#BGCHANGES:;
#KEYSOUNDS:;
#ATTACKS:
;

//---------------dance-single - ----------------
#NOTEDATA:;
#CHARTNAME:;
#STEPSTYPE:dance-single;
#DESCRIPTION:;
#CHARTSTYLE:;
#DIFFICULTY:Easy;
#METER:5;
#RADARVALUES:0.200343,0.226541,0.053938,0.044949,0.000000,145.000000,6.000000,5.000000,0.000000,0.000000,0.000000,0.000000,0.000000,0.200343,0.226541,0.053938,0.044949,0.000000,145.000000,6.000000,5.000000,0.000000,0.000000,0.000000,0.000000,0.000000;
#CREDIT:;
#NOTES:
1000
0000
1000
0000
,
0100
0000
0100
0000
,
0010
0000
0010
0000
,
0001
0000
0001
0000
,
1000
0000
0010
0000
,
0100
0001
0100
0000
,
0010
0000
1000
0000
,
0001
0010
0001
0000
,
0100
0000
0001
0000
,
1000
0100
1000
0000
,
0010
0000
0100
0000
,
0001
1000
0001
0000
,
1001
0000
0000
0000
,
0000
0000
0000
0000
,
0010
1000
0100
0000
,
0010
0001
0100
0000
,
0001
1000
0100
0000
,
0110
0000
0000
0000
,
0010
0001
0100
0000
,
1000
0100
0010
0000
,
1000
0100
0010
0000
,
0001
0000
0000
0000
,
0200
0000
0000
0000
,
0300
0000
0000
0000
,
0000
0010
0000
0010
,
0000
1000
0000
1000
,
0000
0001
0000
0001
,
0000
0010
0000
0010
,
0000
0100
0000
0100
,
0000
1000
0000
1000
,
0000
0001
0000
0001
,
0000
0100
0000
0100
,
0110
0010
0010
0010
,
1000
1000
1000
1000
,
0001
0001
0001
0001
,
0100
0100
0100
0100
,
1001
0100
0100
0100
,
0010
0010
0010
0010
,
0001
0001
0001
0001
,
1000
1000
1000
1000
,
0010
0100
0010
0100
,
0001
1000
0001
1000
,
0100
0010
0100
0010
,
0001
1000
0001
1000
,
0020
0000
0000
0000
,
0230
0000
0000
0000
,
0302
0000
0000
0003
,
1001
0000
0000
0000
,
1000
0100
0010
0100
,
1000
0001
0100
0000
,
0010
0100
0001
0010
,
0100
1000
0001
0000
,
0100
0010
0100
1000
,
0100
0001
0010
0000
,
0100
1000
0100
0001
,
0200
0000
0000
0300
,
1001
0000
0000
0000
;

//---------------dance-single - ----------------
#NOTEDATA:;
#CHARTNAME:;
#STEPSTYPE:dance-single;
#DESCRIPTION:;
#CHARTSTYLE:;
#DIFFICULTY:Beginner;
#METER:1;
#RADARVALUES:0.073202,0.098887,0.017979,0.000000,0.000000,55.000000,2.000000,0.000000,0.000000,0.000000,0.000000,0.000000,0.000000,0.073202,0.098887,0.017979,0.000000,0.000000,55.000000,2.000000,0.000000,0.000000,0.000000,0.000000,0.000000,0.000000;
#CREDIT:;
#NOTES:
0000
0000
0000
0000
,
0000
0000
0000
0000
,
0000
0000
0000
0000
,
0000
0000
0000
0000
,
0010
0000
0100
0000
,
0001
0000
1000
0000
,
0100
0000
0010
0000
,
0001
0000
1000
0000
,
0010
0000
0100
0000
,
0001
0000
0010
0000
,
0100
0000
1000
0000
,
0001
0000
0000
0000
,
1001
0000
0000
0000
,
0000
0000
0000
0000
,
1000
0000
0000
0000
,
0010
0000
0000
0000
,
0100
0000
0000
0000
,
0001
0000
0000
0000
,
1000
0000
0000
0000
,
0100
0000
0000
0000
,
0010
0000
0000
0000
,
0001
0000
0000
0000
,
0100
0000
0000
0000
,
0000
0000
0000
0000
,
0010
0000
0000
0000
,
1000
0000
0000
0000
,
0010
0000
0000
0000
,
0000
0000
0000
0000
,
0100
0000
0000
0000
,
0001
0000
0000
0000
,
0100
0000
0000
0000
,
0000
0000
0000
0000
,
0001
0000
0000
0000
,
1000
0000
0000
0000
,
0100
0000
0000
0000
,
0000
0000
0000
0000
,
0010
0000
0000
0000
,
0001
0000
0000
0000
,
0100
0000
0000
0000
,
0000
0000
0000
0000
,
0010
0000
0000
0000
,
1000
0000
0000
0000
,
0010
0000
0000
0000
,
1000
0000
0000
0000
,
0001
0000
0000
0000
,
0100
0000
0000
0000
,
0001
0000
0000
0000
,
1001
0000
0000
0000
,
1000
0000
0000
0000
,
0100
0000
0000
0000
,
0010
0000
0001
0000
,
0010
0000
0000
0000
,
0100
0000
0000
0000
,
1000
0000
0000
0000
,
0001
0000
1000
0000
,
0001
0000
0000
0000
;

//---------------dance-single - ----------------
#NOTEDATA:;
#CHARTNAME:;
#STEPSTYPE:dance-single;
#DESCRIPTION:;
#CHARTSTYLE:;
#DIFFICULTY:Medium;
#METER:6;
#RADARVALUES:0.291524,0.302055,0.134846,0.062928,0.031464,205.000000,15.000000,7.000000,0.000000,0.000000,0.000000,0.000000,0.000000,0.291524,0.302055,0.134846,0.062928,0.031464,205.000000,15.000000,7.000000,0.000000,0.000000,0.000000,0.000000,0.000000;
#CREDIT:;
#NOTES:
0010
1000
0100
1000
,
0001
0100
0010
1001
,
0100
0010
0100
1000
,
0001
0100
0010
1000
,
0001
0010
0001
0100
,
1000
0000
0100
0000
0010
1000
0010
0000
,
0100
0001
0010
1000
,
0010
0000
0100
0000
1000
0001
1000
0000
,
0010
0100
0001
0100
,
1000
0000
0100
0000
0001
0010
0001
0000
,
0100
0010
1000
0100
,
0010
0000
0001
1000
0010
0000
0100
0000
,
2002
0000
0000
0000
,
0000
0000
3003
0000
,
0010
1001
0100
0010
,
0100
1100
0010
0100
,
0001
0110
0001
0100
,
0020
0000
0000
0000
,
1030
0000
0101
0000
0010
0000
1000
0100
,
0010
0000
0011
0000
0100
0000
1000
0001
,
0100
0000
0110
0000
0010
0000
1000
0001
,
0020
0000
0000
0000
,
0230
0000
0000
0000
,
0300
0000
0000
0000
,
1000
0010
0000
0010
,
0100
0010
0000
1000
,
0100
0010
0000
0010
,
0100
1000
0000
0001
,
0100
0010
0000
0100
,
0001
0010
0000
0100
,
1000
0001
0000
0100
,
0010
0100
0000
0001
,
1000
0100
0100
0100
,
0010
0001
0001
0001
,
1000
0010
0010
0100
,
0100
0001
0001
0010
,
0010
0100
0100
0100
,
0100
1000
1000
1000
,
1000
0001
0001
0100
,
0100
1000
1000
0100
,
0110
0010
1000
0100
,
0001
0010
1000
0100
,
0110
0001
0100
1000
,
0010
0001
0100
0010
,
0110
0010
1000
0001
,
1001
0100
0010
0001
,
0110
1000
0001
0100
,
0120
0000
0000
0000
,
1030
0000
0000
0000
0010
0000
0000
0100
0000
0000
0100
0000
0010
0000
0000
0000
,
1000
0000
0000
0000
0100
0000
0000
0010
0000
0000
0010
0000
0001
0000
0000
0000
,
0100
0000
0000
0000
0010
0000
0000
0100
0000
0000
0001
0000
0010
0000
0000
0000
,
0100
0000
0000
0000
1000
0000
0000
0001
0000
0000
0001
0000
0100
0000
0000
0000
,
0010
0000
0000
0000
0100
0000
0000
0001
0000
0000
1000
0000
0100
0000
0000
0000
,
0010
0000
0000
0000
0001
0000
0000
0100
0000
0000
1000
0000
0100
0000
0000
0000
,
0010
0000
0000
0000
1000
0000
0000
0100
0000
0000
0010
0000
0001
0000
0000
0000
,
2000
0000
0000
3000
,
1001
0000
0000
0000
;

//---------------dance-single - ----------------
#NOTEDATA:;
#CHARTNAME:;
#STEPSTYPE:dance-single;
#DESCRIPTION:;
#CHARTSTYLE:;
#DIFFICULTY:Hard;
#METER:10;
#RADARVALUES:0.396833,0.402740,0.152825,0.098887,0.157320,281.000000,17.000000,11.000000,0.000000,0.000000,0.000000,0.000000,0.000000,0.396833,0.402740,0.152825,0.098887,0.157320,281.000000,17.000000,11.000000,0.000000,0.000000,0.000000,0.000000,0.000000;
#CREDIT:;
#NOTES:
0010
0000
1100
0000
0010
0100
0001
0000
,
0010
1100
0001
0110
,
0010
0000
1100
0000
0001
0100
1000
0000
,
1100
0000
0101
0000
0001
0010
0100
0000
,
0100
1000
0010
0100
0010
1000
0100
0000
,
0010
0001
0100
1000
0100
0001
0010
0000
,
0100
1000
0010
0001
0010
0100
0001
0000
,
0010
0100
1000
0001
0100
0010
1000
0000
,
1000
0001
0010
0100
1000
0001
0100
0000
,
0010
0100
0001
0010
0100
0000
0110
0000
,
0010
0001
0100
1000
0100
0010
1000
0000
,
0002
0010
0100
1003
,
2002
0000
0000
0000
,
0000
0000
3003
0000
,
1001
0000
0100
0000
0010
0001
0100
0000
,
1000
0000
0100
0000
0001
0010
1000
0000
,
0010
0000
0100
0000
1000
0010
0100
0000
,
0110
0000
0000
0000
,
0010
0000
0001
0000
0010
1000
0100
0000
,
0001
0000
1000
0000
0010
0100
1000
0000
,
0010
0000
0001
0000
1000
0100
0001
0000
,
1001
0000
0000
0000
,
0200
0000
0000
0000
,
0000
0000
0000
0300
,
0010
0000
0000
0000
1000
0000
0000
0100
0000
0000
0010
0000
0000
0000
0100
0000
,
1000
0000
0000
0000
0001
0000
0000
0100
0000
0000
0010
0000
0000
0000
0100
0000
,
0001
0000
0000
0000
1000
0000
0000
0100
0000
0000
0001
0000
0000
0000
0100
0000
,
0010
0000
0000
0000
0001
0000
0000
0100
0000
0000
1000
0000
0000
0000
0100
0000
,
0010
0000
0000
0000
1000
0000
0000
0100
0000
0000
0010
0000
0000
0000
0001
0000
,
0100
0000
0000
0000
0010
0000
0000
0100
0000
0000
0001
0000
0000
0000
1000
0000
,
0100
0000
0000
0000
0001
0000
0000
1000
0000
0000
0010
0000
0000
0000
0100
0000
,
1000
0000
0000
0000
0001
0000
0000
0100
0000
0000
0010
0000
0000
0000
1000
0000
,
0001
0000
0000
0000
0010
0000
0000
0100
0000
0000
1000
0000
0000
0000
0001
0000
,
0100
0000
0000
0010
0000
0000
1000
0000
0000
0100
0000
0000
0010
0000
0000
0000
,
0100
0000
0000
1000
0000
0000
0001
0000
0000
0100
0000
0000
0010
0000
0000
0100
,
0000
0000
0001
0000
0000
0010
0000
0000
0100
0000
0000
1000
0000
0000
0001
0000
,
0100
0000
0000
0000
0010
0000
0000
0100
0000
0000
0001
0000
0000
0000
0010
0000
,
0100
0000
0000
1000
0000
0000
0010
0000
0000
0100
0000
0000
0001
0000
0000
0000
,
0010
0000
0000
1000
0000
0000
0010
0000
0000
0100
0000
0000
1000
0000
0000
0001
,
0000
0000
0100
0000
0000
0010
0000
0000
1000
0000
0000
0001
0000
0000
0010
0000
,
0100
0000
0000
0000
1000
0000
0000
0010
0000
0000
0100
0000
0000
0000
0001
0000
,
0010
0000
0000
0000
0100
0000
0000
1000
0000
0000
0010
0000
0000
0000
0001
0000
,
0010
0000
0000
0000
1000
0000
0000
0100
0000
0000
0010
0000
0000
0000
0001
0000
,
0100
0000
0000
0000
0010
0000
0000
1000
0000
0000
0100
0000
0000
0000
0010
0000
,
0210
1300
2010
3100
,
1002
0013
0201
1300
,
0001
0100
1000
0100
0001
0010
1000
0010
,
0002
0000
0000
0003
,
0010
0000
0100
0000
1000
0000
1000
0010
0000
0000
0100
0000
0001
0000
0010
0000
,
0100
0000
1000
0000
0001
0000
0001
0100
0000
0000
0010
0000
0100
0000
0001
0000
,
0010
0000
0100
0000
1000
0000
1000
0010
0000
0000
0100
0000
0001
0000
0010
0000
,
0100
0000
1000
0000
0001
0000
0001
0100
0000
0000
0010
0000
0100
0000
0001
0000
,
0010
0000
1000
0000
0010
0000
0100
1000
0000
0000
0001
0000
0100
0000
0010
0000
,
0100
0000
0001
0000
0010
0000
0100
1000
0000
0000
0001
0000
0100
0000
0010
0000
,
0100
0000
0001
0000
0100
0000
1000
0100
0000
0000
0001
0000
0010
0000
0000
0000
,
0220
0000
0000
0330
,
1001
0000
0000
0000
;

//---------------dance-single - ----------------
#NOTEDATA:;
#CHARTNAME:;
#STEPSTYPE:dance-single;
#DESCRIPTION:;
#CHARTSTYLE:;
#DIFFICULTY:Challenge;
#METER:14;
#RADARVALUES:0.741011,0.707942,0.818066,0.584333,0.458476,421.000000,91.000000,65.000000,0.000000,0.000000,0.000000,0.000000,0.000000,0.741011,0.707942,0.818066,0.584333,0.458476,421.000000,91.000000,65.000000,0.000000,0.000000,0.000000,0.000000,0.000000;
#CREDIT:;
#NOTES:
1000
0000
0100
0000
1100
0000
0001
0100
0010
0000
1000
0000
1010
0000
0001
0000
,
0010
0000
0100
0000
1100
0000
0001
1000
1001
0000
1000
0000
1100
0000
0010
0000
,
0100
0000
1000
0000
1001
0000
0001
0001
0100
0000
0010
0000
1010
0000
1000
0000
,
0100
0000
0010
0000
0011
0000
0100
0100
1000
0000
0010
0000
0100
0001
1000
0000
,
1100
0000
0000
0010
0000
0001
0100
0000
0000
0010
0000
1000
0100
0000
0000
1000
0000
0001
0100
0000
0000
0001
0000
1000
,
0100
0000
0000
0010
0000
0001
1000
0000
0000
0010
0000
1000
0001
0000
0000
0100
0000
0010
1000
0000
0000
0100
0000
0010
,
0001
0000
0000
1000
0000
0010
1000
0000
0000
0001
0000
0010
0001
0000
0000
0020
0000
0000
1030
0000
0000
0020
0000
0000
,
0031
0200
1300
0200
0301
0010
0100
0010
,
0001
1000
0010
0100
0001
0010
1000
0010
,
0001
0100
1000
0100
0102
0013
2100
3010
,
0100
0001
1000
0100
0001
0100
0010
0001
,
1000
0000
0010
0000
0100
0000
0100
0000
0001
0000
0001
0000
1001
0001
0100
0000
,
0101
0001
0100
0001
0100
0010
0100
0010
,
1000
0100
0010
0001
0100
0010
1000
0001
,
0201
0000
0010
0000
1300
0000
0100
0010
0000
0010
0000
0010
1000
0000
0001
0010
,
0200
0000
0310
0000
0220
0000
0330
0010
0000
0001
0000
1000
0100
0000
0100
1000
,
0002
0000
0103
0000
0201
0000
0310
1000
0000
1000
0000
0001
0010
0000
0100
1000
,
0002
0000
0023
0000
0000
0100
0130
0010
0000
0001
0001
0000
1000
0100
0010
0000
,
0021
0000
0100
0000
0031
0000
1000
0010
0000
1010
0000
0100
0101
0000
0000
0000
,
1010
0000
0001
0000
0011
0000
0100
0010
0000
0011
0000
1000
0010
0000
1001
0000
,
0102
0000
1003
0000
1200
0000
0310
0001
0000
0011
0000
1000
1010
0000
0000
0000
,
2100
0000
3010
0000
2020
0000
3030
0010
0000
0010
0000
0100
0101
0000
1000
0000
,
2200
0000
0000
0000
,
0000
0000
0000
0000
0000
0000
0000
0000
0300
0000
3010
0000
0010
0100
0001
0000
,
0200
0000
0000
0000
0010
0000
0000
0010
0000
0000
0320
0000
0000
0000
2030
0000
,
3200
0000
0000
0000
0010
0000
0000
0010
0000
0000
0320
0000
0000
0000
0032
0000
,
2003
0000
0000
0000
0010
0000
0000
0010
0000
0000
3020
0000
0000
0000
0230
0000
,
0302
0000
0000
0000
0013
0000
0000
0100
0000
0000
0200
0000
0000
0000
1300
0000
,
0020
0000
0030
0000
1010
0000
0000
0110
0000
0000
0210
0000
0000
0000
0301
0000
,
0020
0000
0030
0000
0011
0000
0000
0110
0000
0000
0210
0000
0000
0000
1300
0000
,
0001
0000
0000
0000
1001
0000
0000
0101
0000
0000
0201
0000
0000
0000
0310
0000
,
1000
0000
0000
0000
1001
0000
0000
1100
0000
0000
1100
0000
0010
0010
0001
0000
,
0011
0000
0000
0000
1001
0000
0000
1001
0000
0000
0101
0000
0000
0000
0201
0000
,
0010
0000
0000
0010
0000
0000
0320
0000
0000
1000
0000
0000
1030
0000
0000
0000
,
1100
0000
0000
1100
0000
0000
0011
0000
0000
1001
0000
0000
0101
0000
0000
1010
,
0000
0000
0101
0000
0000
1001
0000
0000
1100
0000
0000
1100
0000
0000
0001
0000
,
0101
0000
0000
0000
0201
0000
0000
0010
0000
0000
0320
0000
0030
0000
0020
0000
,
1000
0000
0000
1000
0000
0000
2030
0000
0000
0001
0000
0000
3001
0000
0000
0000
,
1100
0000
0000
1100
0000
0000
0011
0000
0000
1001
0000
0000
0101
0000
0000
1010
,
0000
0000
0101
0000
0000
1001
0000
0000
1100
0000
0000
2100
0000
0000
3010
0000
,
0201
0000
0000
0000
1000
0000
0000
0010
0000
0000
0320
0000
0000
0000
1030
0000
,
1200
0000
0000
0000
0001
0000
0000
0010
0000
0000
0320
0000
0000
0000
0031
0000
,
1001
0000
0000
0000
0201
0000
0000
0010
0000
0000
0320
0000
0000
0000
1030
0000
,
1001
0000
0000
0000
1200
0000
0000
0010
0000
0000
0320
0000
0000
0000
0031
0000
,
1002
0000
0103
0000
0101
0000
1000
0001
0010
0100
1000
0000
1100
0000
0001
0100
,
0020
0000
1000
0000
0130
0000
0010
1000
0100
0010
0001
0000
1100
0000
0010
0100
,
2000
0010
0100
3001
0002
0010
0100
1003
,
2002
0000
0000
0000
0000
0000
0000
0000
0000
0000
0003
0000
3010
0010
0100
0000
,
1020
0000
0001
0000
1030
0000
0001
0010
0000
0010
0100
0000
1000
0000
0001
0100
,
0010
0000
0010
0000
1010
0000
0001
0010
0000
0100
1000
0001
1001
0000
0010
0000
,
1001
0000
1000
0000
0010
0000
0100
0001
0000
1000
0100
0000
0010
0000
0001
0020
,
0000
0000
0130
1000
0011
0000
1000
0000
1010
0000
0100
0020
0000
0000
1030
0000
,
0101
0000
0010
0000
1000
0000
0100
0010
0000
0010
0100
0000
0010
0000
0010
0001
,
1000
0000
0010
0000
0100
0000
0001
1000
0000
1000
0010
0100
0110
0000
1000
0000
,
1002
0000
0013
0000
0100
0000
0100
1000
0000
0001
0100
0000
0010
0000
1000
0001
,
0010
0000
0100
0000
0001
0000
0100
0000
1000
0000
0010
0000
0010
1000
0001
0000
,
2002
3003
0000
0000
;
