#VERSION:0.81;
#TITLE:Babs Seed;
#SUBTITLE:;
#ARTIST:♪♪♪♪♪;
#TITLETRANSLIT:;
#SUBTITLETRANSLIT:;
#ARTISTTRANSLIT:;
#GENRE:My Little Pony;
#ORIGIN:;
#CREDIT:;
#BANNER:Babs Seed.png;
#BACKGROUND:Babs Seed-bg.png;
#PREVIEWVID:;
#JACKET:Babs Seed-jacket.png;
#CDIMAGE:;
#DISCIMAGE:;
#LYRICSPATH:;
#CDTITLE:;
#MUSIC:Babs Seed.mp3;
#OFFSET:-7.120;
#SAMPLESTART:24.880;
#SAMPLELENGTH:15.000;
#SELECTABLE:YES;
#BPMS:0.000=135.000;
#STOPS:;
#DELAYS:;
#WARPS:;
#TIMESIGNATURES:0.000=4=4;
#TICKCOUNTS:0.000=4;
#COMBOS:0.000=1;
#SPEEDS:0.000=1.000=0.000=0;
#SCROLLS:0.000=1.000;
#FAKES:;
#LABELS:0.000=Song Start;
#BGCHANGES:-18.000=Babs Seed.avi=1.000=0=0=0=StretchNoLoop====,
99999=-nosongbg-=1.000=0=0=0 // don't automatically add -songbackground-
;
#KEYSOUNDS:;
#ATTACKS:
;

//---------------dance-single - ----------------
#NOTEDATA:;
#CHARTNAME:;
#STEPSTYPE:dance-single;
#DESCRIPTION:;
#CHARTSTYLE:;
#DIFFICULTY:Hard;
#METER:10;
#RADARVALUES:0.492,0.392,0.176,0.288,0.000,321.000,19.000,31.000,0.000,0.000,0.000,0.000,0.000,0.492,0.392,0.176,0.288,0.000,321.000,19.000,31.000,0.000,0.000,0.000,0.000,0.000;
#CREDIT:;
#NOTES:
// measure 0
0001
0100
0001
1000
0200
0000
1300
0010
,  // measure 1
0100
0001
0100
0010
2000
0000
3000
1000
,  // measure 2
0020
0000
0130
0001
0200
0000
0310
1000
,  // measure 3
0100
0010
0001
1000
0020
0000
0130
0000
,  // measure 4
0001
0000
0100
0010
0100
0001
1000
0000
,  // measure 5
0100
0010
0001
1000
0010
0100
0001
0000
,  // measure 6
0001
1000
0100
1000
0002
0000
0103
0000
,  // measure 7
0100
0001
1000
0100
0010
0001
2000
0000
,  // measure 8
3020
0000
1030
0100
0001
1000
0020
0000
,  // measure 9
0030
0001
0100
0010
1000
0001
2000
0000
,  // measure 10
3001
1001
1000
1100
,  // measure 11
0001
0100
1000
0100
0001
0000
0001
0010
,  // measure 12
0100
1000
0010
0100
0001
0000
0001
0010
,  // measure 13
0100
1000
0010
0100
0020
0000
1030
0000
,  // measure 14
0010
0110
0001
1001
,  // measure 15
1000
0100
0010
0001
1000
0000
0010
0100
,  // measure 16
0001
0100
0010
1000
0100
0000
0010
0001
,  // measure 17
0100
1000
0001
0010
2000
0000
3001
0000
,  // measure 18
0010
1100
0001
0101
,  // measure 19
0100
0010
1000
0001
0020
0000
0130
0000
,  // measure 20
0110
0000
0010
0001
1000
0010
0100
0000
,  // measure 21
0100
0000
0010
1000
0001
0010
0100
0000
,  // measure 22
0100
0000
1000
0001
0100
0010
0100
0001
,  // measure 23
1000
0100
0020
0000
0032
0000
1003
0000
,  // measure 24
1000
0010
0100
0001
0010
0010
0000
0001
,  // measure 25
0100
0010
1000
0001
0010
0000
0100
1000
,  // measure 26
0010
0100
0001
1000
0100
0100
0010
0001
,  // measure 27
0100
1000
0100
0001
0010
0000
0100
0000
,  // measure 28
0000
1000
0010
1000
0002
0000
0013
0100
,  // measure 29
1000
0010
0100
0001
1000
0100
0010
0000
,  // measure 30
0001
0000
0100
0010
0100
0100
0001
1000
,  // measure 31
0100
0010
0002
0000
0103
0010
1000
0000
,  // measure 32
0001
0000
0100
1000
0001
0010
0200
0000
,  // measure 33
0300
0001
0010
0100
1000
0001
0200
0000
,  // measure 34
0310
1100
0010
0101
,  // measure 35
0001
0010
0100
0010
0001
0000
0001
1000
,  // measure 36
0010
0100
0001
1000
0100
0000
0100
0010
,  // measure 37
0001
1000
0010
0100
0002
0000
2003
0000
,  // measure 38
3001
1100
0001
1010
,  // measure 39
0001
0100
0010
0100
0001
0000
0001
0010
,  // measure 40
0100
1000
0001
0100
0010
0000
0010
1000
,  // measure 41
0100
0001
0100
1000
0010
0000
0100
0000
,  // measure 42
0001
1000
0200
0000
,  // measure 43
1300
0000
0010
0000
0200
0000
0000
0300
,  // measure 44
0001
0010
0100
0100
,  // measure 45
0010
0001
0200
0000
,  // measure 46
0310
1000
0010
0000
0200
0000
0301
0000
,  // measure 47
1000
0100
1000
0000
0200
0000
0310
0000
,  // measure 48
0001
1000
0001
0000
0200
0000
0310
0100
,  // measure 49
0001
1000
0100
0000
0220
0000
0330
0000
,  // measure 50
0010
1100
0010
0101
,  // measure 51
0000
0001
0100
1000
0100
0000
0001
0000
,  // measure 52
0010
1100
0010
0101
,  // measure 53
0000
0001
0010
1000
0010
0000
0001
0000
,  // measure 54
0100
1010
0100
0011
,  // measure 55
0000
0001
0100
1000
0002
0000
0023
0000
,  // measure 56
1030
1001
0000
0000
;

//---------------dance-single - ----------------
#NOTEDATA:;
#CHARTNAME:;
#STEPSTYPE:dance-single;
#DESCRIPTION:;
#CHARTSTYLE:;
#DIFFICULTY:Medium;
#METER:7;
#RADARVALUES:0.325,0.261,0.149,0.046,0.000,224.000,16.000,5.000,0.000,0.000,0.000,0.000,0.000,0.325,0.261,0.149,0.046,0.000,224.000,16.000,5.000,0.000,0.000,0.000,0.000,0.000;
#CREDIT:;
#NOTES:
// measure 0
0010
1000
0100
1000
,  // measure 1
0010
0000
0100
0000
0001
0010
0001
0000
,  // measure 2
0100
0010
1000
0100
,  // measure 3
0001
0000
1000
0000
0010
0001
0010
0000
,  // measure 4
0100
1000
0010
0100
,  // measure 5
0001
0000
1000
0000
0100
0010
0100
0000
,  // measure 6
1000
0001
0100
1000
,  // measure 7
0001
0000
0010
0000
1000
0001
1000
0000
,  // measure 8
0001
0010
0100
1000
,  // measure 9
0000
0000
1000
0000
0010
0100
0010
0000
,  // measure 10
1000
1001
0001
1001
,  // measure 11
1000
0010
0100
0001
,  // measure 12
1000
0100
0100
0010
,  // measure 13
0001
1000
1000
0000
,  // measure 14
0010
0110
0100
0110
,  // measure 15
0010
1000
0010
0100
,  // measure 16
0001
1000
1000
0100
,  // measure 17
0010
0001
0001
0000
,  // measure 18
1000
0010
0010
0100
,  // measure 19
0100
0000
0001
1000
0001
0000
1000
0000
,  // measure 20
1001
0000
1000
0010
1000
0000
0010
0000
,  // measure 21
0000
0000
0100
0001
0100
0000
0001
0000
,  // measure 22
0000
0000
1000
0100
1000
0000
0001
0000
,  // measure 23
0010
0001
0100
0100
,  // measure 24
0010
1000
0100
0010
,  // measure 25
0001
0000
1000
0000
0010
0100
0010
0000
,  // measure 26
1000
0100
0001
0100
,  // measure 27
0010
0000
0001
0000
1000
0010
1000
0000
,  // measure 28
0001
0010
0100
1000
,  // measure 29
0001
0000
0100
0000
0010
1000
0010
0000
,  // measure 30
0100
0001
1000
0100
,  // measure 31
1000
0000
0001
0000
0100
0010
0100
0000
,  // measure 32
0001
1000
0010
0100
,  // measure 33
0000
0000
0001
0000
0010
0100
0010
0000
,  // measure 34
0001
1001
1000
1001
,  // measure 35
0001
0010
0100
1000
,  // measure 36
0001
0100
0100
0010
,  // measure 37
1000
0001
0001
0000
,  // measure 38
0010
0101
0010
1100
,  // measure 39
0010
1000
0100
1000
,  // measure 40
0001
0100
0100
0010
,  // measure 41
1000
0001
0001
0000
,  // measure 42
0010
0001
0020
0000
,  // measure 43
0130
1000
0200
0000
,  // measure 44
1300
0001
1000
1000
,  // measure 45
0010
0100
0020
0000
,  // measure 46
1030
0100
0002
0003
,  // measure 47
0001
0100
2000
3000
,  // measure 48
1000
0010
0001
0001
,  // measure 49
0010
1000
0100
0010
,  // measure 50
0001
1001
1000
1001
,  // measure 51
0000
0001
0010
0100
,  // measure 52
1000
1100
0001
0101
,  // measure 53
0000
0100
0010
1000
,  // measure 54
0001
0101
1000
1010
,  // measure 55
0000
0010
0100
0001
,  // measure 56
1000
1001
0000
0000
;

//---------------dance-single - ----------------
#NOTEDATA:;
#CHARTNAME:;
#STEPSTYPE:dance-single;
#DESCRIPTION:;
#CHARTSTYLE:;
#DIFFICULTY:Easy;
#METER:5;
#RADARVALUES:0.215,0.183,0.009,0.037,0.000,157.000,1.000,4.000,0.000,0.000,0.000,0.000,0.000,0.215,0.183,0.009,0.037,0.000,157.000,1.000,4.000,0.000,0.000,0.000,0.000,0.000;
#CREDIT:;
#NOTES:
// measure 0
1000
0000
0010
0000
,  // measure 1
0100
0001
0100
0000
,  // measure 2
0001
0000
0010
0000
,  // measure 3
0100
1000
0100
0000
,  // measure 4
1000
0000
0010
0000
,  // measure 5
0100
0001
0100
0000
,  // measure 6
0001
0000
0100
0000
,  // measure 7
0010
1000
0010
0000
,  // measure 8
2000
0000
3000
0000
,  // measure 9
0002
0003
1000
0000
,  // measure 10
1000
1000
0001
0001
,  // measure 11
1000
0001
1000
0000
,  // measure 12
0010
0000
0100
0000
,  // measure 13
0001
0000
1000
0000
,  // measure 14
0100
0100
0010
0010
,  // measure 15
0100
0010
0100
0000
,  // measure 16
0010
0000
0001
0000
,  // measure 17
1000
0000
0010
0000
,  // measure 18
0000
0100
0100
0010
,  // measure 19
0010
0000
1000
0001
,  // measure 20
1000
0100
0001
1000
,  // measure 21
0000
0001
0100
1000
,  // measure 22
0000
0010
0001
1000
,  // measure 23
0100
0001
0000
0000
,  // measure 24
0010
0000
0100
0000
,  // measure 25
1000
0001
1000
0000
,  // measure 26
0001
0000
0100
0000
,  // measure 27
0010
0100
0010
0000
,  // measure 28
1000
0000
0100
0000
,  // measure 29
0010
0001
0010
0000
,  // measure 30
0100
0000
1000
0000
,  // measure 31
0001
0100
0001
0000
,  // measure 32
0200
0000
0300
0000
,  // measure 33
0020
0030
0100
0000
,  // measure 34
0010
0010
0100
0100
,  // measure 35
0010
0100
0010
0000
,  // measure 36
1000
0000
0100
0000
,  // measure 37
0010
0000
0001
0000
,  // measure 38
1000
1000
0001
0001
,  // measure 39
1000
0001
1000
0000
,  // measure 40
0010
0000
0001
0000
,  // measure 41
0100
0000
1000
0000
,  // measure 42
0010
0010
0010
0000
,  // measure 43
0100
0100
0100
0000
,  // measure 44
0001
0001
1000
1000
,  // measure 45
0001
0001
1000
0000
,  // measure 46
0100
0100
0100
0000
,  // measure 47
0010
0010
0010
0000
,  // measure 48
0001
0001
0100
0100
,  // measure 49
0010
0010
1000
0000
,  // measure 50
1000
1000
0001
0001
,  // measure 51
0000
1000
0001
1000
,  // measure 52
0010
0010
0100
0100
,  // measure 53
0000
0010
0100
0010
,  // measure 54
1000
1000
0001
0001
,  // measure 55
0000
0010
0100
1000
,  // measure 56
0001
1001
0000
0000
;

//---------------dance-single - ----------------
#NOTEDATA:;
#CHARTNAME:;
#STEPSTYPE:dance-single;
#DESCRIPTION:;
#CHARTSTYLE:;
#DIFFICULTY:Beginner;
#METER:1;
#RADARVALUES:0.088,0.078,0.009,0.019,0.000,63.000,1.000,2.000,0.000,0.000,0.000,0.000,0.000,0.088,0.078,0.009,0.019,0.000,63.000,1.000,2.000,0.000,0.000,0.000,0.000,0.000;
#CREDIT:;
#NOTES:
// measure 0
1000
0000
0000
0000
,  // measure 1
0010
0000
0000
0000
,  // measure 2
0100
0000
0000
0000
,  // measure 3
0001
0000
0000
0000
,  // measure 4
0010
0000
0000
0000
,  // measure 5
0100
0000
0000
0000
,  // measure 6
1000
0000
0000
0000
,  // measure 7
0001
0000
0000
0000
,  // measure 8
0200
0000
0000
0000
,  // measure 9
0300
0000
0000
0000
,  // measure 10
0010
0000
0010
0000
,  // measure 11
0010
0000
0000
0000
,  // measure 12
0100
0000
0000
0000
,  // measure 13
0010
0000
0000
0000
,  // measure 14
1000
0000
1000
0000
,  // measure 15
1000
0000
0000
0000
,  // measure 16
0001
0000
0000
0000
,  // measure 17
1000
0000
0000
0000
,  // measure 18
0001
0000
0001
0000
,  // measure 19
0001
0000
0000
0000
,  // measure 20
0010
0000
0000
0000
,  // measure 21
0100
0000
0000
0000
,  // measure 22
1000
0000
0000
0000
,  // measure 23
0001
0000
0000
0000
,  // measure 24
0100
0000
0000
0000
,  // measure 25
0010
0000
0000
0000
,  // measure 26
1000
0000
0000
0000
,  // measure 27
0001
0000
0000
0000
,  // measure 28
0010
0000
0000
0000
,  // measure 29
0100
0000
0000
0000
,  // measure 30
1000
0000
0000
0000
,  // measure 31
0010
0000
0000
0000
,  // measure 32
2000
0000
0000
0000
,  // measure 33
3000
0000
0000
0000
,  // measure 34
0001
0000
0001
0000
,  // measure 35
0001
0000
0000
0000
,  // measure 36
1000
0000
0000
0000
,  // measure 37
0001
0000
0000
0000
,  // measure 38
1000
0000
1000
0000
,  // measure 39
1000
0000
0000
0000
,  // measure 40
0001
0000
0000
0000
,  // measure 41
1000
0000
0000
0000
,  // measure 42
0001
0000
0000
0000
,  // measure 43
0100
0000
0000
0000
,  // measure 44
0010
0000
0000
0000
,  // measure 45
1000
0000
0000
0000
,  // measure 46
0100
0000
0000
0000
,  // measure 47
0001
0000
0000
0000
,  // measure 48
0010
0000
0000
0000
,  // measure 49
1000
0000
0000
0000
,  // measure 50
0001
0000
0001
0000
,  // measure 51
0000
0000
0001
0000
,  // measure 52
0100
0000
0100
0000
,  // measure 53
0000
0000
0100
0000
,  // measure 54
0010
0000
0010
0000
,  // measure 55
1000
0000
0000
0000
,  // measure 56
0000
1001
0000
0000
;
