#TITLE:Babs Seed (Reconciled Mix);
#SUBTITLE:;
#ARTIST:Eurobeat Brony;
#TITLETRANSLIT:;
#SUBTITLETRANSLIT:;
#ARTISTTRANSLIT:;
#GENRE:;
#CREDIT:;
#BANNER:Babs Seed (Reconciled Mix).png;
#BACKGROUND:Babs Seed (Reconciled Mix)-bg.png;
#LYRICSPATH:;
#CDTITLE:cdtitle.png;
#MUSIC:Babs Seed (Reconciled Mix).mp3;
#OFFSET:-0.025;
#SAMPLESTART:24.946;
#SAMPLELENGTH:15.000;
#SELECTABLE:YES;
#BPMS:0.000=154.000
;
#STOPS:
;
#BGCHANGES:;
#KEYSOUNDS:;
#ATTACKS:;

//---------------dance-single - ----------------
#NOTES:
     dance-single:
     :
     Hard:
     12:
     0.587,0.587,0.290,0.352,0.119,335.000,28.000,34.000,0.000,0.000,0.000,0.587,0.587,0.290,0.352,0.119,335.000,28.000,34.000,0.000,0.000,0.000:
0000
0000
0000
0000
,
0000
0000
0000
0000
,
0000
0000
0000
0000
,
0000
0000
0000
0000
,
2000
3001
2000
3001
,
0100
0001
0010
0100
,
1000
0010
0001
0100
,
1000
0001
0010
0100
,
1200
0310
0201
0310
,
1000
0100
0010
0001
,
0010
0001
1000
0000
0100
1000
0001
0000
,
0010
0001
0100
0000
1100
0000
0011
0000
,
0201
0310
1200
0310
,
0001
0100
0010
1000
,
0100
1000
0001
0000
0010
0100
1000
0000
,
0002
0000
0000
0103
,
0010
0000
0100
0001
0100
0000
0010
0000
0000
0000
2100
0000
0000
0000
3002
0000
,
0000
0013
0100
2000
0000
3000
0010
0100
,
0001
0010
1000
0100
0000
0010
1000
0001
,
0000
0010
0000
1002
0000
0103
0001
0010
,
0100
0000
1000
0001
1000
0000
0010
0000
0000
0000
0102
0000
0000
0000
0023
0000
,
0000
0130
1000
0002
0000
0003
0100
0010
,
1000
0000
0100
0000
0000
0010
0000
0000
0001
0000
1000
0000
0001
0000
0010
0000
,
0001
0100
0001
0000
0000
0000
1000
0100
2000
0000
0000
0000
3000
0000
0000
0000
,
0001
0100
0010
0010
0100
0001
0010
0010
,
0100
1000
0001
0100
0100
0000
0001
0010
,
0100
1100
0001
0101
,
1000
0100
0001
0100
2000
0000
3000
0000
,
0010
0100
0001
1000
1000
0100
0010
0001
,
1000
0010
0100
0010
1000
0010
0100
0000
,
0001
0010
0010
0100
0100
0000
1000
0000
,
0100
0010
0001
0100
1000
0100
0001
0000
,
2000
0000
0010
0000
0001
0000
3100
0010
,
0001
1000
1100
0101
,
1020
0031
1020
0031
,
0010
1000
0100
0100
0001
0000
0100
1000
,
0001
0100
0001
0100
0010
0100
0010
0100
,
0001
0010
0001
0010
0001
1000
0100
0010
,
0210
1300
0210
1300
,
0001
0100
0010
1000
1000
0000
0001
0010
,
0100
1000
0100
1000
0010
0100
0010
0100
,
0001
0010
0001
0010
0100
1000
0001
0100
,
0020
0000
0000
0000
1030
0100
1000
0001
,
0200
0300
1010
0011
,
1000
0000
0001
0100
0001
0100
0001
0000
0000
0000
0010
0000
0000
0000
2100
0000
,
0000
3001
0100
2000
0000
3000
0100
0001
,
1000
0100
0010
0001
0000
1000
0010
0001
,
0000
0010
0000
0210
0000
0301
1000
0100
,
0010
0000
0001
1000
0001
1000
0001
0000
0000
0000
0010
0000
0000
0000
2100
0000
,
0000
3001
0100
0020
0000
0030
1000
0100
,
0010
0000
0001
0000
0010
0100
0000
0010
0001
0000
0100
0000
0010
0000
1000
0000
,
0001
0010
0000
0010
0100
0000
0100
1000
0000
1000
0001
0000
0100
0000
0010
0000
,
0100
0000
0010
1000
0010
0100
0010
0000
1000
0000
1100
0000
0000
0000
0120
0000
,
0000
0031
0100
2000
0000
3000
0100
0001
,
0010
1000
0100
0001
0000
1000
0100
0110
,
0000
0001
0000
2001
0000
3010
0100
0001
,
0010
0000
0100
1000
0100
0010
0100
0000
1000
0000
1001
0000
0000
0000
1020
0000
,
0000
0130
0010
0002
0000
0003
0010
1000
,
0001
0000
0010
0000
0100
1000
0000
0100
0010
0000
0001
0000
1000
0000
0010
0000
,
1000
0100
0010
0000
0000
0000
0001
0100
0020
0000
0000
0000
0030
0000
0000
0000
;

//---------------dance-single - ----------------
#NOTES:
     dance-single:
     :
     Medium:
     10:
     0.496,0.433,0.165,0.248,0.036,296.000,16.000,24.000,0.000,0.000,0.000,0.496,0.433,0.165,0.248,0.036,296.000,16.000,24.000,0.000,0.000,0.000:
0000
0000
0000
0000
,
0000
0000
0000
0000
,
0000
0000
0000
0000
,
0000
0000
0000
0000
,
0101
1000
0101
1000
,
0010
0000
1000
0000
0100
1000
0001
0000
,
0010
0000
0001
0000
0100
0001
1000
0000
,
0010
0100
0001
1000
,
1100
0001
1100
0001
,
1000
0000
0100
0000
0010
0100
1000
0000
,
0001
0000
0100
0000
0010
0100
0001
0000
,
0010
0000
0100
0000
1000
0010
0100
0000
,
0110
0001
0110
1000
,
0001
0000
0010
0000
0100
1000
0010
0000
,
0100
0000
0001
0000
0010
0100
1000
0000
,
2002
0000
0000
3003
,
0010
0100
0001
0100
0000
0010
0000
1000
,
0000
0100
0010
0002
0000
0000
1003
0010
,
1000
0000
0001
0010
0000
0100
1000
0010
,
0000
0100
0000
2001
0000
3010
0100
0001
,
0010
0100
0010
0100
0000
1000
0000
0010
,
0000
0100
0010
2000
0000
0000
3001
0010
,
0100
0000
1000
0000
0000
0001
0000
0000
1000
0000
0100
0000
0010
0000
0000
0000
,
0001
0001
0000
1000
2000
0000
3000
0000
,
0001
0010
0100
0000
0001
0010
0100
0000
,
0001
0010
0100
1000
0010
0000
0100
0000
,
0001
0000
1000
0100
0010
0000
0100
0000
,
1000
0010
0100
0001
2000
0000
3000
0000
,
0010
0100
0100
0001
0001
0000
1000
0000
,
0100
0010
0100
0000
0100
0010
0100
0000
,
1000
0000
0001
0100
0001
0000
1000
0000
,
0010
0100
0010
0100
0001
1000
0001
0000
,
2000
0100
0001
3010
,
0001
1000
0101
1100
,
0002
0103
2000
3100
,
0001
1000
0001
0000
2002
0000
3003
0000
,
0010
1000
0100
0000
0010
1000
0100
0000
,
0010
0001
0100
0001
0010
1000
0100
1000
,
0020
0031
0020
1030
,
0010
0001
0100
0000
0220
0000
0330
0000
,
1000
0100
0001
0000
1000
0100
0001
0000
,
0100
1000
0010
1000
0100
0001
0010
0001
,
0200
0000
1000
0000
0010
0000
0301
0100
,
1000
0001
1010
0011
,
1000
0100
1000
0010
0000
0100
0000
0001
,
0000
0010
0100
2000
0000
0000
3001
0010
,
0100
0001
0100
1000
0000
0010
0100
0001
,
0000
1000
0000
0120
0000
1030
0100
0010
,
0001
0100
0001
1000
0000
0100
0000
0010
,
0000
0100
1000
0002
0000
0000
0103
0010
,
1000
0000
0001
0000
0000
0100
0000
0000
0001
0000
1000
0000
0010
0000
0100
0000
,
0001
0000
0000
0010
0000
0000
0100
0000
0000
1000
0000
0000
0010
0000
1000
0000
,
0001
0100
0001
0010
0000
0100
0000
1000
,
0000
0010
0100
0002
0000
0000
1003
0010
,
0100
1000
0100
0001
0000
0010
0100
1000
,
0000
0001
0000
0120
0000
0031
0100
0010
,
1000
0100
1000
0001
0000
0100
0000
0010
,
0000
0100
0001
2000
0000
0000
3100
0010
,
0001
0000
1000
0000
0000
0100
0000
0000
1000
0000
0001
0000
0010
0000
0100
0000
,
1000
0001
1000
0000
0000
0000
0001
1000
0002
0000
0000
0000
0003
0000
0000
0000
;

//---------------dance-single - ----------------
#NOTES:
     dance-single:
     :
     Easy:
     7:
     0.363,0.340,0.021,0.103,0.000,234.000,2.000,10.000,0.000,0.000,0.000,0.363,0.340,0.021,0.103,0.000,234.000,2.000,10.000,0.000,0.000,0.000:
0000
0000
0000
0000
,
0000
0000
0000
0000
,
0000
0000
0000
0000
,
0000
0000
0000
0000
,
1000
0100
0001
0100
,
1000
0010
0100
0001
,
0010
0100
1000
0001
,
0010
0001
1000
0010
,
1000
0100
0001
0100
,
1000
0010
0100
0001
,
0010
0100
0010
0001
,
1000
0010
0100
0001
,
1000
0010
0001
0010
,
1000
0100
0010
0001
,
0100
0001
0010
0100
,
2000
0000
0000
3000
,
0001
0100
0001
0010
,
0100
1000
0100
0000
0010
0000
0001
0000
,
0100
0010
1000
0100
,
0010
0000
0001
1000
0001
0000
0010
0000
,
0100
0000
1000
0000
0010
0100
0010
0000
,
1000
0001
0010
0100
,
1000
0001
1000
0000
0001
1000
0001
0000
,
0100
0010
0000
0100
0020
0000
0030
0000
,
1000
0100
0010
0100
,
1000
0010
0100
0000
,
0001
0010
0001
1000
,
0100
1000
0010
0000
,
0100
0100
0001
0001
,
1000
0100
0001
0100
,
1000
1000
0010
0010
,
0100
0001
1000
0100
,
0020
0000
0001
0031
,
1000
0010
0110
0110
,
2000
3100
2000
3100
,
0010
0001
0100
0010
,
0100
0001
1000
0100
,
0010
0001
0010
0001
0010
0000
0001
0000
,
0002
0103
0002
0103
,
0010
1000
0010
0000
1000
0000
0100
0000
,
0010
0001
1000
0010
,
0100
0001
0100
0001
0100
0000
0010
0000
,
2000
0000
0100
3001
,
0002
0000
0100
1003
,
0001
1000
0001
0000
1000
0000
0100
0000
,
0010
0001
1000
0010
,
0100
0001
0100
0000
0010
0000
1000
0000
,
0100
0010
0001
0100
,
0001
0010
0001
0000
1000
0000
0100
0000
,
0010
0100
1000
0010
,
0100
0001
0100
0000
0010
0000
1000
0000
,
0100
0010
0100
0000
1000
0000
0000
0000
,
0001
0100
0001
0000
0100
0000
0010
0000
,
1000
0001
0010
0100
,
0010
0001
0010
0000
0100
0000
1000
0000
,
0001
0100
0010
0000
,
1000
0100
1000
0000
0001
0000
0100
0000
,
0010
1000
0100
0010
,
0100
1000
0100
0000
0010
0001
0010
0000
,
0001
1000
0000
0001
2000
0000
3000
0000
;

//---------------dance-single - ----------------
#NOTES:
     dance-single:
     :
     Beginner:
     3:
     0.130,0.154,0.031,0.000,0.000,85.000,3.000,0.000,0.000,0.000,0.000,0.130,0.154,0.031,0.000,0.000,85.000,3.000,0.000,0.000,0.000,0.000: // measure 0
0010
0100
0010
0100
,  // measure 1
0000
0000
0000
0000
,  // measure 2
0000
0000
0000
0000
,  // measure 3
0000
0000
0000
0000
,  // measure 4
1000
0001
1000
0001
,  // measure 5
0000
0000
0000
0000
,  // measure 6
0000
0000
0000
0000
,  // measure 7
0000
0000
0000
0000
,  // measure 8
0010
0100
0010
0100
,  // measure 9
0000
0000
0000
0000
,  // measure 10
1000
0000
0000
0000
,  // measure 11
0001
0000
0000
0000
,  // measure 12
1000
0001
1000
0001
,  // measure 13
0000
0000
0000
0000
,  // measure 14
0010
0000
0000
0000
,  // measure 15
0100
0000
0000
0000
,  // measure 16
1000
0000
1000
0000
,  // measure 17
1000
0000
0000
0000
,  // measure 18
0010
0000
0000
0000
,  // measure 19
0010
0000
0000
0000
,  // measure 20
0001
0000
0001
0000
,  // measure 21
0001
0000
0000
0000
,  // measure 22
0010
0000
0000
0000
,  // measure 23
0010
0000
0000
0000
,  // measure 24
0100
0000
0100
0000
,  // measure 25
0100
0000
0100
0000
,  // measure 26
0010
0000
0010
0000
,  // measure 27
0010
0000
0000
0000
,  // measure 28
1000
0000
1000
0000
,  // measure 29
1000
0000
1000
0000
,  // measure 30
0001
0000
0001
0000
,  // measure 31
0001
0000
0000
0000
,  // measure 32
0100
0000
0000
0000
,  // measure 33
1001
0000
1000
1000
,  // measure 34
1000
0001
1000
0001
,  // measure 35
0000
0000
0000
0000
,  // measure 36
0010
0000
0000
0000
,  // measure 37
0100
0000
0000
0000
,  // measure 38
0010
0100
0010
0100
,  // measure 39
0000
0000
0000
0000
,  // measure 40
1000
0000
0000
0000
,  // measure 41
0001
0000
0000
0000
,  // measure 42
1000
0000
0000
0000
,  // measure 43
1001
0000
0001
0001
,  // measure 44
1000
0000
1000
0000
,  // measure 45
1000
0000
0000
0000
,  // measure 46
0010
0000
0000
0000
,  // measure 47
0010
0000
0000
0000
,  // measure 48
0001
0000
0001
0000
,  // measure 49
0001
0000
0000
0000
,  // measure 50
0010
0000
0000
0000
,  // measure 51
0010
0000
0000
0000
,  // measure 52
1000
0000
1000
0000
,  // measure 53
1000
0000
0000
0000
,  // measure 54
0100
0000
0000
0000
,  // measure 55
0100
0000
0000
0000
,  // measure 56
0001
0000
0001
0000
,  // measure 57
0001
0000
0000
0000
,  // measure 58
0100
0000
0000
0000
,  // measure 59
0100
0000
0110
0000
;
