#VERSION:0.81;
#TITLE:B.B.B.F.F. (Fire of Friendship Remix);
#SUBTITLE:;
#ARTIST:Fire of Friendship;
#TITLETRANSLIT:;
#SUBTITLETRANSLIT:;
#ARTISTTRANSLIT:;
#GENRE:House Trance;
#ORIGIN:;
#CREDIT:;
#BANNER:B.B.B.F.F. (Fire of Friendship Remix).png;
#BACKGROUND:B.B.B.F.F. (Fire of Friendship Remix)-bg.png;
#PREVIEWVID:;
#JACKET:B.B.B.F.F. (Fire of Friendship Remix)-jacket.png;
#CDIMAGE:;
#DISCIMAGE:;
#LYRICSPATH:;
#CDTITLE:;
#MUSIC:B.B.B.F.F. (Fire of Friendship Remix).mp3;
#OFFSET:0.000;
#SAMPLESTART:94.057;
#SAMPLELENGTH:15.000;
#SELECTABLE:YES;
#BPMS:0.000=132.000;
#STOPS:;
#DELAYS:;
#WARPS:;
#TIMESIGNATURES:0.000=4=4;
#TICKCOUNTS:0.000=4;
#COMBOS:0.000=1;
#SPEEDS:0.000=1.000=0.000=0;
#SCROLLS:0.000=1.000;
#FAKES:;
#LABELS:0.000=Song Start;
#BGCHANGES:;
#KEYSOUNDS:;
#ATTACKS:
;

//---------------dance-single - ----------------
#NOTEDATA:;
#CHARTNAME:;
#STEPSTYPE:dance-single;
#DESCRIPTION:;
#CHARTSTYLE:;
#DIFFICULTY:Beginner;
#METER:2;
#RADARVALUES:0.123,0.105,0.000,0.053,0.000,108.000,0.000,7.000,0.000,0.000,0.000,0.000,0.000,0.123,0.105,0.000,0.053,0.000,108.000,0.000,7.000,0.000,0.000,0.000,0.000,0.000;
#CREDIT:;
#NOTES:
0000
0000
0000
0000
,
0000
0000
0000
0000
,
0000
0000
0000
0000
,
0000
0000
0000
0000
,
0010
0000
0000
0000
,
0010
0000
0001
0000
,
1000
0000
0000
0000
,
1000
0000
0001
0000
,
0010
0000
0010
0000
,
0010
0000
0000
0000
,
0100
0000
0100
0000
,
0100
0000
0000
0000
,
0010
0000
0010
0000
,
0010
0000
0000
0000
,
0100
0000
0100
0000
,
0100
0000
0000
0000
,
0010
0000
0010
0000
,
0020
0000
0000
0000
,
0130
0000
0100
0000
,
0200
0000
0000
0000
,
0310
0000
0010
0000
,
0020
0000
0000
0000
,
0130
0000
0100
0000
,
0200
0000
0000
0000
,
0310
0000
0010
0000
,
0100
0000
0100
0000
,
1000
0000
1000
0000
,
0001
0000
0001
0000
,
0100
0000
0100
0000
,
0010
0000
0010
0000
,
1000
0000
1000
0000
,
0001
0000
0001
0000
,
0010
0000
0010
0000
,
0100
0000
0100
0000
,
1000
0000
1000
0000
,
0001
0000
0001
0000
,
0100
0000
0100
0000
,
0010
0000
0010
0000
,
1000
0000
1000
0000
,
0001
0000
0001
0000
,
0010
0000
0010
0000
,
0010
0000
0000
0000
,
0100
0000
0100
0000
,
0100
0000
0000
0000
,
0010
0000
0010
0000
,
0010
0000
0000
0000
,
0100
0000
0100
0000
,
0100
0000
0000
0000
,
1000
0000
1000
0000
,
0001
0000
0001
0000
,
0010
0000
0010
0000
,
0020
0000
0000
0000
,
0031
0000
0001
0000
,
2000
0000
0000
0000
,
3010
0000
0010
0000
,
0100
0000
0100
0000
,
0001
0000
0000
0000
,
1000
0000
0000
0000
,
0010
0000
0000
0000
,
0100
0000
0000
0000
,
0001
0000
0001
0000
,
2000
0000
0000
0000
,
3010
0000
0010
0000
,
0100
0000
0100
0000
,
0001
0000
0000
0000
,
1000
0000
0000
0000
,
0100
0000
0000
0000
,
0010
0000
0000
0000
,
0001
0000
0001
0000
,
1000
0000
1000
0000
,
0001
0000
0000
0000
;

//---------------dance-single - Blank----------------
#NOTEDATA:;
#CHARTNAME:;
#STEPSTYPE:dance-single;
#DESCRIPTION:Blank;
#CHARTSTYLE:;
#DIFFICULTY:Easy;
#METER:4;
#RADARVALUES:0.170,0.182,0.000,0.060,0.000,151.000,0.000,8.000,0.000,0.000,0.000,0.000,0.000,0.170,0.182,0.000,0.060,0.000,151.000,0.000,8.000,0.000,0.000,0.000,0.000,0.000;
#CREDIT:;
#NOTES:
0000
0000
0000
0000
,
0000
0000
0000
0000
,
0000
0000
0000
0000
,
0000
0000
0000
0000
,
0002
0000
0013
0000
,
0200
0000
1300
0000
,
0020
0000
0130
0000
,
0002
0000
1003
0000
,
0100
1000
0100
0000
,
0010
0000
0001
0000
,
1000
0010
1000
0000
,
0100
0000
0010
0000
,
0001
1000
0001
0000
,
0100
0000
0010
0000
,
1000
0100
1000
0000
,
0010
0000
0100
0000
,
0001
0010
0001
0000
,
0100
0000
1000
0000
,
0100
0010
0100
0000
,
0001
0000
1000
0000
,
0100
0001
0100
0000
,
0010
0000
0001
0000
,
1000
0010
1000
0000
,
0100
0000
0010
0000
,
0001
0000
1000
0000
,
0001
1000
0001
0000
,
0100
0000
0010
0000
,
0200
0000
0300
0000
,
0010
0000
1000
0000
,
0010
1000
0010
0000
,
0100
0000
0001
0000
,
0200
0000
0000
0300
,
0010
0000
1000
0000
,
0100
1000
0001
0000
,
0100
0000
0010
0000
,
1000
0100
0010
0001
,
1000
0000
0010
0000
,
0100
0000
0001
0000
,
0010
0000
0100
0000
,
1000
0000
0010
0000
,
0100
0000
0000
0000
,
0010
0000
0000
0000
,
1000
0000
0000
0000
,
0001
0000
0000
0000
,
0010
0000
0100
0000
,
1000
0000
0010
0000
,
0100
0000
0001
0000
,
0010
0000
0100
0000
,
1000
0000
0001
0000
,
0100
0010
0100
0000
,
0002
0000
0000
0000
,
2000
0000
3003
0000
,
1000
0000
0010
0100
,
0001
1000
0100
0010
,
0001
0000
0100
0000
,
0010
0100
0001
0000
,
1000
0000
0100
0000
,
0010
0001
1000
0000
,
0010
0000
0100
0000
,
0001
0010
0100
0000
,
0010
0000
0001
0100
,
0010
1000
0100
0010
,
0001
0000
0100
0000
,
0010
0100
0001
1000
,
0100
0000
0010
0000
,
0001
0000
1000
0000
,
0010
0000
0100
0000
,
0001
0000
1000
0000
,
0100
0100
0100
0000
,
0010
0010
0010
0000
;

//---------------dance-single - Blank----------------
#NOTEDATA:;
#CHARTNAME:;
#STEPSTYPE:dance-single;
#DESCRIPTION:Blank;
#CHARTSTYLE:;
#DIFFICULTY:Hard;
#METER:10;
#RADARVALUES:0.424,0.394,0.000,0.150,0.105,376.000,0.000,20.000,0.000,0.000,0.000,0.000,0.000,0.424,0.394,0.000,0.150,0.105,376.000,0.000,20.000,0.000,0.000,0.000,0.000,0.000;
#CREDIT:;
#NOTES:
0000
0000
0000
0000
,
0000
0000
0000
0000
,
0000
0000
0000
0000
,
0000
0000
0000
0000
,
0001
0000
0000
0100
0000
0000
0100
0000
0010
0000
0000
1000
0000
0000
0100
0000
,
1000
0000
0000
1000
0000
0000
0001
0000
0100
0000
0000
0100
0000
0000
0010
0000
,
1000
0000
0000
1000
0000
0000
0001
0000
0010
0000
0000
0010
0000
0000
0100
0000
,
0001
0000
0000
0001
0000
0000
0100
0000
1000
0000
0000
1000
0000
0000
0010
0000
,
0100
0001
0100
0010
1000
0001
0010
0000
,
0100
0000
1000
0000
0010
0000
0100
0001
,
0000
0001
0100
0010
1000
0001
0010
0000
,
0100
0000
1000
0000
0010
0000
0100
0001
,
1000
0100
0010
0100
1000
0001
0100
0000
,
0010
0000
1000
0000
0100
0000
0001
0100
,
0000
0100
0010
0001
1000
0010
0100
0000
,
0001
0000
1000
0000
0100
0000
0010
0001
,
1000
0010
0100
0001
0100
0010
1000
0000
,
0100
0000
0010
0000
0001
0000
0100
0010
,
0000
0010
0100
0001
1000
0100
0010
0000
,
0001
0000
0100
0000
1000
0000
0001
0010
,
1000
0100
0010
0001
0100
0010
0100
0000
,
0001
0000
0010
0000
0100
0000
1000
0001
,
0000
0100
0010
0100
0001
1000
0100
0000
,
0010
0000
0001
1000
0010
0000
0100
0001
,
0010
0100
1000
0001
0100
0010
0100
0001
,
0000
0001
1000
0100
1000
0010
0000
0010
,
0100
0001
1000
0100
0010
0001
0100
0010
,
0000
0020
0000
0000
1000
0000
1030
0100
,
1000
0001
0100
0010
0100
0000
0100
0010
,
1000
0001
0010
0100
1000
0000
1000
0100
,
0010
0001
0000
0001
0100
0010
1000
0002
,
0000
0020
0000
0000
0003
0000
0130
0001
,
0100
1000
0010
0100
0001
0010
0100
1000
,
0000
1000
0010
0001
0010
1000
0100
0010
,
0001
0100
0010
0010
0100
0001
1000
0100
,
0000
2000
0000
0000
0010
0000
3010
0100
,
0001
0010
0100
1000
0001
0000
1000
0100
,
0001
1000
0001
0100
0010
0000
0001
0100
,
0010
1000
0000
1000
0001
0010
0100
2000
,
0000
0002
0000
0000
3003
0000
0000
1000
,
0100
0010
1000
0010
0001
0100
0000
0000
,
0000
0000
0000
0000
0000
0000
0010
1000
,
0000
0100
1000
0001
0100
0010
0000
0000
,
0000
0000
0000
0000
0000
0000
0000
1000
,
0100
0001
1000
0001
0100
1000
0000
0000
,
0000
0000
0000
0000
0000
0000
0010
0001
,
0000
0010
0100
0001
1000
0100
0000
0000
,
0000
0000
0000
0000
0000
0000
0010
0001
,
0100
0000
1000
0000
0100
0000
0001
0000
1000
0000
0000
0100
0000
0000
0000
0100
,
0010
0001
0100
0010
0200
0000
0301
1000
,
0000
0000
0200
0000
0000
0000
0000
0000
1300
0000
0000
1000
0000
0000
1000
0000
,
0001
0000
0000
0001
0000
0000
0001
0000
0100
0000
0010
0000
1000
0000
0100
0000
,
0010
0001
0000
0001
0100
0000
0010
0000
,
1000
0100
2000
0000
3020
0000
0130
0001
,
0010
0000
0100
1000
0001
0000
0100
0010
,
1000
0100
0010
0001
1000
0100
0000
0000
,
1000
0000
0000
0010
0000
0000
1000
0000
0001
0000
0000
0010
0000
0000
0001
0000
,
1000
0000
0000
0100
0000
0000
1000
0000
0001
0000
0000
0100
0000
0000
0001
0000
,
1000
0000
0000
0100
0000
0000
0001
0000
1000
0000
0000
0010
0000
0000
0001
0000
,
0100
0000
0000
1000
0000
0000
0001
0000
0010
0000
0000
1000
0100
0000
0010
0000
,
0001
0100
0000
0100
0002
0000
0023
0000
,
0130
1000
0020
0000
0230
0000
0301
0010
,
0100
0000
0100
0010
0001
0000
0001
0100
,
1000
0100
0001
1000
0100
0001
0100
0000
,
0010
0000
0000
0010
0000
0000
0010
0000
0001
0000
0000
0001
0000
0000
0001
0000
,
0100
0000
0000
0100
0000
0000
0100
0000
0010
0000
0000
0010
0000
0000
0010
0000
,
1000
0000
0000
1000
0000
0000
1000
0000
0001
0000
0000
0001
0000
0000
0001
0000
,
1000
0000
0000
0100
0000
0000
0010
0000
0001
0000
0000
0010
0000
0000
0100
0000
,
2000
0000
3002
0000
0103
0020
0000
0130
,
0002
0000
0023
0000
0130
2000
0000
0000
,
3000
0000
0000
0000
;

//---------------dance-single - ----------------
#NOTEDATA:;
#CHARTNAME:;
#STEPSTYPE:dance-single;
#DESCRIPTION:;
#CHARTSTYLE:;
#DIFFICULTY:Challenge;
#METER:9;
#RADARVALUES:0.430,0.405,0.030,0.143,0.023,378.000,4.000,19.000,40.000,0.000,0.000,0.000,0.000,0.430,0.405,0.030,0.143,0.023,378.000,4.000,19.000,40.000,0.000,0.000,0.000,0.000;
#CREDIT:;
#NOTES:
// measure 0
0010
0000
0000
0010
1000
0000
0000
1000
,  // measure 1
0001
0000
0000
0001
0010
0000
0000
0010
,  // measure 2
0100
0000
0000
0100
1000
0000
0000
1000
,  // measure 3
0001
0000
0000
0001
0100
0000
0000
0100
,  // measure 4
0010
0000
0000
0010
1000
0000
0000
1000
,  // measure 5
0001
0000
0000
0001
0010
0000
0000
0010
,  // measure 6
0100
0000
0000
0100
1000
0000
0000
1000
,  // measure 7
0001
0000
0000
0001
0100
0000
0000
0100
,  // measure 8
0010
1000
0010
1000
0010
1000
0000
0000
,  // measure 9
0100
0000
0100
0000
0100
0000
0010
0100
,  // measure 10
0010
0001
0010
0001
0010
0001
0000
0000
,  // measure 11
0100
0000
0100
0000
0100
0000
0000
0100
,  // measure 12
0010
1000
0010
1000
0010
1000
0000
0000
,  // measure 13
0100
0000
0100
0000
0100
0000
0010
0100
,  // measure 14
0010
0001
0010
0001
0010
0001
0000
0000
,  // measure 15
0100
0000
0100
0000
0100
0000
0000
0010
,  // measure 16
1000
0001
1000
0001
1000
0001
0000
0000
,  // measure 17
0010
0000
0200
0000
1300
0000
0100
0010
,  // measure 18
0000
0010
0100
0010
0100
0010
0001
0010
,  // measure 19
0100
0000
0010
0100
1000
0000
0001
0001
,  // measure 20
1000
0001
1000
0001
1000
0001
0000
0000
,  // measure 21
0010
0000
0200
0000
1300
0000
0100
0010
,  // measure 22
0000
0010
0100
0010
0100
0010
0001
0010
,  // measure 23
0100
0000
0010
0100
1000
0000
0001
0001
,  // measure 24
1000
0001
1000
0001
1000
0001
0100
0010
,  // measure 25
0000
0010
0100
0010
0100
0010
0000
1000
,  // measure 26
0010
0000
0100
0000
0001
0100
0001
0000
0100
0000
0010
0000
1000
0000
0001
0000
,  // measure 27
0000
1001
0000
0000
MMMM
0000
1000
0100
,  // measure 28
0010
0000
0001
0000
0010
0000
1000
0000
0010
0000
0000
0000
0100
1000
0100
0000
,  // measure 29
0010
0001
0100
0001
0100
0000
0010
1000
,  // measure 30
0001
0010
0000
0100
1000
0001
0100
0010
,  // measure 31
0000
0110
0000
0000
MMMM
0000
0010
0010
,  // measure 32
1000
0001
1000
0001
1000
0001
0100
0010
,  // measure 33
0000
0010
0100
0010
0100
0010
0000
1000
,  // measure 34
0010
0000
0100
0000
0001
0100
0001
0000
0100
0000
0010
0000
1000
0000
0001
0000
,  // measure 35
0000
1001
0000
0000
MMMM
0000
1000
0100
,  // measure 36
0010
0000
0001
0000
0010
0000
1000
0000
0010
0000
0000
0000
0100
1000
0100
0000
,  // measure 37
0010
0001
0100
0001
0100
0000
0010
1000
,  // measure 38
0001
0010
0000
0100
1000
0001
0100
0010
,  // measure 39
0000
0110
0000
0000
MMMM
0000
0010
0010
,  // measure 40
1000
0001
1000
0001
1000
0001
0000
0000
,  // measure 41
MMMM
0000
0000
0010
0100
0000
0000
0100
,  // measure 42
0010
0100
0010
0100
0010
0100
0000
0000
,  // measure 43
MMMM
0000
0000
0100
0010
0000
0000
0010
,  // measure 44
0001
1000
0001
1000
0001
1000
0000
0000
,  // measure 45
MMMM
0000
0000
0100
0001
0000
0001
0010
,  // measure 46
0000
0100
0010
0100
0010
0100
0000
0000
,  // measure 47
2000
0000
3200
0000
0320
0000
0031
0001
,  // measure 48
1000
0000
0010
0000
1000
0000
0010
0000
0100
0000
0000
0100
0000
0000
0000
0100
,  // measure 49
0001
1000
0001
1000
0100
0000
0020
0000
,  // measure 50
0000
0200
0000
0000
0330
0000
MMMM
0000
,  // measure 51
1000
0000
0100
0000
0010
0001
0010
0100
,  // measure 52
1000
0001
0000
0001
0100
0000
0001
0000
,  // measure 53
1000
0010
0200
0000
0301
0000
0100
0010
,  // measure 54
1000
0000
0001
1000
0001
0000
1000
0100
,  // measure 55
0010
0100
0010
0100
1000
0010
MMMM
0000
,  // measure 56
0100
0000
0000
0100
0001
0000
0000
0001
,  // measure 57
1000
0100
0020
0000
0130
0000
0010
0000
,  // measure 58
0001
0000
0000
1000
0002
0000
0103
0001
,  // measure 59
0020
0000
0130
0010
0002
0000
1003
0001
,  // measure 60
0100
0010
0000
0010
1000
0000
0001
0000
,  // measure 61
1000
0100
2000
0000
3010
0000
1000
0100
,  // measure 62
0001
0000
0100
1000
0010
0000
0100
0001
,  // measure 63
0010
0100
0010
0100
0010
0100
MMMM
0000
,  // measure 64
1000
0000
0000
1000
0100
0000
0000
0100
,  // measure 65
0010
0000
0000
0010
0001
0000
0000
0001
,  // measure 66
0100
0000
0000
0100
1000
0000
0000
1000
,  // measure 67
0010
0000
0000
0010
0001
0000
0000
0000
,  // measure 68
0002
2003
3002
0003
,  // measure 69
2000
3002
2003
3000
,  // measure 70
0001
0000
0000
0001
0010
0000
0000
0010
,  // measure 71
1000
0000
0000
1000
0100
0000
0000
0100
,  // measure 72
0001
0000
0000
0000
;

//---------------dance-single - ----------------
#NOTEDATA:;
#CHARTNAME:;
#STEPSTYPE:dance-single;
#DESCRIPTION:;
#CHARTSTYLE:;
#DIFFICULTY:Medium;
#METER:8;
#RADARVALUES:0.308,0.392,0.000,0.105,0.000,273.000,0.000,14.000,0.000,0.000,0.000,0.000,0.000,0.308,0.392,0.000,0.105,0.000,273.000,0.000,14.000,0.000,0.000,0.000,0.000,0.000;
#CREDIT:;
#NOTES:
0000
0000
0000
0000
,
0000
0000
0000
0000
,
0000
0000
0000
0000
,
0000
0000
0000
0000
,
1000
0000
0010
0000
,
0100
0000
0001
0000
,
0010
0000
0100
0000
,
1000
0000
0000
0000
0001
0000
0000
0100
,
0010
0000
1000
0000
0100
0010
0000
0000
,
0100
0000
1000
0000
0010
0000
0100
0001
,
0000
0001
0100
0000
0010
0000
1000
0000
,
0001
0000
0010
0000
0100
0000
1000
0001
,
1000
0000
0100
0000
0010
0001
0000
0000
,
0010
0000
1000
0000
0010
0000
0100
1000
,
0000
1000
0001
0000
0100
0000
0010
0000
,
1000
0000
0100
0000
0010
0000
0001
0100
,
0010
0000
0100
0000
0001
0010
0000
0000
,
0100
0000
1000
0000
0010
0000
0100
0001
,
0000
0001
0100
0000
0010
0000
1000
0000
,
0001
0000
0010
0000
0100
0000
1000
0001
,
0100
0000
0010
0000
0100
0001
0000
0000
,
0010
0000
1000
0000
0100
0000
0001
0010
,
0000
0010
0001
0000
0100
0000
0010
0000
,
1000
0100
0010
0001
,
1000
0000
0010
0000
0100
0000
0001
0100
,
0000
0100
0010
0000
1000
0000
0100
0000
,
0010
0000
0001
1000
0001
0000
0100
0010
,
0000
0010
0000
0000
0100
0000
0001
0010
,
0001
0000
1000
0100
1000
0000
0010
0100
,
0010
0000
1000
0100
0010
0000
0001
0100
,
0010
0000
0100
0000
0001
0000
1000
0001
,
0000
0002
0000
0000
0000
0000
0003
0000
,
1000
0000
0010
0000
0100
0000
0001
0010
,
0000
0010
0001
0000
1000
0000
0100
0000
,
0010
0000
0001
1000
0001
0000
0100
0010
,
0000
0100
0000
0000
0010
0000
1000
0100
,
1000
0000
0001
0010
0001
0000
1000
0100
,
0010
0000
0100
1000
0001
0000
0100
0010
,
0100
0000
0001
0000
0010
0000
0100
1000
,
0000
0002
0000
0000
0000
0000
0003
1000
,
0100
0000
1000
0000
0100
1000
0000
0000
,
0000
0000
0000
0000
0000
0000
0001
0010
,
0000
0010
0001
0000
0100
0000
0000
0000
,
0000
0000
0000
0000
0000
0000
0000
0010
,
1000
0000
0010
0000
1000
0010
0000
0000
,
0000
0000
0000
0000
0000
0000
0100
0001
,
0000
0001
0100
0000
0001
0100
0000
0000
,
0000
0000
0000
0010
,
1000
0100
0010
0010
,
0100
1000
0001
0001
,
0000
0200
0000
0000
0000
0000
0300
0000
,
0010
0000
1000
0000
0010
0000
0100
0001
,
0100
0001
0000
0001
0200
0000
0320
0000
,
1030
0100
1000
0000
0001
0000
0100
0010
,
0200
0000
0301
0010
0002
0000
1003
0100
,
1000
0001
0010
0001
0100
0020
0000
0000
,
1030
0100
0010
0001
,
1000
0010
0100
0001
,
0010
1000
0100
0001
,
0010
0000
0100
0000
1000
0000
0001
0100
,
0001
0100
0000
0100
0020
0000
2030
0000
,
3100
0010
0100
0000
1000
0000
0001
0100
,
1000
0000
1000
0100
0001
0000
0001
0010
,
0001
1000
0100
1000
0010
0100
0000
0000
,
0010
1000
0100
0010
,
0001
0100
1000
0100
,
0001
0010
1000
0100
,
0010
0001
0100
0010
,
2000
3000
0200
0300
,
0020
0030
0002
0003
;
