#VERSION:0.81;
#TITLE:Art of the Dress (Always Stressed Mix) (Density Special);
#SUBTITLE:;
#ARTIST:PinkiePieSwear;
#TITLETRANSLIT:;
#SUBTITLETRANSLIT:;
#ARTISTTRANSLIT:;
#GENRE:Trance;
#ORIGIN:;
#CREDIT:;
#BANNER:Art of the Dress (Always Stressed Mix).png;
#BACKGROUND:Art of the Dress (Always Stressed Mix)-bg.png;
#PREVIEWVID:;
#JACKET:Art of the Dress (Always Stressed Mix)-jacket.png;
#CDIMAGE:;
#DISCIMAGE:;
#LYRICSPATH:;
#CDTITLE:;
#MUSIC:Art of the Dress (Always Stressed Mix).ogg;
#OFFSET:0.000000;
#SAMPLESTART:73.56000;
#SAMPLELENGTH:15.000000;
#SELECTABLE:YES;
#BPMS:0.000=29.250,
8.000=58.500,
40.000=117.000,
168.000=29.250;
#STOPS:;
#DELAYS:;
#WARPS:;
#TIMESIGNATURES:0.000=4=4;
#TICKCOUNTS:0.000=4;
#COMBOS:0.000=1;
#SPEEDS:0.000=1.000=0.000=0;
#SCROLLS:0.000=1.000;
#FAKES:;
#LABELS:0.000=Song Start;
#BGCHANGES:;
#KEYSOUNDS:;
#ATTACKS:
;

//---------------dance-single - ----------------
#NOTEDATA:;
#CHARTNAME:;
#STEPSTYPE:dance-single;
#DESCRIPTION:;
#CHARTSTYLE:;
#DIFFICULTY:Challenge;
#METER:14;
#RADARVALUES:0.697527,1.000000,0.211231,0.113740,1.000000,561.000000,26.000000,14.000000,0.000000,0.000000,0.000000,0.000000,0.000000,0.697527,1.000000,0.211231,0.113740,1.000000,561.000000,26.000000,14.000000,0.000000,0.000000,0.000000,0.000000,0.000000;
#CREDIT:;
#NOTES:
// measure 0
1000
0000
0001
0000
0100
0000
0001
0000
1000
0000
0100
0010
0000
0010
0100
0000
1000
0000
0010
0000
0100
0000
0001
0000
1000
0000
0100
0001
0000
0001
0100
0000
1000
0000
0010
0000
0100
0000
0001
0000
1000
0000
0010
0100
0000
0100
0010
0000
1000
0000
0100
0000
0010
0000
0001
0000
1000
0000
0001
0100
0000
0100
0001
0000
,  // measure 1
1000
0000
1000
0000
0001
0000
0010
0000
0000
0000
0001
1000
0000
1000
0001
0000
0000
0000
0100
0000
0001
0000
1000
0000
0000
0000
1000
0001
0000
0001
1000
0000
0000
0000
0100
0000
1000
0000
0010
0000
0000
0000
0100
0001
0000
0001
0010
0000
0000
0000
0100
0000
0010
0000
0001
0000
0000
0000
1000
0100
0000
0100
0010
0000
,  // measure 2
0110
0000
0100
0000
0110
0000
0100
0000
1100
0000
1000
0000
1100
0000
2000
0000
0000
0000
3010
0000
0010
1000
0010
0000
0100
1000
0100
0000
0001
0100
0001
0000
,  // measure 3
0010
0100
0010
0000
0010
0001
0010
0000
1000
0100
1000
0000
0100
1000
0100
0000
0010
0100
0010
0000
0001
0010
0001
0000
1000
0001
1000
0000
0010
1000
0010
0000
,  // measure 4
0110
0100
0110
0100
0101
0001
0101
0002
0000
1003
1000
1000
0100
0100
0100
0200
,  // measure 5
0000
0000
0310
0000
1000
0100
1000
0000
0001
1000
0001
0000
0100
0001
0100
0000
0010
0100
0010
0000
1000
0010
1000
0000
0001
1000
0001
0000
0010
0001
0010
0000
,  // measure 6
1100
0000
0100
1000
0100
0000
1000
0001
1000
0000
0001
0000
1000
0000
1001
0000
0000
0000
0100
0001
0100
0000
0001
1000
0000
0000
0001
1000
0000
0000
0100
0000
,  // measure 7
0000
0000
0100
0010
0100
0000
1000
0100
1000
0000
1000
0000
0001
0000
0100
0001
0100
0001
0100
0000
0001
1000
0001
0000
1000
0100
1000
0000
1000
0100
0010
0000
,  // measure 8
0011
0000
0001
0100
0001
0000
1000
0001
1000
0000
0100
0000
0010
0000
0100
0000
1000
0000
0100
1000
0100
0000
1000
0001
1000
0000
0001
0100
0000
0000
0101
0000
,  // measure 9
0000
0000
0100
0010
0100
0000
0010
1000
0010
1000
0001
0000
1000
0001
0010
0000
0001
0010
0001
0010
0100
0010
0100
0010
0100
1000
0100
1000
0010
0100
0010
0100
,  // measure 10
0000
0000
0010
0000
0100
0000
0101
0000
0010
0000
1000
0000
0001
0000
1000
0001
,  // measure 11
1000
0010
1000
0010
0100
0001
0100
0001
,  // measure 12
0010
0000
0100
0010
0100
0000
1000
0000
0000
0000
0001
0000
0100
0000
0010
0000
,  // measure 13
1000
0010
1000
0000
0001
0010
0001
0000
1000
0010
1000
0000
0001
0010
0100
1000
,  // measure 14
0001
0000
0010
0000
0001
0000
0010
0000
0100
0000
0010
0000
0001
0000
1000
0001
,  // measure 15
1000
0000
0010
0000
1000
0000
0010
0000
0100
0000
0001
0100
0001
0100
0001
0000
,  // measure 16
1000
0000
0100
1000
0100
0000
0101
0000
0000
0000
0100
0000
1000
0000
0100
0000
,  // measure 17
1000
0010
0100
0010
1000
0100
0001
0100
,  // measure 18
0120
0130
0000
0010
0210
0310
0010
0200
,  // measure 19
0000
0000
1300
0000
0100
0000
1000
0000
0010
0000
0100
0001
0100
0001
0100
0000
,  // measure 20
0001
0000
1000
0001
1000
0000
0100
0000
0000
0000
0100
0000
0010
0000
0100
0010
,  // measure 21
0100
1000
0100
1000
0010
0100
0010
0100
,  // measure 22
0102
0103
0000
0001
2001
3001
0000
1000
,  // measure 23
0100
1000
0100
1000
0010
0001
0010
0001
,  // measure 24
0010
0000
0100
0010
1000
0000
1001
0000
0000
0000
0001
0010
0100
0010
0100
0010
,  // measure 25
0100
0000
0010
0200
0000
0000
1000
0000
0000
0000
0001
0000
1300
0000
0000
0000
,  // measure 26
0100
0000
1000
0000
0100
0000
1000
0000
0010
0000
0100
0010
0000
0010
0100
0000
,  // measure 27
0001
0000
0010
0000
0001
0000
0010
0000
0100
0000
1000
0100
0000
0100
0001
0000
,  // measure 28
0100
0000
0010
0100
0010
0000
0001
0000
0000
0000
0001
0000
1000
0000
0010
1000
,  // measure 29
0010
1000
0010
0000
0100
0010
0100
0000
0001
0100
0001
0000
1000
0001
0010
0100
,  // measure 30
1000
0000
0010
1000
0010
0000
0110
0000
0000
0000
0100
0000
0001
0000
0200
0000
,  // measure 31
0000
0000
0310
0000
0100
0000
0010
0000
1000
0000
0001
0010
0100
0010
0001
0000
,  // measure 32
1000
0000
0001
1000
0001
0000
0100
0000
0000
0000
0010
0000
1000
0000
0001
1000
,  // measure 33
0001
0000
0010
0000
0001
0000
0010
0000
0100
0000
0010
0100
0000
0100
1000
0000
,  // measure 34
1020
0000
1030
0000
0010
0000
0100
0000
0120
0000
0130
0000
0010
0100
0001
0000
,  // measure 35
1000
0100
0001
0000
0001
0100
1000
0000
1000
0010
0001
0000
0001
0010
1000
0000
,  // measure 36
0001
0000
1000
0001
1000
0000
1100
0000
0100
0000
0100
0000
0010
0100
0010
0000
,  // measure 37
0001
0010
0100
0000
0010
0100
1000
0000
0010
1000
0001
0000
1000
0001
0100
0000
,  // measure 38
0102
0103
0001
0010
0210
0310
0100
1000
,  // measure 39
0010
0000
0100
0000
0001
0000
1000
0000
0100
0000
0010
0100
0000
0100
1000
0000
,  // measure 40
0010
0000
1000
0001
1000
0000
1100
0000
0100
0000
0010
0000
0100
1000
0100
1000
,  // measure 41
0100
1000
0001
0000
0100
0001
1000
0000
0100
0010
0100
0000
0010
0100
0010
0000
,  // measure 42
0100
0000
1000
0000
0001
0000
0100
0000
0010
0000
0100
0010
0000
0010
1000
0000
0001
0000
0010
0000
0001
0000
0100
0000
0010
0000
1000
0010
0000
0010
0100
0000
0001
0000
0100
0000
0001
0000
1000
0000
0100
0000
0010
0100
0000
0100
1000
0000
0010
0000
0100
0000
0001
0000
1000
0000
0100
0000
0010
0100
0000
0100
1000
0000
;
