#TITLE:Art Of The Dress (Afraid To Get Dirty Remix);
#SUBTITLE:;
#ARTIST:F3nning;
#TITLETRANSLIT:;
#SUBTITLETRANSLIT:;
#ARTISTTRANSLIT:;
#GENRE:Mud Electro;
#CREDIT:;
#BANNER:Art Of The Dress (Afraid To Get Dirty Remix).png;
#BACKGROUND:Art Of The Dress (Afraid To Get Dirty Remix)-bg.png;
#LYRICSPATH:;
#CDTITLE:;
#MUSIC:Art Of The Dress (Afraid To Get Dirty Remix).mp3;
#OFFSET:-0.079600;
#SAMPLESTART:69.099998;
#SAMPLELENGTH:15.000000;
#SELECTABLE:YES;
#DISPLAYBPM:125.000000;
#BPMS:0.000000=124.999992
,96.000000=122.050011
,97.000000=124.999992
;
#STOPS:
;
#BGCHANGES:;
#KEYSOUNDS:;
#ATTACKS:;

//---------------dance-single - ----------------
#NOTES:
     dance-single:
     :
     Easy:
     5:
     0.286643,0.258941,0.092894,0.065026,0.000000,199.000000,10.000000,7.000000,0.000000,0.000000,0.000000,0.286643,0.258941,0.092894,0.065026,0.000000,199.000000,10.000000,7.000000,0.000000,0.000000,0.000000:
0000
0000
0000
0000
,
0000
0000
0000
0000
,
0000
0000
0000
0000
,
0000
0000
0000
0000
,
1000
1000
1000
0011
,
1000
1000
1000
0101
,
0010
0010
0010
1100
,
0010
0010
0010
0101
,
0001
0010
0001
0100
,
0001
1000
0010
0100
,
0001
0010
0001
0100
,
0001
0010
0100
1000
,
0010
1000
0010
0100
,
0010
1000
0001
0100
,
0010
0001
0010
0100
,
0010
1000
0001
0100
,
0010
1000
0001
1000
,
0100
1000
0001
1000
,
0010
0001
1000
0001
,
0100
0001
1000
0001
,
0010
0100
0010
1000
,
0100
0010
0100
0001
,
1000
0010
0001
0100
,
1000
0001
0010
0100
,
0010
0010
0120
0000
,
1030
1000
2001
0000
,
3100
0100
0210
0000
,
0301
0001
0102
0000
,
0103
0100
1000
0001
,
0100
0100
0001
1000
,
0010
0010
1000
0001
,
0010
0010
0001
1000
,
0100
0010
0001
0100
,
0010
1000
0100
0010
,
0001
1000
0010
0100
,
1000
0001
0010
0100
,
0001
0010
0100
1000
,
0001
0100
0010
1000
,
0100
1000
0010
0001
,
0010
1000
0100
0001
,
0100
0100
0010
0010
,
0100
1000
0010
0100
,
0001
0001
1000
1000
,
0001
0010
0100
1000
,
0010
0010
0100
0100
,
0010
1000
0100
0010
,
0001
0001
1000
1000
,
0001
0010
0100
1000
,
2001
0000
0010
0010
,
0000
0000
0100
3100
,
0200
0000
0010
0310
,
0020
0000
0001
0031
,
0010
0010
0010
0010
,
0100
0100
0100
0100
,
1000
1000
1000
1000
,
0001
0001
0001
1001
;

//---------------dance-single - ----------------
#NOTES:
     dance-single:
     :
     Hard:
     15:
     0.725897,0.750929,0.315838,0.037157,0.715281,509.000000,34.000000,4.000000,0.000000,0.000000,0.000000,0.725897,0.750929,0.315838,0.037157,0.715281,509.000000,34.000000,4.000000,0.000000,0.000000,0.000000:
0000
0000
0000
0000
,
0000
0000
0000
0000
,
0000
0000
0000
0000
,
0000
0000
0000
0000
,
1000
0000
0000
0001
0000
0000
1000
0000
0000
0100
0000
0000
0011
0000
0000
0000
,
0001
0000
0000
1000
0000
0000
0001
0000
0000
0100
0000
0000
1010
0000
0000
0000
,
1000
0000
0000
0100
0010
0000
0100
0000
0000
1000
0010
0100
0001
0000
0000
0000
,
0001
0000
0000
0100
0010
0000
0100
0000
0000
0010
1000
0000
0100
0000
0000
0000
,
0010
0000
0001
0010
0001
0000
0100
0000
0000
0001
0100
0010
1000
0000
0100
0000
,
1000
0010
0100
0010
0000
0100
0101
0001
,
0100
0000
1000
0001
1000
0000
0100
0000
0000
0010
1000
0100
0010
0000
0100
0000
,
1000
0010
0001
0011
0000
1000
0100
0101
,
0100
0000
0010
0100
0010
0000
0100
0000
0000
1000
0010
0100
0010
0000
0100
0000
,
0001
0010
0100
1100
0000
1000
0010
1010
,
0010
0000
0100
0001
0010
0000
0100
0000
0000
1000
0010
0001
0010
0000
0100
0000
,
0010
1000
0100
0110
0000
0010
0001
0101
,
0100
0000
0010
0000
0100
0000
0010
0000
1000
0000
0001
0010
0100
0000
1000
0000
,
0010
0100
0001
0100
0010
1000
0100
1000
,
0100
0000
0010
0000
0001
0000
1000
0000
0010
0000
0100
0001
1000
0000
0100
0000
,
0010
0001
0100
1000
0001
0010
1000
0100
,
0010
0000
0100
0000
0010
0000
0100
0000
1000
0000
0001
0100
0010
0000
1000
0000
,
0100
0001
0100
1000
0010
0001
0010
1000
,
0100
0000
0010
0000
0100
0000
0010
0000
0001
0000
1000
0100
0010
0000
0001
0000
,
0010
0000
0100
0000
1000
0000
0100
0000
0010
0000
0001
0000
0100
0000
0010
1000
,
0010
0000
0000
0000
0000
0000
0100
0000
0000
0010
0000
0000
0100
0000
0000
0000
0000
0000
0001
0000
0000
0100
0000
0000
0001
0000
0000
0000
0001
0000
0000
0000
0001
0000
0000
0000
1000
0000
0000
0000
1000
0000
0000
0000
1000
0000
0000
0000
,
0100
0000
0010
0100
0010
0000
0100
1000
0010
0100
0010
0100
0001
0010
0001
0010
,
0100
0000
1000
0100
1000
0000
0100
0010
0100
0010
0100
0010
0001
0010
0001
0010
,
0001
0000
0010
0001
0010
0000
0001
0100
0001
0100
0010
1000
0100
0010
0100
0010
,
0100
0000
0000
0000
0000
0000
1000
0000
0000
0100
0000
0000
0010
0000
0000
0000
0000
0000
0100
0000
0000
1000
0000
0000
0010
0000
0000
0000
0010
0000
0000
0000
0010
0000
0000
0000
0100
0000
0000
0000
0100
0000
0000
0000
0100
0000
0000
0000
,
0001
0000
1000
0001
1000
0000
0001
0010
0100
1000
0100
1000
0100
0010
0001
0100
,
0010
0000
1000
0010
1000
0000
0100
1000
0001
0100
0001
0100
1000
0100
1000
0100
,
0010
0000
1000
0010
1000
0000
0010
0100
0001
0010
0100
1000
0010
0100
0001
0100
,
0010
0000
1000
0000
0001
0000
1000
0000
0100
0010
0100
0010
0001
1000
0001
1000
,
0010
0000
1000
0000
0001
0000
1000
0000
0100
0010
0100
0010
0001
1000
0010
0100
,
0001
0000
1000
0000
0100
0000
1000
0000
0100
0010
0100
0010
0001
0010
0001
0010
,
0100
0000
1000
0000
0010
0000
0100
0000
0001
0000
0010
0000
0110
0000
0100
1000
,
0010
0000
1000
0000
0001
0000
1000
0000
0100
0010
0100
1000
0010
0100
0010
0001
,
0010
0000
0100
0000
0001
0000
0010
0000
0100
0001
0100
0010
1000
0010
0001
0100
,
0001
0000
0100
0000
0010
0000
1000
0000
0001
0010
0001
1000
0010
1000
0001
0010
,
0001
0000
1000
0000
0100
0000
1000
0000
0001
0000
0100
0000
0010
0000
1000
0100
,
0001
0000
0100
0000
0010
0000
0001
0000
1001
0000
0000
1010
0000
0000
1001
0000
,
0000
0000
0021
0000
0230
0000
0000
0000
0310
0100
0010
0001
0100
0010
0100
1000
,
0100
0000
0010
0000
1000
0000
0001
0000
0010
0100
1000
0010
0100
0001
0010
0100
,
0010
0000
0001
0000
0100
0000
0010
0000
1010
0000
0000
0101
0000
0000
0001
0010
,
0100
0000
1000
0000
0010
0000
0100
0000
0110
0000
0000
1001
0000
0000
0011
0000
,
0000
0000
0210
0000
2300
0000
0000
0000
3001
1000
0001
1000
0100
0010
0001
0100
,
0010
0000
1000
0000
0001
0000
0100
0000
0001
0100
1000
0100
0001
0010
1000
0010
,
0001
0000
0100
0000
0010
0000
0100
0000
0110
0000
0000
1001
0000
0000
1000
0100
,
0010
0000
0000
0100
0010
0100
0010
0100
1000
0100
0010
0001
1000
0100
0010
0001
,
0100
0000
0010
0100
0010
0100
0001
1000
0100
1000
0010
0100
0001
0010
0100
1000
,
0001
0000
1000
0001
1000
0000
0001
1000
0001
0100
0010
0100
0001
0010
0100
0010
,
0001
1000
0001
1000
0100
0000
1000
0001
1000
0001
0100
0000
0010
0000
1000
0000
,
0100
0000
0000
0100
0000
0000
0100
0000
0000
0010
0000
0000
1001
0000
0000
0000
,
0100
0000
0000
0100
0000
0000
0100
0000
0000
0010
0000
0000
1001
0000
0000
0000
,
1100
0000
0000
0011
0000
0000
0101
0000
0000
1010
0000
0000
1001
0000
0000
0000
,
1010
0000
0000
0011
0000
0000
1100
0000
0000
0101
0000
0000
1001
0000
0000
0000
;

//---------------dance-single - ----------------
#NOTES:
     dance-single:
     :
     Medium:
     10:
     0.463141,0.466094,0.018579,0.167209,0.120762,329.000000,2.000000,18.000000,0.000000,0.000000,0.000000,0.463141,0.466094,0.018579,0.167209,0.120762,329.000000,2.000000,18.000000,0.000000,0.000000,0.000000:
0000
0000
0000
0000
,
0000
0000
0000
0000
,
0000
0000
0000
0000
,
0000
0000
0000
0000
,
0001
0000
0000
0000
1000
0000
0000
0000
0001
0000
0000
1000
0010
0000
0000
0000
,
1000
0001
1000
0011
,
1000
0000
0000
0000
0001
0000
0000
0000
1000
0000
0000
0001
0100
0000
0000
0000
,
0001
1000
0001
1010
,
0000
1000
0100
1000
0000
0010
0100
0010
,
0000
0100
0001
0100
0000
0001
0010
0001
,
0000
0010
0100
0010
0000
0100
1000
0100
,
0000
1000
0001
1000
0000
0001
0100
0001
,
0000
0100
0010
1000
0000
0100
1000
0010
,
0000
0100
0001
0010
0000
0100
0010
0001
,
0000
0100
0010
0100
0000
0010
1000
0001
,
0000
0010
0100
0010
0000
0100
1000
0001
,
0000
0010
0001
0010
0000
0001
0100
0001
,
0000
0100
0010
0100
0000
0010
1000
0010
,
0000
1000
0100
1000
0000
0100
0010
0001
,
0000
0100
0010
1000
0000
0001
1000
0100
,
0000
0010
0001
0100
0000
0010
1000
0100
,
0000
1000
0001
1000
0000
0001
1000
0001
,
0000
1000
0010
0001
0000
1000
0100
0001
,
0000
0010
0100
1000
0000
0010
0100
0001
,
2000
0000
0000
3000
0000
0000
2000
0000
0000
3000
0000
0000
0001
0000
1000
0000
0001
0000
1000
0000
0001
0000
1000
0000
,
0002
0003
0002
0000
1003
0001
0010
0100
,
2000
0000
3000
0000
2000
0000
3000
0000
0001
1000
0001
0000
1000
0001
1000
0000
,
0002
0003
0002
0000
1003
0001
0100
0010
,
2000
0000
0000
3000
0000
0000
2000
0000
0000
3000
0000
0000
0001
0000
1000
0000
0001
0000
1000
0000
0001
0000
1000
0000
,
0002
0003
0002
0000
1003
0001
0010
0100
,
2000
0000
3000
0000
2000
0000
3000
0000
0001
1000
0001
0000
1000
0001
1000
0000
,
0002
0003
0002
0000
1003
0001
0100
0010
,
1000
0100
1000
0100
0010
0001
0010
0001
,
0100
0001
0100
0001
1000
0010
1000
0010
,
0100
0001
0010
0100
0010
0001
0100
0010
,
1000
0010
0100
1000
0100
0010
1000
0100
,
0010
0001
0010
0001
1000
0100
1000
0100
,
1000
0010
1000
0010
0100
0001
0100
0001
,
1000
0100
0001
0100
1000
0010
0001
0010
,
0100
0010
1000
0001
0010
0100
1000
0001
,
0100
0000
0010
0000
0100
0000
0010
0000
1000
0000
0000
1000
0000
0000
0001
0000
,
0000
1000
0020
0000
0100
0100
0100
0130
,
0010
1000
0001
0010
0100
0100
0100
0000
,
0010
0001
1000
0010
0100
0100
0100
0100
,
0000
0000
0001
0000
1000
0000
0001
0000
0010
0000
0000
0100
0000
0000
0010
0000
,
0000
0001
2000
0000
0001
0001
0001
3001
,
0010
1000
0100
1000
0001
0001
0001
0000
,
1000
0010
1000
0100
0001
0001
0001
0001
,
0100
0000
0100
0000
0010
0100
0010
0000
,
0100
0000
0100
0000
1000
0001
1000
0000
,
0100
0000
0100
0000
0010
0100
0010
0000
,
0001
0000
0000
0010
0000
0000
0100
0000
0000
1000
0000
0000
0001
0000
0000
0000
,
1000
0000
0000
1000
0000
0000
1000
0000
0000
1000
0000
0000
1000
0000
0000
0000
,
0001
0000
0000
0001
0000
0000
0001
0000
0000
0001
0000
0000
0001
0000
0000
0000
,
0010
0000
0000
0010
0000
0000
0010
0000
0000
0010
0000
0000
0010
0000
0000
0000
,
0100
0000
0000
0100
0000
0000
0100
0000
0000
0100
0000
0000
0100
0000
0000
0000
;

//---------------dance-single - ----------------
#NOTES:
     dance-single:
     :
     Beginner:
     1:
     0.074315,0.076637,0.000000,0.055736,0.000000,50.000000,0.000000,6.000000,0.000000,0.000000,0.000000,0.074315,0.076637,0.000000,0.055736,0.000000,50.000000,0.000000,6.000000,0.000000,0.000000,0.000000:
0000
0000
0000
0000
,
0000
0000
0000
0000
,
0000
0000
0000
0000
,
0000
0000
0000
0000
,
0000
0000
0000
0000
,
0000
0000
0000
0000
,
0000
0000
0000
0001
,
0000
0000
0000
0000
,
0000
0000
0000
1000
,
0000
0001
0000
0000
,
0000
0001
0000
0001
,
0000
1000
0000
0000
,
0000
0100
0000
0100
,
0000
0010
0000
0000
,
0000
0100
0000
0100
,
0000
0010
0000
0000
,
0001
0000
0000
0001
,
0000
1000
0000
0000
,
1000
0000
0000
0001
,
0000
1000
0000
0000
,
0100
0000
0000
0010
,
0000
0100
0000
0000
,
0010
0000
0000
0100
,
0000
0010
0000
0000
,
0002
0000
0000
0000
,
0000
0000
0000
0000
,
2003
0000
0000
0000
,
0000
0000
0000
0000
,
3020
0000
0000
0000
,
0000
0000
0000
0000
,
0230
0000
0000
0000
,
0000
0000
0000
0000
,
0301
0000
0000
0000
,
0001
0000
0000
0000
,
1000
0000
0000
0000
,
1000
0000
0000
0000
,
0100
0000
0000
0000
,
0100
0000
0000
0000
,
0010
0000
0000
0000
,
0010
0000
0000
0000
,
0001
0000
0000
0000
,
1000
0000
0000
0000
,
0001
0000
0000
0000
,
1000
0000
0000
0000
,
0010
0000
0000
0000
,
0100
0000
0000
0000
,
0010
0000
0000
0000
,
0100
0000
0000
0000
,
0020
0000
0000
0000
,
0000
0000
0000
0000
,
0230
0000
0000
0000
,
0000
0000
0000
0000
,
0301
0000
0000
0000
,
0001
0000
0000
0000
,
1000
0000
0000
0000
,
1000
0000
0000
0000
;

//---------------dance-single - ----------------
#NOTES:
     dance-single:
     :
     Challenge:
     16:
     0.727224,0.750929,0.371575,0.037157,0.859266,504.000000,40.000000,4.000000,144.000000,0.000000,0.000000,0.727224,0.750929,0.371575,0.037157,0.859266,504.000000,40.000000,4.000000,144.000000,0.000000,0.000000:
// measure 0
0000
0000
0000
0000
,  // measure 1
0000
0000
0000
0000
,  // measure 2
0000
0000
0000
0000
,  // measure 3
0000
0000
0000
0000
,  // measure 4
1000
0000
0000
0001
0000
0000
1000
0000
0000
0100
0000
MMMM
0011
MMMM
0000
0000
,  // measure 5
0001
0000
0000
1000
0000
0000
0001
0000
0000
0100
0000
MMMM
1010
MMMM
0000
0000
,  // measure 6
1000
0000
0000
0100
0010
0000
0100
0000
0000
1000
0010
MMMM
0101
MMMM
0000
0000
,  // measure 7
0001
0000
0000
0100
0010
0000
0100
0000
0000
0010
1000
MMMM
0101
MMMM
0000
0000
,  // measure 8
0010
0000
0001
0010
0001
0000
0100
0000
0000
0001
0100
MMMM
1010
MMMM
0100
0000
,  // measure 9
1000
0010
0100
0010
0000
0100
0101
0001
,  // measure 10
0100
0000
1000
0001
1000
0000
0100
0000
0000
0010
1000
MMMM
1100
MMMM
0100
0000
,  // measure 11
1000
0010
0001
0011
0000
1000
0100
0101
,  // measure 12
0100
0000
0010
0100
0010
0000
0100
0000
0000
0010
1000
MMMM
0101
MMMM
0100
0000
,  // measure 13
0001
0010
0100
1100
0000
1000
0010
1010
,  // measure 14
0010
0000
0100
0001
0010
0000
0100
0000
0000
1000
0010
MMMM
0011
MMMM
0100
0000
,  // measure 15
0010
1000
0100
0110
0000
0010
0001
0101
,  // measure 16
0100
0000
0010
0100
0010
0000
0100
0010
1000
0000
0001
0010
0100
0000
1000
0000
,  // measure 17
0010
0000
0100
0001
0100
0000
0001
0100
0010
0000
1000
0100
1000
0000
0100
0000
,  // measure 18
0010
0000
0100
0010
0001
0000
1000
0001
1000
0000
0001
0100
1000
0000
0100
0000
,  // measure 19
0010
0000
1000
0100
1000
0000
0100
0010
0001
0000
0010
0100
1000
0000
0100
0000
,  // measure 20
0010
0000
0100
1000
0010
0000
0100
0001
1000
0000
0001
0100
0010
0000
1000
0000
,  // measure 21
0100
0000
0001
0100
1000
0000
0100
1000
0010
0000
0001
0010
1000
0000
0100
0000
,  // measure 22
0010
0000
0100
0010
0100
0000
0010
0001
1000
0000
1000
0100
0010
0000
0001
0000
,  // measure 23
0010
0000
0100
1000
0001
0000
0100
0001
1000
0000
1000
0010
1000
0000
0010
1000
,  // measure 24
0010
0000
0000
0000
0000
0000
0100
0000
0000
0010
0000
0000
0100
0000
0000
0000
0000
0000
0001
0000
0000
0100
0000
0000
0001
0000
0000
0000
0001
0000
0000
0000
0001
0000
0000
0000
1000
0000
0000
0000
1000
0000
0000
0000
1000
0000
0000
0000
,  // measure 25
0100
0000
0010
0100
0010
0000
0100
1000
0010
MMMM
0100
MMMM
0001
MMMM
0010
MMMM
,  // measure 26
0100
0000
1000
0100
1000
0000
0100
0010
0100
0010
0100
0010
0001
0010
0001
0010
,  // measure 27
0001
0000
0010
0001
0010
0000
0001
0100
0001
MMMM
0100
MMMM
0010
MMMM
1000
MMMM
,  // measure 28
0100
0000
0000
0000
0000
0000
1000
0000
0000
0100
0000
0000
0010
0000
0000
0000
0000
0000
0100
0000
0000
1000
0000
0000
0010
0000
0000
0000
0010
0000
0000
0000
0010
0000
0000
0000
0100
0000
0000
0000
0100
0000
0000
0000
0100
0000
0000
0000
,  // measure 29
0001
0000
1000
0001
1000
0000
0001
0010
0100
MMMM
1000
MMMM
0010
MMMM
0100
MMMM
,  // measure 30
0010
0000
1000
0010
1000
0000
0100
1000
0001
0100
0001
0100
1000
0100
1000
0100
,  // measure 31
0010
0000
1000
0010
1000
0000
0010
0100
0001
MMMM
0010
MMMM
0100
MMMM
1000
MMMM
,  // measure 32
0010
0000
1000
0000
0001
0000
1000
0000
0100
0010
0100
0010
0001
1000
0001
1000
,  // measure 33
0010
0000
1000
0000
0001
0000
1000
0000
0100
0010
0100
0010
0001
1000
0010
0100
,  // measure 34
0001
0000
1000
0000
0100
0000
1000
0000
0100
0010
0100
0010
0001
0010
0001
0010
,  // measure 35
0100
0000
1000
0000
0010
0000
0100
0000
0001
0000
0010
0000
0110
0000
MMMM
1000
,  // measure 36
0010
0000
1000
0000
0001
0000
1000
0000
0100
0010
0100
1000
0010
0100
0010
0001
,  // measure 37
0010
0000
0100
0000
0001
0000
0010
0000
0100
0001
0100
0010
1000
0010
0001
0100
,  // measure 38
0001
0000
0100
0000
0010
0000
1000
0000
0001
0010
0001
1000
0010
1000
0001
0010
,  // measure 39
0001
0000
1000
0000
0100
0000
1000
0000
0001
0000
0100
0000
0010
0000
MMMM
0100
,  // measure 40
0001
0000
0100
0000
0010
0000
0001
0000
1001
0000
0000
1010
0000
0000
1001
0000
,  // measure 41
0000
0000
0021
0000
0230
0000
0000
0000
0310
0100
0010
0001
0100
0010
0100
1000
,  // measure 42
0100
0000
0010
0000
1000
0000
0001
0000
0010
0100
1000
0010
0100
0001
0010
0100
,  // measure 43
0010
0000
0001
0000
0100
0000
0010
0000
1010
0000
0000
0101
0000
0000
MMMM
0010
,  // measure 44
0100
0000
1000
0000
0010
0000
0100
0000
0110
0000
0000
1001
0000
0000
0011
0000
,  // measure 45
0000
0000
0210
0000
2300
0000
0000
0000
3001
1000
0001
1000
0100
0010
0001
0100
,  // measure 46
0010
0000
1000
0000
0001
0000
0100
0000
0001
0100
1000
0100
0001
0010
1000
0010
,  // measure 47
0001
0000
0100
0000
0010
0000
0100
0000
0110
0000
0000
1001
0000
0000
MMMM
0100
,  // measure 48
0010
0000
0000
0100
0010
0100
0010
0100
1000
0100
0010
0001
1000
0100
0010
0001
,  // measure 49
0100
0000
0010
0100
0010
0100
0001
1000
0100
1000
0010
0100
0001
0010
0100
1000
,  // measure 50
0001
0000
1000
0001
1000
0000
0001
1000
0001
0100
0010
0100
0001
0010
0100
0010
,  // measure 51
0001
1000
0001
1000
0100
0000
1000
0001
1000
0001
0100
0000
0010
0000
1000
0000
,  // measure 52
0100
0000
0000
0100
0000
0000
0100
0000
0000
0010
0000
0000
1001
0000
0000
0000
,  // measure 53
0100
0000
0000
0100
0000
0000
0100
0000
0000
0010
0000
0000
1001
0000
0000
0000
,  // measure 54
1100
0000
0000
0011
0000
0000
0101
0000
0000
1010
0000
0000
1001
0000
0000
0000
,  // measure 55
1010
0000
0000
0011
0000
0000
1100
0000
0000
0101
0000
0000
1001
0000
0000
0000
;
