#TITLE:Applejack's Theme;
#SUBTITLE:;
#ARTIST:RainbowCrash88;
#TITLETRANSLIT:;
#SUBTITLETRANSLIT:;
#ARTISTTRANSLIT:;
#GENRE:Country Rock;
#CREDIT:;
#BANNER:Applejack's Theme.png;
#BACKGROUND:Applejack's Theme-bg.png;
#LYRICSPATH:;
#CDTITLE:;
#MUSIC:Applejack's Theme.mp3;
#OFFSET:-0.060000;
#SAMPLESTART:19.360001;
#SAMPLELENGTH:15.000000;
#SELECTABLE:YES;
#DISPLAYBPM:124.000000;
#BPMS:0.000000=124.000000
,264.000000=116.981003
;
#STOPS:
;
#BGCHANGES:-0.500=Applejack's Theme.avi=1.000=0=0=0=StretchNoLoop====,
99999=-nosongbg-=1.000=0=0=0 // don't automatically add -songbackground-
;
#KEYSOUNDS:;
#ATTACKS:;

//---------------dance-single - Blank----------------
#NOTES:
     dance-single:
     :
     Hard:
     15:
     0.781570,0.824928,0.373552,0.140082,0.957228,703.000000,655.000000,48.000000,18.000000,0.000000,0.000000,0.781570,0.824928,0.373552,0.140082,0.957228,703.000000,655.000000,48.000000,18.000000,0.000000,0.000000:
// measure 0
0000
0000
0000
0000
,  // measure 1
0000
0000
0000
0000
,  // measure 2
0000
0000
0000
0000
,  // measure 3
0000
0000
0000
0000
,  // measure 4
0001
0000
0010
0000
0100
0000
1000
0000
0010
1000
0010
1000
0000
0001
1000
0001
,  // measure 5
1000
0000
0100
0000
0010
0001
0000
0100
0000
0010
1010
0000
0110
0000
0101
0000
,  // measure 6
0001
0000
0010
0000
0001
0000
0100
0000
0010
1000
0010
1000
0000
0100
0010
0100
,  // measure 7
0010
0000
0000
0000
0001
0000
0000
0000
1000
0000
0001
0000
1000
0000
0010
0000
0000
0000
0100
0000
0010
0000
0100
0000
0010
1000
0010
0000
1000
0000
0001
0000
,  // measure 8
1000
0100
1000
0100
0020
0000
0000
0000
0031
0010
0001
0010
0100
0001
0000
0000
,  // measure 9
0100
0010
0100
0010
0001
0000
0100
0001
1000
0100
1000
0100
0010
0001
0100
0010
,  // measure 10
1000
0001
1000
0101
0001
1000
0001
1100
,  // measure 11
1000
0000
0001
1000
0001
0000
1010
0000
0110
0000
0101
0000
0011
0000
0010
0100
,  // measure 12
0000
1000
0100
0010
0001
0100
0010
0100
0001
0010
0100
1000
0001
0100
0010
0100
,  // measure 13
0010
1000
0100
0010
0100
1000
0010
0100
0001
0010
0100
0001
1000
0010
0001
0100
,  // measure 14
0010
0000
1000
0000
0010
0000
0101
0000
0001
0010
0001
0000
0010
0000
1100
0000
,  // measure 15
1000
0000
0010
1000
0010
0000
0101
0000
1001
0000
1010
0000
0110
0000
0100
0001
,  // measure 16
0000
0010
0001
0100
0010
1000
0100
1000
0001
0100
0010
1000
0001
0010
0100
1000
,  // measure 17
0100
0001
0100
1000
0010
0001
0010
1000
0100
0010
0001
0100
0010
1000
0100
0010
,  // measure 18
0001
0000
0100
0001
0000
0001
0010
0000
0100
0000
1000
0010
0000
0010
0100
0001
,  // measure 19
2000
0000
3001
0000
0002
0000
0103
0000
0200
0000
0310
0000
0020
0000
1030
0010
,  // measure 20
0000
0000
1000
0000
0001
0000
0010
0000
0100
0000
0000
0110
0000
0000
0010
0000
,  // measure 21
0001
0000
0100
0010
0000
0000
1000
0000
0010
0100
0010
0100
0001
1000
0001
1000
,  // measure 22
0100
0000
0010
0001
0000
0001
0100
0000
0010
0000
1000
0100
0000
0100
0010
0001
,  // measure 23
0200
0000
0310
0000
0020
0000
1030
0000
2000
0000
3001
0000
0002
0000
0013
0001
,  // measure 24
0000
0000
0010
0000
0100
0000
1000
0000
0010
0000
0000
0110
0000
0000
0010
1000
,  // measure 25
0010
0000
0000
0000
0100
0000
0000
0000
0001
0000
0000
0000
0010
0000
0000
0000
0100
0000
1000
0000
0100
0000
1000
0000
0001
1000
0001
0000
1000
0000
0001
0000
,  // measure 26
0100
0001
0100
0001
0020
0000
0000
0000
0130
0010
0100
0010
0001
0100
0000
0000
,  // measure 27
0010
1000
0010
1000
0100
0000
0010
0100
0010
0000
0010
0001
0000
0001
0100
0000
,  // measure 28
0010
0000
1000
0000
0010
0000
1000
0000
0100
0000
0010
0100
0000
1000
0000
0001
,  // measure 29
0000
0000
0000
0000
0100
0000
0010
1000
0000
0001
0000
0010
0000
0000
0110
0000
,  // measure 30
1001
0000
1000
0000
0100
0000
0010
0000
0110
0000
0010
0001
0000
0100
0000
0010
,  // measure 31
0000
0000
0000
0000
1010
0000
1000
0000
0001
1000
0000
0100
0010
0000
0000
0000
,  // measure 32
0100
0000
0010
0001
0010
0000
0001
0000
0100
0010
0100
0010
0000
0000
1000
0010
,  // measure 33
0100
0000
0001
0000
1000
0001
0000
0100
0000
0000
1010
0000
0110
0000
0101
0000
,  // measure 34
0001
0000
0010
0000
0001
0000
0100
0000
0010
1000
0010
0100
0000
0000
0001
0000
,  // measure 35
1000
0000
0100
0000
1000
0000
0100
0000
0010
0000
0001
0000
0010
0000
0001
0000
0100
0000
0010
0000
0100
0000
0010
0000
1000
0010
1000
0000
0010
0000
0100
0000
,  // measure 36
0002
0000
0000
0000
1003
0001
0000
0000
0100
0001
0100
0001
0020
0000
0000
0000
,  // measure 37
0130
1000
0100
1000
0010
0100
0000
0000
0001
1000
0001
1000
0100
0000
0010
0001
,  // measure 38
0100
0010
0100
0001
0020
0000
0000
0000
0130
0010
0100
0010
0002
0000
0000
0000
,  // measure 39
1003
0001
1000
0001
0100
0010
0000
0000
0100
0010
0100
0010
1000
0000
0001
1000
,  // measure 40
0001
0100
0010
1000
0010
0100
0001
1000
0100
0000
0010
0100
0000
0010
0100
0000
,  // measure 41
0010
0100
0000
0010
0100
0000
1000
0000
0001
0000
0100
0001
0000
0100
0001
0000
,  // measure 42
0100
0010
0000
0100
0010
0000
0010
0010
1000
0000
0000
0011
0000
0000
1000
0000
,  // measure 43
0001
0000
0000
1100
0000
0000
1000
0000
0010
0000
0100
0010
0000
0100
0001
0000
,  // measure 44
0010
0000
0100
1000
0100
0010
0001
0100
0010
0000
0000
1100
0000
0000
0202
0000
,  // measure 45
0000
0000
0303
0000
0001
0010
0100
0000
1000
0000
0001
1000
0000
0010
1000
0000
,  // measure 46
0000
0000
0001
1000
0000
1000
0001
1000
0100
0010
0001
0100
0010
1000
0100
0010
,  // measure 47
0001
0000
0000
0000
1001
0000
0000
0000
0110
0000
0010
1000
0000
1000
0100
0000
,  // measure 48
0010
0010
0001
1000
0010
1000
0001
0010
0100
0000
1000
0100
0000
0100
0010
0000
,  // measure 49
0001
0000
0100
0010
0000
0100
0001
0000
1000
0000
0001
0100
0000
0100
0010
0000
,  // measure 50
1000
0000
0100
0010
0000
0010
0001
0100
0001
0000
1000
0001
0000
0001
0100
0000
,  // measure 51
0010
0000
1000
0010
0000
0010
0100
0000
0001
0000
1000
0001
0000
0001
0010
0000
,  // measure 52
0100
0000
1000
0010
0000
0010
0100
0010
0100
0000
0001
0100
0000
0100
0010
0000
,  // measure 53
1000
0000
0010
0100
0000
0100
0001
0000
1000
0000
0100
0010
0000
0010
0001
0000
,  // measure 54
0100
0000
0010
1000
0000
1000
0001
1000
0001
0000
0100
0001
0000
0001
0010
0000
,  // measure 55
0100
0000
0010
0001
1000
0001
1000
0000
0100
0000
0010
0100
0000
0100
0010
0000
,  // measure 56
0001
0010
0100
1000
0001
1001
1000
0100
,  // measure 57
0010
0110
0100
1000
0001
0101
0100
0010
,  // measure 58
2000
0000
0000
0000
3002
0000
0000
0000
1003
0001
0010
0100
0010
0001
1000
0010
,  // measure 59
0001
0010
1000
0100
0001
0000
0000
0000
0100
0010
0001
1000
0010
0100
0001
1000
,  // measure 60
0100
0010
0100
0010
0001
0100
0001
0100
0010
1000
0100
1000
0001
0100
0010
1000
,  // measure 61
0100
0010
0100
1000
0001
0000
0000
0000
0100
0001
0100
0001
0010
0100
1000
0100
,  // measure 62
0001
0000
0000
0100
0000
0000
1000
0000
0010
0000
1100
0000
0010
0000
1100
0000
,  // measure 63
0010
0101
0010
0101
0010
1001
0010
1001
,  // measure 64
0010
0000
0100
0000
1000
0000
0001
0100
0000
0000
1010
0000
0100
0000
1010
0000
,  // measure 65
0100
0000
0011
0000
0100
0000
0011
0000
1001
0000
0000
1001
0000
0000
1001
0000
,  // measure 66
0000
0110
0110
0000
0000
0000
0000
0000
;

//---------------dance-single - Blank----------------
#NOTES:
     dance-single:
     :
     Medium:
     10:
     0.443594,0.489801,0.272382,0.334641,0.186776,399.000000,364.000000,35.000000,43.000000,0.000000,0.000000,0.443594,0.489801,0.272382,0.334641,0.186776,399.000000,364.000000,35.000000,43.000000,0.000000,0.000000:
1000
0000
0010
0000
1000
0000
0010
0000
0100
0000
0000
0100
0000
0001
0000
1000
,
0000
0000
0100
0000
0100
0000
0000
1000
0000
0010
0000
2000
0000
0000
3001
0000
,
0000
0000
1000
0000
0100
0000
0010
0000
0110
0000
0000
0100
0000
1000
0000
0001
,
0000
0000
0000
0000
0010
0000
0001
0000
1000
0000
0000
0010
0000
0000
0000
0000
,
1000
0000
0001
0000
1000
0000
0001
0000
0010
0000
0000
0010
0000
0000
0000
0000
,
0100
0000
1000
0000
0100
0000
0000
1000
0000
0000
1010
0000
1010
0000
0110
0000
,
0100
0000
0001
0000
0010
0000
0001
0000
0100
0000
0000
0100
0000
0000
0010
0000
,
1000
0000
0010
0000
0100
0000
0000
0002
0000
0000
0000
0000
1003
0000
0000
0000
,
0001
0000
0011
0000
0010
0100
1000
0000
,
1000
0000
1010
0000
0010
0100
0001
0100
,
0002
0000
0000
0000
1003
0000
1000
0001
,
1000
0000
0000
1010
0000
0000
0010
0000
0100
0000
0001
0000
0100
0000
0000
0010
,
0000
1000
0100
0010
0001
0010
0100
1000
,
0010
0100
0001
1000
0100
0010
0001
1000
,
0002
0000
0000
0000
1003
1000
0001
1000
,
0001
0000
0000
0011
0000
0000
0010
0000
0100
0000
1000
0000
0100
0000
0000
0010
,
0000
0001
0100
0010
1000
0010
0100
0001
,
0010
0100
1000
0010
0100
0001
1000
0001
,
0020
0000
0000
0000
0000
0000
0000
0000
0000
0000
0000
0000
0000
0000
0130
0010
,
0200
0000
0000
0000
2300
0000
0000
0000
3002
0000
0000
0000
0203
0000
0000
0310
,
0000
0100
0001
0100
0000
0001
1000
0001
,
0000
1000
0100
1000
0000
0100
0010
0100
,
0020
0000
0000
0000
0000
0000
0000
0000
0000
0000
0000
0000
0000
0000
0130
0010
,
0200
0000
0000
0000
2300
0000
0000
0000
3020
0000
0000
0000
0230
0000
0000
0301
,
0000
0001
1000
0001
0000
1000
0010
1000
,
0000
0010
0100
0010
0000
0100
0010
0100
,
0001
0000
0101
0000
0001
1000
0001
0000
,
1000
0000
0000
0000
1100
0000
0000
0000
0100
0000
0000
0010
0000
0000
0100
0000
,
0000
0000
0010
0000
0001
0000
0100
0000
0010
0000
0000
1000
0000
1000
0000
1000
,
0000
0000
0000
0000
0001
0000
0000
0010
0000
0010
0000
0010
0000
0000
0100
0000
,
0000
0000
1000
0000
0100
0000
0010
0000
0110
0000
0000
0100
0000
0100
0000
0100
,
0000
0000
0000
0000
0010
0000
0001
0000
0100
0000
0000
0110
0000
0000
0000
0000
,
0010
0000
1000
0000
0010
0000
1000
0000
0001
0000
0000
0010
0000
0000
0000
0000
,
0100
0000
1000
0000
0001
0000
0000
0100
0000
0000
0110
0000
0110
0000
1010
0000
,
1000
0000
0100
0000
0010
0000
0001
0000
0100
0000
0000
0010
0000
0000
1000
0000
,
0001
0000
0010
0000
0100
0000
0000
0110
0000
0000
0000
0000
0010
0000
0001
0000
,
0200
0310
0010
1010
,
1000
0001
1000
0000
0001
0000
0011
0000
,
0010
0100
0020
0000
0130
0000
1100
0000
,
1000
0001
1000
0000
0001
0000
0101
0000
,
0100
0000
0010
0000
1000
0000
0001
0000
0100
0000
0000
0100
0000
0000
0100
0000
,
0000
0100
0000
0000
0100
0000
0100
0000
0010
0000
0000
0010
0000
0000
0010
0000
,
0000
0010
0000
0000
0010
0000
1000
0000
0002
0000
0000
0023
0000
0000
0130
0000
,
2000
0000
0000
3200
0000
0000
0310
0000
0002
0000
0000
0000
0000
0000
0000
0000
,
0000
0000
0000
0000
1003
0000
0001
0000
1000
0000
0000
0100
0000
0000
2000
0000
,
0000
0000
0000
0000
3001
0000
1000
0000
0001
0000
0000
0100
0000
0000
0202
0000
,
0000
0000
0000
0303
0001
0010
0100
1000
,
1001
0110
1001
1000
,
0010
1000
0100
0010
0002
1000
0000
1003
,
0002
1000
0003
1000
0020
1000
0000
1030
,
0020
1000
0030
1000
0002
1000
0000
1003
,
0002
1000
0003
1000
0200
1000
0000
1300
,
0200
1000
0000
1300
0200
1000
0000
1300
,
0200
1000
0300
1000
0002
1000
0000
1003
,
0002
1000
0000
1003
0002
0000
0023
0000
,
0230
2300
3001
1000
,
0001
1000
0010
0100
0001
0011
0000
0000
,
0010
0110
0000
0000
0100
1100
0000
0000
,
1001
0110
0010
1010
,
1000
0001
1000
0000
0001
0000
0011
0000
,
0010
0100
1000
0100
1000
0000
1001
0000
,
0001
0100
0001
0000
1000
0000
1001
0000
,
0001
0000
0000
0010
0000
0000
0100
0000
2000
0000
0000
0000
0000
0000
0000
0000
,
3002
0000
0000
0000
,
1003
0000
0001
0000
1000
0000
0001
2000
0000
0000
0000
0000
0000
0000
0000
0000
,
0000
0000
0000
0000
0000
0000
0000
0000
3100
0000
0000
0100
0000
0000
0100
0000
,
0000
0110
0110
0000
0000
0000
0000
0000
;

//---------------dance-single - Blank----------------
#NOTES:
     dance-single:
     :
     Easy:
     5:
     0.251259,0.283569,0.070041,0.319076,0.003891,226.000000,217.000000,9.000000,41.000000,0.000000,0.000000,0.251259,0.283569,0.070041,0.319076,0.003891,226.000000,217.000000,9.000000,41.000000,0.000000,0.000000:
0010
1000
0010
1000
,
0001
0001
0001
0001
,
0010
0001
0010
0001
,
1000
1000
1000
1000
,
0200
0310
0200
1300
,
0020
0130
0020
0031
,
0010
0100
0001
1000
,
0100
0010
0001
1000
,
0010
0010
0100
0100
,
0001
1000
0001
1000
,
0200
0000
0320
0000
,
0100
0100
0100
0130
,
0010
0001
0010
0001
,
0100
0010
0100
0010
,
2000
0000
3002
0000
,
0010
0010
0010
0013
,
0001
0100
0001
0100
,
0010
1000
0010
1000
,
0002
0000
0000
1003
,
2000
3200
0320
0032
,
0203
0000
0000
0000
,
0320
0000
0000
1030
,
2000
0000
0000
3001
,
0002
0023
0230
2300
,
3002
0000
0000
0000
,
0203
0000
0320
0000
,
0130
0100
0010
0010
,
1000
0001
1000
0001
,
0022
0000
0000
0000
,
0000
0000
0000
0033
,
2200
0000
0000
0000
,
0000
0000
3300
1001
,
0001
0001
0100
0100
,
0010
1000
0001
0010
,
0100
0100
1000
1000
,
0001
1000
0010
0100
,
0020
0130
0010
0010
,
0100
0100
0001
1000
,
0001
1000
0010
0010
,
0100
0100
1000
0001
,
1000
0001
0010
0010
,
0010
0010
1000
1000
,
1000
1000
0001
1000
,
0001
1000
0020
0000
,
0000
0130
0100
0001
,
0100
0001
1000
0010
,
2000
0000
3001
1000
,
1100
0110
0011
0000
,
0001
1000
0002
0000
,
2003
0000
3020
0000
,
0100
0130
0200
0000
,
0302
0000
2003
0000
,
0001
3001
2000
0000
,
3002
0000
0023
0000
,
0230
0000
1000
1300
,
1000
0100
0010
0001
,
0100
0100
0110
0000
,
1001
0000
0110
0000
,
0020
0031
0010
0100
,
0001
1000
0100
0010
,
0001
1000
0010
1000
,
0001
0100
0010
0001
,
1000
0000
0100
0000
0000
0010
0000
0010
,
0000
0010
0000
0010
0000
0100
0000
0100
,
0000
0100
0000
0100
0000
0001
0000
0001
,
0000
0000
0001
0000
0000
0000
0000
0000
1000
0000
0000
1000
0000
0000
1000
0000
,
0000
1000
0000
0000
;

//---------------dance-single - ----------------
#NOTES:
     dance-single:
     :
     Beginner:
     3:
     0.102282,0.154674,0.054476,0.225688,0.000000,92.000000,85.000000,7.000000,29.000000,0.000000,0.000000,0.102282,0.154674,0.054476,0.225688,0.000000,92.000000,85.000000,7.000000,29.000000,0.000000,0.000000:
0010
0000
0000
0000
,
0010
0000
0000
0000
,
1000
0000
1000
0000
,
1000
0000
0000
0000
,
0010
0000
0000
0000
,
0010
0000
0000
0000
,
0001
0000
0001
0000
,
0001
0000
0000
0000
,
0110
0000
0000
0000
,
0110
0000
0000
0000
,
0100
0000
0100
0000
,
0100
0000
0000
0000
,
0010
0000
0010
0000
,
0010
0000
0000
0000
,
0001
0000
0001
0000
,
0001
0000
0000
0000
,
1000
0000
1000
0000
,
1000
0000
0000
0000
,
0002
0000
0000
0000
,
0023
0000
0000
0000
,
0032
0000
0000
0000
,
0000
0000
0000
0000
,
2003
0000
0000
0000
,
3020
0000
0000
0000
,
2030
0000
0000
0000
,
3002
0000
0000
0000
,
1003
0000
1000
0000
,
1000
0000
0000
0000
,
2002
0000
0000
0000
,
0000
0000
0000
3003
,
0020
0000
0000
0000
,
0000
0000
0000
0030
,
0100
0000
0000
0000
,
0100
0000
0100
0000
,
0100
0000
0000
0000
,
0010
0000
0010
0000
,
0020
0000
1030
0000
,
1000
0000
1000
0000
,
0000
0000
0001
0000
,
0001
0000
0001
0000
,
0000
0000
0010
0000
,
0000
0000
0010
0000
,
0000
0000
0100
0000
,
0000
0000
0200
0000
,
0000
0000
1300
0000
,
0000
0000
1000
0000
,
0000
0000
0001
0000
,
0001
0000
0001
0000
,
0001
0000
2000
0000
,
3020
0000
2030
0000
,
0000
0000
3002
0000
,
0023
0000
0032
0000
,
0000
0000
2003
0000
,
3200
0000
2300
0000
,
0000
0000
3002
0000
,
0203
0000
0302
0000
,
2003
0000
3001
0000
,
0001
0000
0001
0000
,
0000
0000
1001
0000
,
0000
0000
0110
0000
,
0000
0000
1001
0000
,
0000
0000
0110
0000
,
0000
0000
0020
0000
,
0230
0000
0000
0000
,
0320
0000
0230
0000
,
0000
0000
0001
0000
,
0000
0301
0000
0000
;

//---------------dance-single - ----------------
#NOTES:
     dance-single:
     :
     Challenge:
     17:
     0.939440,0.979602,0.661499,0.287947,1.237393,845.000000,760.000000,85.000000,37.000000,0.000000,0.000000,0.939440,0.979602,0.661499,0.287947,1.237393,845.000000,760.000000,85.000000,37.000000,0.000000,0.000000:
0000
0000
0000
0000
,
0000
0000
0000
0000
,
0000
0000
0000
0000
,
0000
0000
0000
0000
,
0001
0100
0010
0000
1020
0000
0130
0000
0101
1000
0001
0010
0000
0100
0010
0001
,
0012
0000
0103
0000
0010
1000
0000
1100
0000
0100
0010
0000
0011
0000
1010
0000
,
0101
0100
0010
0000
1010
0000
0110
0000
0101
0010
1000
0100
0000
0000
0100
0010
,
0011
0000
0000
0000
0101
0000
0000
0000
0010
0000
1000
0000
0001
0000
0010
0000
0000
0000
0100
0000
0010
0000
0001
0000
0100
0010
1000
0000
0001
0000
0010
0000
,
0100
1000
0100
0000
0010
0000
0001
0000
0020
0000
0000
0000
0000
0000
0000
0000
0031
1000
0001
0000
0100
0000
0010
0000
1000
0000
1100
0000
0000
0000
0000
0000
,
0100
0010
0001
0000
0100
0000
0010
0000
1000
0000
0000
0000
0010
1000
0001
0000
0010
0001
0010
0001
0010
0000
0100
0000
1000
0000
0001
0000
0100
0000
0010
0000
,
1000
0000
1010
0000
0001
0100
0010
0000
0100
0000
0101
0000
0010
1000
0100
0000
,
0100
0000
0011
0000
0100
1000
0010
0100
0020
0000
0130
0000
1010
0000
0001
0010
,
0000
0100
1000
0010
0001
0010
0100
0001
0010
1000
0010
0001
0100
0010
1000
0100
,
0001
0100
0010
0001
0100
0010
0100
1000
0100
0010
1000
0100
0010
0001
1000
0010
,
0100
0000
0100
0010
0000
0100
0001
0000
1000
0100
0010
0100
0000
0010
0001
0000
,
1000
0010
0100
0010
1000
0001
0010
0100
1000
0000
1100
0000
0011
0000
1000
0010
,
0000
0100
0010
0100
0001
0010
0100
1000
0100
0010
0001
1000
0010
0100
1000
0100
,
0010
0001
0010
0100
0010
1000
0010
0100
0001
0010
0100
1000
0010
0100
0010
1000
,
0001
0000
1000
0100
0000
0001
0010
0000
1100
0000
1002
0000
0010
0000
0103
0010
,
2000
0000
0100
0000
3020
0000
0100
0000
2030
0000
3001
0000
1100
0000
0010
0001
,
0000
0000
0010
0000
0100
0010
0001
0000
0201
0000
0310
0000
0100
0010
1000
0000
,
1200
0000
0310
0000
0100
0010
0001
0000
1020
0000
0130
0001
1000
0010
0100
0001
,
0010
0000
0001
0100
0000
0001
1000
0000
1000
0100
0010
0000
1100
0000
0001
1000
,
0020
0000
0100
0000
2030
0000
0100
0000
3002
0000
0013
0000
1100
0000
0010
0001
,
0000
0000
1010
0000
0100
0001
0010
0000
1100
0000
0011
0000
0100
0010
1000
0000
,
1001
0000
0000
0000
1100
0000
0000
0000
0010
0000
0001
0000
0100
0000
0000
0000
0001
0000
1000
0000
0001
0000
1000
0000
0010
1000
0001
0000
0010
0000
0100
0000
,
0010
0001
0010
0001
1000
0000
0010
0000
2000
0000
0000
0000
0000
0000
0000
0000
3010
0100
0001
0100
0010
0000
1000
0000
0100
0000
1100
0000
0000
0000
0000
0000
,
0001
1000
0001
1000
0010
0000
0100
0000
0020
0000
0000
0000
0100
0000
1030
0000
0101
0000
0000
0000
1000
0000
1100
0000
0000
0000
0001
0000
1001
0000
0000
0000
,
0110
0000
0010
0000
1000
0000
0100
0000
1000
0000
0001
0010
0000
0001
0000
0100
,
0000
0000
0000
0000
0010
1000
0100
0010
0000
0011
0000
0201
0000
0000
0010
0000
,
0301
0000
2000
0000
0010
0000
3100
0000
0012
0000
0000
0103
0000
1001
0000
1100
,
0000
0000
0000
0000
0101
0000
1010
0000
0001
0010
0000
1100
0100
0000
0000
0000
,
1000
0100
0001
0100
1000
0100
0001
0100
1000
0001
0100
0010
0000
0000
0100
1000
,
0100
0010
1000
0000
0001
0010
0000
1100
0000
0001
0100
0010
0100
1000
0100
0010
,
1000
0100
0010
0000
0011
0000
0100
1000
0010
0001
0010
1000
0000
0000
0001
0010
,
1000
0000
0001
0000
0100
0000
1000
0000
0010
0000
0100
0000
0010
0000
0001
0000
0010
0000
0100
0000
0010
0000
1000
0000
0100
0010
0001
0010
0001
0000
1000
0000
,
0020
0000
0000
0000
0000
0000
0030
0000
1010
0000
0020
0000
0000
0000
0000
0000
0130
0001
1000
0001
0100
0000
0010
0000
1000
0000
0000
0000
0001
0000
0010
0000
,
0100
1000
0001
0100
0001
0000
1000
0000
0100
0000
1100
0000
0000
0000
0000
0000
0001
0010
0001
1000
0010
0000
0100
0000
0001
0000
0000
0000
0010
0001
1000
0000
,
1000
0100
0010
0000
0010
0000
0001
0000
1000
0000
0000
0000
0001
0000
0100
0000
0010
1000
0010
0100
0010
0000
1000
0000
0001
0000
0000
0000
0010
0000
0100
0000
,
1000
0100
0010
0100
1000
0000
0001
0000
0100
0000
0101
0000
0000
0000
0000
0000
1000
0100
1000
0000
0001
0100
0010
0000
1000
0000
0000
0000
1100
0000
0100
0000
,
0010
0001
1000
0010
0001
0010
1000
0100
0010
0001
1000
0010
0100
0001
1000
0100
,
0001
0100
0010
0001
1000
0010
0100
0010
2000
0000
0010
0010
0000
0001
0001
0000
,
3100
0100
0010
0001
0100
0010
1000
0010
0100
0000
0010
1000
0000
0100
0001
0100
,
0010
0000
0001
1000
0000
0010
0100
0001
0010
0000
1100
0000
0010
0001
0100
0010
,
1000
0000
0100
0001
0100
1000
0001
0100
0010
0000
0010
1000
0000
1000
0100
0000
,
1100
0000
0011
0000
1000
0010
0100
0001
1000
0000
0000
1100
0000
0010
0001
0000
,
0100
0000
0001
0100
0000
0010
0100
1000
0100
0010
1000
0001
0010
0100
0001
0100
,
0010
0000
0001
0100
0010
0000
1000
0100
0010
0000
0110
0000
0001
1000
0010
0000
,
0010
0001
0010
0100
0001
0010
0100
1000
0001
0000
0101
0000
0001
1000
0100
0000
,
0010
0000
0011
0000
0100
1000
0001
0000
0100
0000
1010
0000
0100
0010
1000
0000
,
0100
0000
1001
0000
0100
1000
0001
0100
0010
0000
1010
0000
0100
0001
1000
0000
,
0100
0000
0011
0000
1000
0100
0001
0000
0100
0000
1100
0000
0010
0100
1000
0000
,
1001
0000
0101
0000
1000
0001
0010
0100
0010
0000
0010
0001
1000
0010
0100
0010
,
1000
0000
0001
1000
0000
1000
0100
0010
0002
0000
0100
0103
0000
0010
0100
0001
,
1000
0000
0100
1000
0000
1000
0100
0010
0001
0000
0011
0000
0100
1000
0010
0100
,
0002
0000
1003
0010
0200
0000
0301
0010
0100
0000
1100
0000
0010
0001
0100
1000
,
0100
0010
1000
0100
0010
0100
0001
1000
0001
0100
0010
0000
0100
1000
0001
0100
,
0010
1000
0001
0000
0010
1000
0010
0001
0100
0010
1000
0000
0010
0100
1000
0100
,
0002
0000
0100
0000
0023
0000
0100
0000
0031
1000
0010
0100
1000
0100
0010
1000
,
0100
0001
0100
0010
0001
0000
0000
0000
0001
0100
1000
0100
0001
0010
0100
1000
,
0001
0100
0010
1000
0100
0010
0001
1000
0010
0001
0010
1000
0100
0001
1000
0010
,
0001
1000
0010
0100
0001
0000
0000
0000
1000
0100
0001
0100
0010
0001
0100
1000
,
0200
0000
0010
0010
0000
0001
0301
0000
1200
0000
0310
0000
2100
0000
3001
0000
,
0201
0310
0102
1003
1020
0130
2010
3001
,
0011
0000
0110
0000
1100
0000
0001
0100
0000
0000
1020
0000
0130
0000
2010
0000
,
3001
0000
0021
0000
0130
0000
0011
0000
1010
0000
0000
0011
0000
0000
1001
0000
,
0000
0110
0110
0000
0000
0000
0000
0000
;
