#TITLE:Apple Bloom 'n Babs (Part 2);
#SUBTITLE:;
#ARTIST:D2L & YURIMEAS;
#TITLETRANSLIT:;
#SUBTITLETRANSLIT:;
#ARTISTTRANSLIT:;
#GENRE:Beach Chiptrance;
#CREDIT:;
#BANNER:Apple Bloom 'n Babs (Part 2).png;
#BACKGROUND:Apple Bloom 'n Babs (Part 2)-bg.png;
#LYRICSPATH:;
#CDTITLE:;
#MUSIC:Apple Bloom 'n Babs (Part 2).mp3;
#OFFSET:-0.103268;
#SAMPLESTART:38.400002;
#SAMPLELENGTH:15.000000;
#SELECTABLE:YES;
#BPMS:0.000000=100.000000
;
#STOPS:
;
#BGCHANGES:;
#KEYSOUNDS:;
#ATTACKS:;

//---------------dance-single - ----------------
#NOTES:
     dance-single:
     :
     Easy:
     4:
     0.197667,0.161428,0.009609,0.019218,0.000000,141.000000,1.000000,2.000000,0.000000,0.000000,0.000000,0.197667,0.161428,0.009609,0.019218,0.000000,141.000000,1.000000,2.000000,0.000000,0.000000,0.000000:
// measure 0
0000
0000
0000
0000
,  // measure 1
0000
0000
0000
0000
,  // measure 2
0000
0000
0000
0000
,  // measure 3
0000
0000
0000
0000
,  // measure 4
0010
0001
0010
0001
,  // measure 5
0100
0001
0100
0001
,  // measure 6
0010
0100
0010
0100
,  // measure 7
1000
0100
1000
0100
,  // measure 8
1000
0000
0001
0000
0000
0100
0000
0000
,  // measure 9
0010
0100
0010
0100
,  // measure 10
0001
0010
0001
0010
,  // measure 11
0100
1000
0100
1000
,  // measure 12
0001
0000
1000
0000
0000
0010
0000
0000
,  // measure 13
0100
0001
0100
0001
,  // measure 14
1000
0010
1000
0010
,  // measure 15
1000
0001
1000
0001
,  // measure 16
0010
0010
0100
0100
,  // measure 17
1000
1000
0001
0100
,  // measure 18
0010
0010
0100
0100
,  // measure 19
0001
0010
0100
1000
,  // measure 20
0010
0010
0100
0100
,  // measure 21
0001
0001
1000
0100
,  // measure 22
0010
0010
0100
0100
,  // measure 23
1000
0010
0100
0001
,  // measure 24
0010
0010
0100
0100
,  // measure 25
1000
1000
0001
0100
,  // measure 26
0010
0010
0100
0100
,  // measure 27
0001
0010
0100
1000
,  // measure 28
0010
0010
0100
0100
,  // measure 29
0001
0001
1000
0100
,  // measure 30
0010
0010
0100
0100
,  // measure 31
1000
0010
0100
0001
,  // measure 32
1000
0000
0001
0000
0000
0100
0000
0000
,  // measure 33
0010
1000
0010
1000
,  // measure 34
0001
0010
0001
0010
,  // measure 35
0100
1000
0100
1000
,  // measure 36
0001
0000
1000
0000
0000
0100
0000
0000
,  // measure 37
0010
0100
0010
0100
,  // measure 38
1000
0001
1000
0001
,  // measure 39
0010
0001
0010
0001
,  // measure 40
2002
0000
0000
0000
,  // measure 41
0000
0000
0000
0000
,  // measure 42
3003
0000
0000
0000
;

//---------------dance-single - ----------------
#NOTES:
     dance-single:
     :
     Medium:
     6:
     0.263556,0.221964,0.163350,0.028826,0.000000,172.000000,17.000000,3.000000,0.000000,0.000000,0.000000,0.263556,0.221964,0.163350,0.028826,0.000000,172.000000,17.000000,3.000000,0.000000,0.000000,0.000000:
// measure 0
0000
0000
0000
0000
,  // measure 1
0000
0000
0000
0000
,  // measure 2
0000
0000
0000
0000
,  // measure 3
0000
0000
0000
0000
,  // measure 4
0010
0001
0010
0011
,  // measure 5
0001
0100
0001
0101
,  // measure 6
0100
0010
0100
0110
,  // measure 7
0010
1000
0010
1010
,  // measure 8
1000
0000
0001
1000
0000
1000
0001
1000
,  // measure 9
0000
0001
0010
0011
,  // measure 10
0010
0100
0010
0110
,  // measure 11
0100
1000
0100
1100
,  // measure 12
1000
0000
0010
0100
0000
0100
0010
0100
,  // measure 13
0000
0001
0100
0101
,  // measure 14
0001
0010
0001
0011
,  // measure 15
0010
0100
0010
0110
,  // measure 16
0100
0100
0100
0000
0010
0010
0010
0000
,  // measure 17
0001
0000
0001
0000
0001
0000
0100
0010
,  // measure 18
1000
1000
1000
0001
0010
0010
0010
0000
,  // measure 19
0100
0010
0100
1000
,  // measure 20
0001
0001
0001
0000
1000
1000
1000
0000
,  // measure 21
0001
0000
0001
0000
0001
0000
0100
0001
,  // measure 22
1000
1000
1000
0100
0010
0010
0010
0000
,  // measure 23
0001
0010
0001
0100
,  // measure 24
0010
0010
0010
0000
1000
1000
1000
0000
,  // measure 25
0001
0000
0001
0000
0001
0000
0010
0001
,  // measure 26
0100
0100
0100
0010
1000
1000
1000
0000
,  // measure 27
0001
0010
0001
0100
,  // measure 28
0010
0010
0010
0000
0100
0100
0100
0000
,  // measure 29
0001
0000
0001
0000
0001
0000
1000
0001
,  // measure 30
0010
0010
0010
0100
1000
1000
1000
0000
,  // measure 31
0001
1000
0001
0010
,  // measure 32
0100
0000
1000
0100
0000
0100
1000
0100
,  // measure 33
0000
0010
0100
0110
,  // measure 34
0010
0001
0010
0011
,  // measure 35
0001
0100
0001
0101
,  // measure 36
0100
0000
0010
0100
0000
0200
0000
0000
,  // measure 37
0301
0100
0001
0101
,  // measure 38
0001
1000
0001
1001
,  // measure 39
1000
0100
1000
1100
,  // measure 40
0220
0000
0000
0000
,  // measure 41
0000
0000
0000
0000
,  // measure 42
0330
0000
0000
0000
;

//---------------dance-single - ----------------
#NOTES:
     dance-single:
     :
     Beginner:
     1:
     0.076871,0.076871,0.000000,0.057653,0.000000,50.000000,0.000000,6.000000,0.000000,0.000000,0.000000,0.076871,0.076871,0.000000,0.057653,0.000000,50.000000,0.000000,6.000000,0.000000,0.000000,0.000000:
// measure 0
0000
0000
0000
0000
,  // measure 1
0000
0000
0000
0000
,  // measure 2
0000
0000
0000
0000
,  // measure 3
0000
0000
0000
0000
,  // measure 4
0020
0000
0000
0000
,  // measure 5
0000
0000
0000
0000
,  // measure 6
0230
0000
0000
0000
,  // measure 7
0000
0000
0000
0000
,  // measure 8
1300
0000
1000
0000
,  // measure 9
1000
0000
0000
0000
,  // measure 10
0001
0000
0001
0000
,  // measure 11
0001
0000
0000
0000
,  // measure 12
0100
0000
0100
0000
,  // measure 13
0100
0000
0000
0000
,  // measure 14
0010
0000
0010
0000
,  // measure 15
0010
0000
0000
0000
,  // measure 16
1000
0000
1000
0000
,  // measure 17
1000
0000
1000
0000
,  // measure 18
0001
0000
0001
0000
,  // measure 19
0001
0000
0001
0000
,  // measure 20
0010
0000
0010
0000
,  // measure 21
0010
0000
0010
0000
,  // measure 22
0100
0000
0100
0000
,  // measure 23
0100
0000
0100
0000
,  // measure 24
1000
0000
1000
0000
,  // measure 25
1000
0000
1000
0000
,  // measure 26
0010
0000
0010
0000
,  // measure 27
0010
0000
0010
0000
,  // measure 28
0100
0000
0100
0000
,  // measure 29
0100
0000
0100
0000
,  // measure 30
0001
0000
0001
0000
,  // measure 31
0001
0000
0001
0000
,  // measure 32
2000
0000
0000
0000
,  // measure 33
0000
0000
0000
0000
,  // measure 34
3002
0000
0000
0000
,  // measure 35
0000
0000
0000
0000
,  // measure 36
0023
0000
0000
0000
,  // measure 37
0000
0000
0000
0000
,  // measure 38
0230
0000
0000
0000
,  // measure 39
0000
0000
0000
0000
,  // measure 40
0300
0000
0000
0000
;

//---------------dance-single - ----------------
#NOTES:
     dance-single:
     :
     Hard:
     10:
     0.417298,0.403571,0.393962,0.019218,0.192176,261.000000,41.000000,2.000000,0.000000,0.000000,0.000000,0.417298,0.403571,0.393962,0.019218,0.192176,261.000000,41.000000,2.000000,0.000000,0.000000,0.000000:
// measure 0
0000
0000
0000
0000
,  // measure 1
0000
0000
0000
0000
,  // measure 2
0000
0000
0000
0000
,  // measure 3
0000
0000
0000
0000
,  // measure 4
0001
1100
0001
0110
,  // measure 5
1000
0101
1000
0110
,  // measure 6
0001
1010
0001
0110
,  // measure 7
1000
0000
0011
0000
1000
0000
0110
0100
,  // measure 8
0010
0000
0001
0010
0001
0100
1000
0100
,  // measure 9
0010
0000
1100
0100
0010
0000
1001
0001
,  // measure 10
0100
0001
0011
0000
0100
0000
1001
0000
,  // measure 11
0001
0000
0011
0000
0100
0000
1100
0100
,  // measure 12
1000
0000
0010
1000
0010
0001
0100
0001
,  // measure 13
0010
0000
1010
0010
1000
0000
1001
1000
,  // measure 14
0001
0000
0011
0000
0010
0000
0110
0010
,  // measure 15
0100
0000
0100
0000
1001
0000
0000
0010
0000
0010
0000
0100
0000
0001
0010
0000
,  // measure 16
0100
0000
0100
0010
0100
0000
1000
0100
0010
0000
0010
0000
0110
0000
0100
0000
,  // measure 17
1000
0000
0010
1000
0010
0000
0000
0010
0100
0000
0100
0000
0001
0000
0010
0000
,  // measure 18
0100
0000
0100
1000
0100
0000
1000
0001
0010
0000
0010
0000
0011
0000
0001
0000
,  // measure 19
0100
0000
0000
0100
0010
0000
0000
0010
1000
0000
1000
0000
0001
0000
0010
0000
,  // measure 20
0100
0000
0100
0010
0100
0000
0010
0100
1000
0000
1000
0000
1001
0000
0001
0000
,  // measure 21
0100
0000
0000
0100
0001
0000
0000
0001
0010
0000
0010
0000
0100
0000
0010
0000
,  // measure 22
0001
0000
0001
1000
0001
0000
1000
0001
0100
0000
0100
0000
0110
0000
0010
0000
,  // measure 23
1000
0000
0000
1000
0001
0000
0000
0001
0010
0000
0010
0000
0100
0000
1000
0000
,  // measure 24
0010
0000
0010
0001
0010
0000
0001
0010
0100
0000
0100
0000
1100
0000
0100
0000
,  // measure 25
0001
0000
0000
0001
0100
0000
0000
0100
1000
0000
1000
0000
0100
0000
0010
0000
,  // measure 26
1000
0000
1000
0001
1000
0000
0100
1000
0001
0000
0001
0000
0101
0000
0100
0000
,  // measure 27
0010
0000
0000
0010
1000
0000
0000
0010
0001
0000
0010
0000
0100
0000
0001
0000
,  // measure 28
0010
0000
0010
0100
0010
0000
0100
0010
0001
0000
0001
0000
1001
0000
1000
0000
,  // measure 29
0010
0000
0000
1000
0100
0000
0000
0001
0100
0000
0100
0000
0010
0000
0001
0000
,  // measure 30
0100
0000
0100
0010
0100
0000
0010
0100
0001
0000
0001
0000
1001
0000
1000
0000
,  // measure 31
0100
0000
0000
0010
0001
0000
0000
0010
1000
0000
0010
0000
0100
0000
0000
0000
,  // measure 32
0110
0000
0010
0001
0100
1000
0100
0001
,  // measure 33
0010
0000
1100
1000
0001
0000
0101
0100
,  // measure 34
0010
0100
0101
0000
0001
0000
1010
0000
,  // measure 35
0010
0000
1001
0000
0100
0000
1001
0001
,  // measure 36
0100
0000
0110
0010
1000
0100
0101
0100
,  // measure 37
0010
0000
0011
0010
0100
0000
1100
1000
,  // measure 38
0001
0100
0100
0000
0110
0000
0010
0000
,  // measure 39
1000
0000
0100
0000
1100
0000
0100
0010
0000
0100
0000
1000
0000
0001
0100
0000
,  // measure 40
0220
0000
0000
0000
,  // measure 41
0000
0000
0000
0000
,  // measure 42
0330
0000
0000
0000
;
