#TITLE:Apple Bloom 'n Babs (Part 1);
#SUBTITLE:;
#ARTIST:D2L & YURIMEAS;
#TITLETRANSLIT:;
#SUBTITLETRANSLIT:;
#ARTISTTRANSLIT:;
#GENRE:Beach Chiptrance;
#CREDIT:;
#BANNER:Apple Bloom 'n Babs (Part 1).png;
#BACKGROUND:Apple Bloom 'n Babs (Part 1)-bg.png;
#LYRICSPATH:;
#CDTITLE:;
#MUSIC:Apple Bloom 'n Babs (Part 1).ogg;
#OFFSET:0.000;
#SAMPLESTART:76.800;
#SAMPLELENGTH:15.000;
#SELECTABLE:YES;
#BPMS:0.000=100.000
;
#STOPS:
;
#BGCHANGES:;
#KEYSOUNDS:;
#ATTACKS:;

//---------------dance-single - ----------------
#NOTES:
     dance-single:
     :
     Easy:
     5:
     0.202,0.248,0.112,0.048,0.000,157.000,14.000,6.000,0.000,0.000,0.000,0.202,0.248,0.112,0.048,0.000,157.000,14.000,6.000,0.000,0.000,0.000:
0000
1000
0100
0010
,
0000
0100
1000
0001
,
0000
0100
0010
1000
,
0001
0001
0000
0000
,
0000
0010
0100
1000
,
0000
0010
0100
0001
,
0000
0100
0010
1000
,
0001
0001
0000
0000
,
1000
0100
1000
0100
,
0010
0010
0010
0000
,
0001
0100
0001
0100
,
0010
0010
1000
0000
,
0000
0001
0001
1000
,
0100
0010
0100
0010
,
0000
1000
1000
0001
,
0100
0010
0100
0010
,
1000
0010
0001
0010
,
1000
0100
0001
0000
,
1000
0100
0001
0100
,
1000
0010
0001
0000
,
0000
0010
0010
0100
,
0001
1000
0001
1000
,
0000
0100
0100
0010
,
0001
1000
0001
1000
,
0100
0000
0000
0100
0000
0100
0000
0000
,
0010
0000
0000
0010
0000
0010
0000
0000
,
0001
0000
0000
0001
0000
0001
0000
0000
,
1000
0000
0000
1000
0000
1000
0000
0000
,
1010
0000
0000
1010
0000
1010
0000
0000
,
0101
0000
0000
0101
0000
0101
0000
0000
,
0011
0000
0000
0011
0000
0011
0000
0000
,
1100
0000
0000
1100
0000
1100
0000
0000
,
2000
3010
2000
3010
,
0010
0100
0001
0001
,
0010
0001
0100
0100
,
0010
1000
0010
0000
,
0200
0301
0200
0301
,
0100
0010
1000
1000
,
0100
0010
0001
0001
,
1000
0001
1000
0001
,
0011
0010
0100
1000
,
0000
0010
0100
0001
,
0000
0100
1000
0001
,
0010
1000
0000
0000
,
0000
0100
1000
0001
,
0000
0100
0001
1000
,
0000
0010
1000
0001
,
0010
0100
0000
0000
,
0220
0000
0000
0000
,
0000
0000
0000
0000
,
0000
0000
0000
0000
,
0000
0000
0000
0330
;

//---------------dance-single - ----------------
#NOTES:
     dance-single:
     :
     Hard:
     8:
     0.340,0.348,0.223,0.080,0.040,260.000,28.000,10.000,0.000,0.000,0.000,0.340,0.348,0.223,0.080,0.040,260.000,28.000,10.000,0.000,0.000,0.000:
1000
1010
0010
0110
,
0100
0101
0001
0011
,
0010
0000
0110
0000
0100
0000
1000
0100
,
1000
0100
0010
0000
0100
0000
0110
0000
,
0100
1100
1000
1001
,
0001
0101
0100
0110
,
0010
0000
1010
0000
1000
0000
0001
0010
,
0001
0010
0100
0000
0010
0000
0110
0000
,
0100
1000
0001
0100
0010
0000
0100
0010
,
0100
0001
0100
1000
0100
0000
0010
1000
,
0010
0000
0100
0001
0100
0000
0001
0010
,
0100
1000
0010
0100
0001
0000
0000
0000
,
0000
0000
0100
0010
0010
1000
0010
0100
,
0001
0010
0001
0100
0001
0010
0001
0000
,
0010
0100
0100
1000
0100
0000
0110
0000
,
0010
0001
0100
0010
0100
0010
0100
0000
,
0010
1000
0001
0010
0001
0000
0010
0100
,
1000
0100
0001
0100
1000
0000
0010
1000
,
0010
0000
0100
0001
0100
0000
0001
0100
,
0010
1000
0010
0100
0001
0000
0000
0000
,
0000
0000
1000
0001
1000
0100
0010
0100
,
1000
0010
1000
0100
1000
0010
1000
0000
,
0000
0010
0010
0100
0100
0000
0101
0000
,
0001
0000
0010
0000
0001
0000
0010
0000
0100
0000
0000
0000
0010
0100
0000
0000
,
1000
0000
0000
1000
0000
0000
1000
0000
0000
0000
0001
0000
0000
0000
0100
0000
,
0010
0000
0000
0010
0000
0000
0010
0000
0000
0000
1000
0000
0000
0000
0001
0000
,
1000
0000
0000
1000
0000
0000
1000
0000
0000
0000
0100
0000
0000
0000
0010
0000
,
0001
0000
0000
0001
0000
0000
0001
0000
0000
0000
0100
0000
0000
0000
0010
0000
,
0100
0000
0000
0100
0000
0000
0100
0000
0000
0000
0001
0000
0000
0000
0100
0000
,
0010
0000
0000
0010
0000
0000
0010
0000
0000
0000
1000
0000
0000
0000
0001
0000
,
1000
0000
0000
1000
0000
0000
1000
0000
0000
0000
0100
0000
0000
0000
0010
0000
,
0001
0000
0000
0001
0000
0000
0001
0000
0000
0000
1001
0000
0000
0000
1000
0000
,
0200
0320
0230
0320
,
0031
0010
0100
0010
0001
0000
1000
1000
,
0001
1000
0010
1000
0001
0001
0100
0010
,
0100
0001
0100
0001
0100
0000
0101
0000
,
0002
2003
3002
2003
,
3100
0010
0100
1000
1000
0000
0010
0010
,
1000
0001
0010
0001
1000
1000
0100
0010
,
0100
0000
1000
0000
0100
0000
1000
0000
0100
0000
0000
0000
1100
0000
0100
0010
,
0100
1001
0010
1001
,
0000
0011
1000
0101
,
0000
0000
1010
0000
0001
0000
1000
0100
,
1000
0100
1000
0000
0000
0000
0000
0000
,
1000
0110
0001
0110
,
0000
0101
1000
0101
,
0000
0000
1100
0000
0001
0000
1000
0010
,
1000
0010
1000
0000
0010
0000
0100
0000
,
0220
0000
0000
0000
,
0000
0000
0000
0000
,
0000
0000
0000
0000
,
0000
0330
0000
0000
;

//---------------dance-single - ----------------
#NOTES:
     dance-single:
     :
     Beginner:
     1:
     0.088,0.077,0.072,0.064,0.000,60.000,9.000,8.000,0.000,0.000,0.000,0.088,0.077,0.072,0.064,0.000,60.000,9.000,8.000,0.000,0.000,0.000:
0000
0010
0000
0010
,
0000
0010
0000
0010
,
0000
0001
0000
0001
,
0001
0000
0000
0000
,
0000
0100
0000
0100
,
0000
0100
0000
0100
,
0000
0100
0000
0100
,
1000
1000
0000
0000
,
0010
0000
0000
0000
,
0110
0000
0010
0000
,
0010
0000
0000
0000
,
1001
0000
1000
0000
,
1000
0000
0000
0000
,
1001
0000
0001
0000
,
0001
0000
0000
0000
,
0110
0000
0100
0000
,
0100
0000
0000
0000
,
0110
0000
0010
0000
,
0010
0000
0000
0000
,
1001
0000
0001
0000
,
0001
0000
0000
0000
,
1001
0000
1000
0000
,
1000
0000
0000
0000
,
0110
0000
0100
0000
,
0100
0000
0000
0000
,
0100
0000
0000
0000
,
1000
0000
0000
0000
,
1000
0000
0000
0000
,
0001
0000
0000
0000
,
0001
0000
0000
0000
,
0010
0000
0000
0000
,
0010
0000
0000
0000
,
0200
0000
0000
0000
,
2300
0000
0000
0000
,
3002
0000
0000
0000
,
0203
0000
0000
0000
,
0320
0000
0000
0000
,
2030
0000
0000
0000
,
3002
0000
0000
0000
,
0023
0000
0000
0000
,
0130
0000
0000
0000
,
0000
0000
0000
0000
,
0100
0000
0000
0000
,
0000
0000
0000
0000
,
0010
0000
0000
0000
,
0000
0000
0000
0000
,
0010
0000
0000
0000
,
0000
0000
0000
0000
,
1001
0000
0000
0000
;

//---------------dance-single - ----------------
#NOTES:
     dance-single:
     :
     Medium:
     6:
     0.279,0.274,0.088,0.080,0.032,224.000,11.000,10.000,0.000,0.000,0.000,0.279,0.274,0.088,0.080,0.032,224.000,11.000,10.000,0.000,0.000,0.000: // measure 0
0000
0010
0001
0101
,  // measure 1
0000
0010
1000
1100
,  // measure 2
0000
0000
0010
0000
0001
0000
0100
0001
,  // measure 3
0100
0001
0100
0000
0000
0000
0000
0000
,  // measure 4
0000
0010
1000
1001
,  // measure 5
0000
0010
0001
1001
,  // measure 6
0000
0000
0010
0000
1000
0000
0001
1000
,  // measure 7
0001
1000
0001
0000
0000
0000
0000
0000
,  // measure 8
0100
0010
0100
0010
0100
0000
0010
0000
,  // measure 9
1000
0001
1000
0001
1000
0000
0000
0100
,  // measure 10
0010
0000
0010
0100
0010
0000
0100
1000
,  // measure 11
0001
1000
0001
1000
0001
0000
0000
0000
,  // measure 12
0000
0000
0010
1000
0010
1000
0010
0000
,  // measure 13
1000
0001
0010
0001
1000
0001
0010
0000
,  // measure 14
0000
0100
1000
0100
1000
0000
0001
0000
,  // measure 15
0100
0010
0100
0001
0100
0010
0100
0000
,  // measure 16
0010
1000
0010
1000
0010
0000
1000
0000
,  // measure 17
0001
0010
0001
0010
0001
0000
0000
0010
,  // measure 18
0100
0000
0010
0100
0010
0000
0100
1000
,  // measure 19
0001
1000
0001
1000
0001
0000
0000
0000
,  // measure 20
0000
0000
0100
0010
0100
0010
0100
0000
,  // measure 21
0010
1000
0001
1000
0010
1000
0001
0000
,  // measure 22
0000
0100
0001
0100
0001
0000
0100
0000
,  // measure 23
0010
1000
0001
1000
0010
1000
0001
0000
,  // measure 24
0100
0000
0000
0100
0000
0000
0100
0000
0000
0000
0010
0000
0000
0000
0000
0000
,  // measure 25
1000
0000
0000
1000
0000
0000
1000
0000
0000
0000
0001
0000
0000
0000
0000
0000
,  // measure 26
0010
0000
0000
0010
0000
0000
0010
0000
0000
0000
0100
0000
0000
0000
0000
0000
,  // measure 27
0010
0000
0000
0010
0000
0000
0010
0000
0000
0000
0001
0000
0000
0000
0000
0000
,  // measure 28
0100
0000
0000
0100
0000
0000
0100
0000
0000
0000
0010
0000
0000
0000
0000
0000
,  // measure 29
1000
0000
0000
1000
0000
0000
1000
0000
0000
0000
0100
0000
0000
0000
0000
0000
,  // measure 30
0010
0000
0000
0010
0000
0000
0010
0000
0000
0000
0001
0000
0000
0000
0000
0000
,  // measure 31
0100
0000
0000
0100
0000
0000
0100
0000
0000
0000
0110
0000
0000
0000
0000
0000
,  // measure 32
0020
2030
3020
0032
,  // measure 33
0013
1000
0010
1000
0010
0000
1000
0000
,  // measure 34
0001
0010
0001
0010
0001
0000
0010
0000
,  // measure 35
0100
0010
0100
0010
0100
0000
0000
0000
,  // measure 36
0020
0032
0023
2030
,  // measure 37
3010
0100
0010
0100
0010
0000
0100
0000
,  // measure 38
1000
0001
1000
0001
0100
0000
0100
0000
,  // measure 39
0010
1000
0010
1000
0001
0000
0000
0000
,  // measure 40
1001
0010
0001
0101
,  // measure 41
0000
0010
1000
1100
,  // measure 42
0000
0000
0010
0000
0001
0000
0100
0001
,  // measure 43
0100
0001
0100
0000
0000
0000
0000
0000
,  // measure 44
0000
0010
1000
1001
,  // measure 45
0000
0010
0001
1001
,  // measure 46
0000
0000
0010
0000
1000
0000
0001
0010
,  // measure 47
0001
0010
0001
0000
1000
0000
1000
0000
,  // measure 48
2002
0000
0000
0000
,  // measure 49
3003
0000
0000
0000
;
