#TITLE:Aloe Aloe (Radio Edit);
#SUBTITLE:;
#ARTIST:UNDERPΩNY;
#TITLETRANSLIT:;
#SUBTITLETRANSLIT:;
#ARTISTTRANSLIT:Underpony;
#GENRE:Electro-Pop;
#CREDIT:;
#BANNER:Aloe Aloe (Radio Edit).png;
#BACKGROUND:Aloe Aloe (Radio Edit)-bg.png;
#LYRICSPATH:;
#CDTITLE:;
#MUSIC:Aloe Aloe (Radio Edit).mp3;
#OFFSET:-0.063333;
#SAMPLESTART:65.180000;
#SAMPLELENGTH:15.000000;
#SELECTABLE:YES;
#BPMS:0.000000=140.000000
;
#STOPS:
;
#BGCHANGES:;
#KEYSOUNDS:;
#ATTACKS:;

//---------------dance-single - ----------------
#NOTES:
     dance-single:
     :
     Easy:
     5:
     0.167283,0.169793,0.097582,0.019516,0.000000,108.000000,10.000000,2.000000,0.000000,0.000000,0.000000,0.167283,0.169793,0.097582,0.019516,0.000000,108.000000,10.000000,2.000000,0.000000,0.000000,0.000000:
0000
0000
0000
0000
,
0000
0000
0000
0000
,
0000
0000
0000
0000
,
0000
0000
0000
0000
,
0000
0000
0000
0000
,
0000
0000
0000
0000
,
0200
0000
0000
0000
,
0000
0000
0000
0000
,
0310
0000
0010
0000
,
0100
0000
0100
0000
,
0001
0000
0001
0000
,
1000
0000
1000
0000
,
0001
0000
0010
0000
,
0001
0001
0001
0000
,
1000
0000
0010
0000
,
1000
1000
1000
0000
,
0001
0000
0010
0000
,
0100
0100
0100
0000
,
1000
0000
0010
0000
,
0100
0100
0100
0000
,
0001
0000
1000
0000
,
0001
0010
0001
0000
,
1000
0000
0001
0000
,
1000
0010
1000
0000
,
0100
0000
0010
0000
,
0100
1000
0100
0000
,
0010
0000
0100
0000
,
0010
0001
0010
0000
,
0011
0000
0000
0000
,
1100
0000
0000
0000
,
1010
0000
0000
0000
,
0101
0000
0000
0000
,
0011
0000
0000
0000
,
1010
0000
0000
0000
,
1100
0000
0000
0000
,
0101
0000
0000
0000
,
0200
0000
0000
0000
,
0000
0000
0300
0000
,
0000
0000
0010
0010
,
1000
0000
1000
1000
,
0001
0000
0010
0000
,
0100
0000
1000
1000
,
0000
0000
0010
0010
,
0100
0000
0100
0100
,
0001
0000
0100
0000
,
0010
0000
1000
1000
,
0001
0000
0001
0001
,
0010
0000
0010
0010
,
0100
0000
1000
0000
,
0010
0000
0001
0001
,
0010
0000
0100
0100
,
0010
0000
1000
0001
,
1000
0000
0000
0100
,
0010
0000
0010
0000
,
0001
0000
0000
0001
,
0000
0000
0001
0001
,
1001
0000
0000
1000
,
0000
0000
1000
1000
,
0110
0000
0000
0000
;

//---------------dance-single - ----------------
#NOTES:
     dance-single:
     :
     Hard:
     10:
     0.510214,0.518160,0.448877,0.351295,0.034154,284.000000,46.000000,36.000000,0.000000,0.000000,0.000000,0.510214,0.518160,0.448877,0.351295,0.034154,284.000000,46.000000,36.000000,0.000000,0.000000,0.000000:
// measure 0
0000
0000
0000
0000
,  // measure 1
0000
0000
0000
0000
,  // measure 2
0000
0000
0000
0000
,  // measure 3
0000
0000
0000
0000
,  // measure 4
0110
0000
0000
0110
0000
0000
0110
0000
,  // measure 5
0000
0110
0000
0000
1001
0000
1001
0000
,  // measure 6
2200
0000
0000
0000
,  // measure 7
0000
0000
0000
3300
,  // measure 8
1000
0100
0001
1000
0010
0001
0100
0010
,  // measure 9
1000
0010
0001
1000
0100
0001
0010
0100
,  // measure 10
1000
0100
0001
1000
0010
0001
0100
0010
,  // measure 11
1000
0010
0001
1000
0100
0001
0010
0100
,  // measure 12
1000
0000
0001
0001
1000
0000
0001
0010
,  // measure 13
0100
1000
0100
0001
0000
0100
1000
0010
,  // measure 14
0100
0000
0010
0100
0000
0001
1000
0001
,  // measure 15
0000
1001
0000
1000
0100
0010
0100
0000
,  // measure 16
0010
0000
0011
0000
0201
0000
0310
0100
,  // measure 17
0010
1000
0001
0010
0000
0100
0010
0100
,  // measure 18
0000
1000
0100
0010
0000
0010
0001
0100
,  // measure 19
0000
0110
0000
0010
1000
0001
1000
0000
,  // measure 20
0001
0000
1001
0000
0021
0000
0130
0010
,  // measure 21
0100
0000
1000
0000
0000
0000
1001
0000
0000
0101
0000
0000
0000
0000
0100
0000
,  // measure 22
0020
0000
1030
0010
0000
0100
0010
0000
,  // measure 23
0100
0001
1000
0000
0100
1000
0001
0100
,  // measure 24
0010
0010
0000
1010
0000
1000
0001
1000
,  // measure 25
0000
0001
0010
0001
0000
0011
0000
0010
,  // measure 26
0100
0000
1000
0100
0001
0000
0100
0020
,  // measure 27
0000
0031
0010
0100
0000
1000
0100
1000
,  // measure 28
2002
3003
0001
0010
0000
0010
0000
0000
,  // measure 29
0220
0330
0100
1000
0000
1000
0000
0000
,  // measure 30
2020
3030
0010
0100
0000
0100
0000
0000
,  // measure 31
0202
0303
0001
0010
0000
0010
0000
0000
,  // measure 32
2002
3003
0100
0010
0000
0010
0000
0000
,  // measure 33
0022
0033
0001
0100
0000
0100
0000
0000
,  // measure 34
0220
0330
0100
0001
0000
0001
0000
0000
,  // measure 35
2002
3003
1000
0100
0000
0100
0000
0000
,  // measure 36
0020
0100
1000
0001
,  // measure 37
0100
0000
0000
0000
0031
0000
0000
0000
0010
0100
0010
0100
0010
0000
0000
0000
,  // measure 38
0110
0000
0100
2000
3010
2000
3010
0000
,  // measure 39
1000
0000
0001
0010
0000
0110
0100
1000
,  // measure 40
0001
0000
0100
0001
0000
0001
0010
0000
,  // measure 41
0100
0000
0010
0001
0000
1000
0001
0000
,  // measure 42
0100
0000
0100
0002
0013
0002
0013
0000
,  // measure 43
0010
0000
0100
1000
0000
1001
0001
0100
,  // measure 44
0010
0000
0010
1000
0000
1000
0001
0000
,  // measure 45
1000
1100
0000
0100
0010
0001
0100
0000
,  // measure 46
0110
0000
0010
2000
3100
2000
3100
0000
,  // measure 47
1000
0000
0101
0110
0000
0110
0020
0000
,  // measure 48
1000
0100
0001
0130
,  // measure 49
0002
0013
0020
1030
,  // measure 50
1001
0000
0010
0002
0103
0002
0103
0000
,  // measure 51
0001
1000
0100
0010
0000
0110
0010
0001
,  // measure 52
0100
0000
0110
0000
0010
1000
0010
0100
,  // measure 53
0000
0100
0001
0010
0000
0100
0010
0001
,  // measure 54
0101
0000
0000
1010
0000
0000
1001
0000
,  // measure 55
0000
0011
0000
0000
1000
0101
0000
0101
,  // measure 56
0110
0000
0000
1010
0000
0000
1001
0000
,  // measure 57
1000
0001
1000
0000
0001
1000
0001
0000
1000
0001
0000
0001
1000
0000
0000
0000
,  // measure 58
0220
0000
0000
0000
,  // measure 59
0330
0000
0000
0000
;

//---------------dance-single - ----------------
#NOTES:
     dance-single:
     :
     Beginner:
     1:
     0.079460,0.113195,0.029275,0.029275,0.000000,51.000000,3.000000,3.000000,0.000000,0.000000,0.000000,0.079460,0.113195,0.029275,0.029275,0.000000,51.000000,3.000000,3.000000,0.000000,0.000000,0.000000:
0000
0000
0000
0000
,
0000
0000
0000
0000
,
0000
0000
0000
0000
,
0000
0000
0000
0000
,
0000
0000
0000
0000
,
0000
0000
0000
0000
,
0020
0000
0000
0000
,
0000
0000
0030
0000
,
0010
0000
0000
0000
,
0010
0000
0000
0000
,
1000
0000
0000
0000
,
1000
0000
0000
0000
,
0001
0000
0000
0000
,
0001
0000
0000
0000
,
0010
0000
0000
0000
,
0010
0000
0000
0000
,
0100
0000
0000
0000
,
0100
0000
0000
0000
,
1000
0000
0000
0000
,
1000
0000
0000
0000
,
0010
0000
0000
0000
,
0010
0000
0000
0000
,
0100
0000
0000
0000
,
0100
0000
0000
0000
,
0001
0000
0000
0000
,
0001
0000
0000
0000
,
1000
0000
0000
0000
,
1000
0000
0000
0000
,
1001
0000
0000
0000
,
0100
0000
0000
0000
,
0010
0000
0000
0000
,
0001
0000
0000
0000
,
1000
0000
0000
0000
,
0010
0000
0000
0000
,
0100
0000
0000
0000
,
0001
0000
0000
0000
,
2002
0000
0000
0000
,
0000
0000
3003
0000
,
0010
0000
0000
0000
,
0010
0000
0000
0000
,
0001
0000
0000
0000
,
0001
0000
0000
0000
,
1000
0000
0000
0000
,
1000
0000
0000
0000
,
0010
0000
0000
0000
,
0010
0000
0000
0000
,
0100
0000
0000
0000
,
0100
0000
0000
0000
,
0001
0000
0000
0000
,
0001
0000
0000
0000
,
0010
0000
0000
0000
,
0010
0000
0000
0000
,
0100
0000
0000
0000
,
0100
0000
0000
0000
,
1000
0000
0000
0000
,
0010
0000
0000
0000
,
0100
0000
0000
0000
,
0001
0000
0000
0000
,
1001
0000
0000
0000
;

//---------------dance-single - ----------------
#NOTES:
     dance-single:
     :
     Medium:
     7:
     0.358265,0.345440,0.058549,0.039033,0.000000,247.000000,6.000000,4.000000,0.000000,0.000000,0.000000,0.358265,0.345440,0.058549,0.039033,0.000000,247.000000,6.000000,4.000000,0.000000,0.000000,0.000000:
0000
0000
0000
0000
,
0000
0000
0000
0000
,
0000
0000
0000
0000
,
0000
0000
0000
0000
,
1000
0000
0000
1000
0000
0000
0001
0000
,
0000
0001
0000
0000
1000
0000
0001
0000
,
2002
0000
0000
0000
,
0000
0000
3003
0000
,
1000
0100
1000
0010
,
0100
0001
0010
0100
,
1000
0010
0100
0001
,
0100
0000
0010
0000
1000
0001
1000
0000
,
0100
0010
0100
0010
,
0001
1000
0001
1000
,
0010
0100
0001
0010
,
0100
0000
1000
0001
0000
0001
1000
0000
,
0010
0100
0001
0010
,
0100
0001
1000
0010
,
0001
1000
0010
0001
,
1000
0000
0100
0001
0000
0001
0100
0000
,
0010
1000
0100
0001
,
1000
0010
0100
1000
,
0001
0100
0010
0100
,
0001
0000
0010
0100
0000
0100
0010
0000
,
0001
0100
1000
0100
,
0010
1000
0001
0010
,
1000
0001
0100
0010
,
0100
0000
1000
0001
0000
0001
0100
0000
,
0010
0000
1000
0100
0000
0100
1000
0000
,
0001
0000
0100
0010
0000
0010
0100
0000
,
0001
0000
0010
1000
0000
1000
0010
0000
,
0100
0000
1000
0001
0000
0001
0100
0000
,
0010
0000
1000
0100
0000
0100
0001
0000
,
1000
0000
0010
0001
0000
0001
1000
0000
,
0010
0000
0001
1000
0000
1000
0100
0000
,
0001
0000
0010
0100
0000
0100
1000
0000
,
0001
0000
1000
0000
0001
0100
1000
0000
,
0100
0000
0001
0010
1000
0010
0001
0000
,
1001
0000
0100
0010
0100
0010
0100
0000
,
1000
0010
0100
0001
,
0010
0000
0100
1000
0000
1000
0001
0000
,
0100
0000
0010
0100
0000
0100
0001
0000
,
0011
0000
0010
0100
0010
0100
0010
0000
,
0100
0000
1000
0010
0000
0010
0100
0000
,
0001
0000
1000
0100
0000
0100
0010
0000
,
0001
0000
1000
0010
0000
0010
0100
0000
,
0101
0000
0001
1000
0100
1000
0001
0000
,
0100
0000
0010
1000
0000
1000
0100
0000
,
0010
0000
1000
0010
0000
0010
0001
0000
,
1000
0000
0010
0100
0000
0100
0001
0000
,
1001
0000
0100
0010
0001
0010
0001
0000
,
1000
0000
0010
0100
0000
0100
0001
0000
,
0010
0000
1000
0001
0000
0001
0100
0000
,
1000
0000
0010
0100
0000
0100
0010
0000
,
1000
0000
0100
0000
0010
0001
1000
0000
,
0010
0000
0100
0000
0001
1000
0100
0000
,
0010
0000
0001
0000
0100
0010
1000
0000
,
0001
0000
0010
0000
0100
1000
0001
0000
,
2002
0000
0000
0000
,
3003
0000
0000
0000
;
