#VERSION:0.81;
#TITLE:Again;
#SUBTITLE:;
#ARTIST:SimGretina feat. EileMonty;
#TITLETRANSLIT:;
#SUBTITLETRANSLIT:;
#ARTISTTRANSLIT:;
#GENRE:Pop;
#ORIGIN:;
#CREDIT:;
#BANNER:Again.png;
#BACKGROUND:Again-bg.png;
#PREVIEWVID:;
#JACKET:Again-jacket.png;
#CDIMAGE:;
#DISCIMAGE:;
#LYRICSPATH:;
#CDTITLE:;
#MUSIC:Again.mp3;
#OFFSET:0.000000;
#SAMPLESTART:52.520000;
#SAMPLELENGTH:15.000000;
#SELECTABLE:YES;
#BPMS:0.000=128.000;
#STOPS:;
#DELAYS:;
#WARPS:;
#TIMESIGNATURES:0.000=4=4;
#TICKCOUNTS:0.000=4;
#COMBOS:0.000=1;
#SPEEDS:0.000=1.000=0.000=0;
#SCROLLS:0.000=1.000;
#FAKES:;
#LABELS:0.000=Song Start;
#BGCHANGES:0.000=animation.avi=0.500=1=0=0=StretchNoLoop==CrossFade==,
99999=-nosongbg-=1.000=0=0=0 // don't automatically add -songbackground-
;
#KEYSOUNDS:;
#ATTACKS:
;

//---------------dance-single - ----------------
#NOTEDATA:;
#CHARTNAME:;
#STEPSTYPE:dance-single;
#DESCRIPTION:;
#CHARTSTYLE:;
#DIFFICULTY:Easy;
#METER:5;
#RADARVALUES:0.223908,0.208980,0.056995,0.113989,0.000000,147.000000,6.000000,12.000000,0.000000,0.000000,0.000000,0.000000,0.000000,0.223908,0.208980,0.056995,0.113989,0.000000,147.000000,6.000000,12.000000,0.000000,0.000000,0.000000,0.000000,0.000000;
#CREDIT:;
#NOTES:
// measure 0
0000
0000
0000
0000
,  // measure 1
0000
0000
0000
0000
,  // measure 2
0000
0000
0000
0000
,  // measure 3
0000
0001
1000
0010
,  // measure 4
0100
0000
0000
0000
,  // measure 5
0001
0010
0001
0100
,  // measure 6
1000
0000
0000
0000
,  // measure 7
0100
0010
1000
0001
,  // measure 8
0010
0000
0000
0000
,  // measure 9
1000
0010
1000
0100
,  // measure 10
0001
0000
0000
0100
,  // measure 11
0110
0000
0000
0100
,  // measure 12
2000
0000
0000
3002
,  // measure 13
0000
0100
0100
0103
,  // measure 14
0200
0000
0000
0320
,  // measure 15
0000
1000
1000
1030
,  // measure 16
2000
0000
0000
3002
,  // measure 17
0000
0010
0010
0013
,  // measure 18
0020
0000
0000
0230
,  // measure 19
0000
1000
1000
1300
,  // measure 20
0000
0100
1000
0100
,  // measure 21
1000
0001
1000
0000
,  // measure 22
0001
0100
0010
1000
,  // measure 23
0001
0010
0001
0000
,  // measure 24
0010
0100
0010
0100
,  // measure 25
1000
0001
0100
0000
,  // measure 26
0010
1000
0001
0010
,  // measure 27
0100
0010
0001
0100
,  // measure 28
1000
0100
0001
0100
,  // measure 29
0001
0010
1000
0010
,  // measure 30
0100
0100
0010
0010
,  // measure 31
0001
0010
0100
1000
,  // measure 32
0000
0000
0001
0000
0000
1000
0000
0001
,  // measure 33
0000
0010
0100
1000
,  // measure 34
0020
0000
0000
0000
,  // measure 35
0230
0000
0001
0001
,  // measure 36
0301
0000
0001
0001
,  // measure 37
1000
0000
0100
0100
,  // measure 38
0010
0000
0110
0000
,  // measure 39
0001
0100
1000
0000
,  // measure 40
0100
0000
0110
0000
,  // measure 41
0010
1000
0001
0010
,  // measure 42
0200
0000
2300
0000
,  // measure 43
3001
1000
0010
1000
,  // measure 44
0100
0000
0100
0100
,  // measure 45
0010
0000
0010
0010
,  // measure 46
0001
0000
1001
0000
,  // measure 47
1000
0010
0100
0001
,  // measure 48
1000
0000
1000
1000
,  // measure 49
0100
0000
0100
0100
,  // measure 50
0010
0000
0010
0010
,  // measure 51
0001
0000
0001
0001
,  // measure 52
0100
0000
0000
0000
,  // measure 53
0110
0000
0000
0000
,  // measure 54
0010
0000
0000
0000
,  // measure 55
1001
0000
0000
0000
;

//---------------dance-single - ----------------
#NOTEDATA:;
#CHARTNAME:;
#STEPSTYPE:dance-single;
#DESCRIPTION:;
#CHARTSTYLE:;
#DIFFICULTY:Medium;
#METER:7;
#RADARVALUES:0.335183,0.317745,0.056995,0.199481,0.000000,220.000000,6.000000,21.000000,0.000000,0.000000,0.000000,0.000000,0.000000,0.335183,0.317745,0.056995,0.199481,0.000000,220.000000,6.000000,21.000000,0.000000,0.000000,0.000000,0.000000,0.000000;
#CREDIT:;
#NOTES:
// measure 0
0000
0000
0000
0000
,  // measure 1
0000
0000
0000
0000
,  // measure 2
0000
0000
0000
0000
,  // measure 3
0000
0001
0010
0100
0000
0010
0001
0100
,  // measure 4
0001
0000
0001
0000
1000
0000
1000
0100
,  // measure 5
1000
0010
0000
0100
0000
0010
0100
0001
,  // measure 6
0010
0000
0010
0000
0100
0000
0100
1000
,  // measure 7
0001
0100
0000
0001
0000
0100
0001
0010
,  // measure 8
0100
0000
0100
0000
1000
0000
1000
0001
,  // measure 9
0100
0001
0000
0010
0000
0001
0010
0100
,  // measure 10
0010
0000
0010
0000
0001
1000
0000
1000
,  // measure 11
0010
0000
0000
0100
0000
0010
0100
0001
,  // measure 12
0020
0000
0000
0230
0000
0000
2300
0000
,  // measure 13
0000
0001
0001
3001
,  // measure 14
2000
0000
0000
3020
0000
0130
0020
0000
,  // measure 15
2030
0001
0001
3001
,  // measure 16
2000
0000
0000
3200
0000
0310
0200
0000
,  // measure 17
2300
0010
0010
3010
,  // measure 18
0020
0000
0000
0230
0000
0310
0200
0000
,  // measure 19
0302
1000
1000
1003
,  // measure 20
0000
0000
0001
0010
0100
1000
0001
0000
,  // measure 21
0100
0001
0100
0001
0000
0010
0100
0000
,  // measure 22
1000
0000
1000
0000
0001
0100
0000
0001
,  // measure 23
0000
1000
0000
0100
0000
0010
0100
0000
,  // measure 24
0000
0000
2000
0000
3001
1000
0001
0000
,  // measure 25
0010
0000
0001
0010
0000
0100
0010
0100
,  // measure 26
1000
0000
0001
1000
0010
0100
0000
0010
,  // measure 27
0000
1000
0000
0001
0000
0010
0100
0000
,  // measure 28
0000
0000
1000
0100
0010
0001
1000
0000
,  // measure 29
1000
0100
0010
0001
1000
0000
0001
1000
,  // measure 30
0001
0000
0010
0000
0100
0000
0000
0020
,  // measure 31
0000
0001
0000
0031
0000
0000
0000
0000
,  // measure 32
0000
0000
0200
0000
0000
2300
0000
3001
,  // measure 33
0000
1000
0000
0010
0000
0100
0000
0002
,  // measure 34
0000
0000
0000
0000
,  // measure 35
0000
0000
1003
0001
0000
0010
0001
0100
,  // measure 36
0010
0000
0000
0000
1000
0001
1000
0010
,  // measure 37
0000
0000
0100
0000
0010
0100
0000
0001
,  // measure 38
0000
0000
0000
1000
0000
0000
0000
0001
,  // measure 39
0010
0000
0100
0000
1000
0001
0000
0100
,  // measure 40
0000
0000
0000
0000
0010
0100
0001
1000
,  // measure 41
0000
0000
0001
0000
1000
0001
0000
0200
,  // measure 42
0000
0000
0000
0000
0000
0000
0000
0310
,  // measure 43
0100
0000
0001
1000
0000
0100
0000
0000
,  // measure 44
1100
0000
0000
0000
0100
1000
0000
0010
,  // measure 45
0000
0000
0000
0000
0100
0010
0000
1000
,  // measure 46
0000
0000
0000
0001
0000
0000
0000
1000
,  // measure 47
0010
0000
0100
0010
0000
1000
0000
0000
,  // measure 48
0001
0000
0000
0000
0010
0001
0000
0100
,  // measure 49
0000
0000
0000
0100
0001
0010
0000
0100
,  // measure 50
0000
0000
0000
0010
0000
0000
0000
0100
,  // measure 51
1000
0000
0001
1000
0000
0010
0000
0000
,  // measure 52
0100
0000
0001
0100
0001
0000
0100
0000
,  // measure 53
0110
0000
0110
0000
,  // measure 54
0010
0000
1000
0010
1000
0000
0010
0000
,  // measure 55
0110
0000
0110
1001
;

//---------------dance-single - ----------------
#NOTEDATA:;
#CHARTNAME:;
#STEPSTYPE:dance-single;
#DESCRIPTION:;
#CHARTSTYLE:;
#DIFFICULTY:Beginner;
#METER:1;
#RADARVALUES:0.070565,0.074093,0.047496,0.000000,0.000000,47.000000,5.000000,0.000000,0.000000,0.000000,0.000000,0.000000,0.000000,0.070565,0.074093,0.047496,0.000000,0.000000,47.000000,5.000000,0.000000,0.000000,0.000000,0.000000,0.000000,0.000000;
#CREDIT:;
#NOTES:
0000
0000
0000
0000
,
0000
0000
0000
0000
,
0000
0000
0000
0000
,
0000
0000
0000
0000
,
1000
0000
0000
0000
,
0010
0000
0000
0000
,
0100
0000
0000
0000
,
0001
0000
0000
0000
,
0010
0000
0000
0000
,
0100
0000
0000
0000
,
1000
0000
0000
0000
,
0001
0000
0000
0000
,
1001
0000
0000
0000
,
0000
0000
0000
0000
,
0010
0000
0000
0000
,
0000
0000
0000
0000
,
0100
0000
0000
0000
,
0000
0000
0000
0000
,
0001
0000
0000
0000
,
0000
0000
0000
0000
,
1000
0000
0000
0000
,
1000
0000
0000
0000
,
0001
0000
0000
0000
,
0001
0000
0000
0000
,
0010
0000
0000
0000
,
0100
0000
0000
0000
,
1000
0000
0000
0000
,
0001
0000
0000
0000
,
1001
0000
0000
0000
,
0010
0000
0000
0000
,
0001
0000
0000
0000
,
0100
0000
0000
0000
,
1000
0000
0000
0000
,
0010
0000
0000
0000
,
0100
0000
0000
0000
,
0001
0000
0000
0000
,
1001
0000
0000
0000
,
0100
0000
0000
0000
,
0010
0000
0010
0000
,
0010
0000
0000
0000
,
0001
0000
0000
0000
,
1000
0000
0000
0000
,
0100
0000
0100
0000
,
0100
0000
0000
0000
,
0110
0000
0000
0000
,
0001
0000
0000
0000
,
0100
0000
0000
0000
,
0010
0000
0000
0000
,
1000
0000
0000
0000
,
0001
0000
0000
0000
,
0010
0000
0000
0000
,
0100
0000
0000
0000
,
0110
0000
0000
0000
;

//---------------dance-single - ----------------
#NOTEDATA:;
#CHARTNAME:;
#STEPSTYPE:dance-single;
#DESCRIPTION:;
#CHARTSTYLE:;
#DIFFICULTY:Hard;
#METER:9;
#RADARVALUES:0.384036,0.371534,0.000000,0.189982,0.000000,263.000000,0.000000,20.000000,0.000000,0.000000,0.000000,0.000000,0.000000,0.384036,0.371534,0.000000,0.189982,0.000000,263.000000,0.000000,20.000000,0.000000,0.000000,0.000000,0.000000,0.000000;
#CREDIT:;
#NOTES:
// measure 0
0000
0000
0000
0000
,  // measure 1
0000
0000
0000
0000
,  // measure 2
0000
0000
0000
0000
,  // measure 3
0000
0010
1000
0100
0000
0100
0001
0100
,  // measure 4
1000
0000
1000
0001
0000
0001
0100
0010
,  // measure 5
1000
0001
0000
0001
0000
1000
0100
0010
,  // measure 6
0001
0000
1000
0001
0000
0001
0100
0010
,  // measure 7
1000
0100
0000
0010
0000
0001
0100
0001
,  // measure 8
0010
0000
0100
1000
0000
1000
0001
0100
,  // measure 9
0010
1000
0000
1000
0000
0001
0100
0010
,  // measure 10
0100
0000
0001
1000
0000
1000
0100
0010
,  // measure 11
0001
0000
1000
0010
0000
0010
0100
0001
,  // measure 12
2000
0000
0000
3002
0000
0000
2003
0000
,  // measure 13
0000
3010
0100
0001
,  // measure 14
0020
0000
0000
0130
0000
2000
0000
0000
,  // measure 15
0001
3000
0100
0000
0010
0000
1000
0000
,  // measure 16
0002
0000
0000
0023
0000
0100
0230
0000
,  // measure 17
0000
1300
0001
0100
,  // measure 18
2000
0000
0000
3100
0000
0002
0000
0000
,  // measure 19
0003
0100
0010
1000
,  // measure 20
0001
0000
0100
0010
0100
0001
1000
0000
,  // measure 21
0100
1000
0010
0100
0000
0100
0001
0000
,  // measure 22
0020
0000
0230
0000
1300
0001
0000
0100
,  // measure 23
0000
0010
0000
2000
0000
0000
3001
0000
,  // measure 24
0010
0000
0100
0000
1000
0001
0100
0000
,  // measure 25
0010
0000
1000
0100
0000
0100
1000
0100
,  // measure 26
1000
0000
1000
0001
0000
1000
0000
0002
,  // measure 27
0000
0203
0000
0320
0000
1000
1030
0000
,  // measure 28
0010
0000
1000
0100
1000
0001
1000
0000
,  // measure 29
0001
0010
0001
1000
0001
0000
0010
0001
,  // measure 30
0100
0000
0010
0000
1000
0000
0001
0100
,  // measure 31
0000
0100
0010
0100
0000
1000
0100
0000
,  // measure 32
0001
0000
0010
0000
0100
1000
0000
0010
,  // measure 33
0000
0001
0000
0100
0000
1000
0000
0020
,  // measure 34
0000
0100
1000
0130
,  // measure 35
0001
0000
1000
0100
0000
1000
0000
0001
,  // measure 36
0100
0000
0010
1000
0000
1000
0010
0000
,  // measure 37
0100
0000
0001
1000
0000
1000
0001
0000
,  // measure 38
0010
0000
0001
0100
0000
0100
0010
0000
,  // measure 39
1000
0000
0100
0001
0000
0001
0100
0000
,  // measure 40
0010
0000
0001
1000
0000
1000
0010
0000
,  // measure 41
0100
0000
1000
0001
0000
0001
0010
0000
,  // measure 42
0100
0000
0001
1000
0000
1000
0100
0000
,  // measure 43
0010
0000
0001
1000
0000
1000
0010
0000
,  // measure 44
0100
0000
0001
0100
0010
1000
0001
0010
,  // measure 45
0100
0000
1000
0001
0100
0010
1000
0100
,  // measure 46
0001
0000
0100
1000
0001
0100
0010
1000
,  // measure 47
0001
0000
0010
0001
0000
0001
1000
0000
,  // measure 48
0010
0000
0100
1000
0100
0001
0010
0100
,  // measure 49
1000
0000
0010
1000
0100
0001
0100
1000
,  // measure 50
0010
0000
0100
0001
0010
0100
1000
0001
,  // measure 51
0100
0000
0010
1000
0000
1000
0001
0000
,  // measure 52
0020
0000
0000
0100
,  // measure 53
0230
0000
0000
0000
,  // measure 54
2300
0000
0000
0001
,  // measure 55
3001
0000
1000
0001
0000
0001
1000
0001
;
