#TITLE:Afterlife (Aviators Remix);
#SUBTITLE:;
#ARTIST:Switchfoot;
#TITLETRANSLIT:;
#SUBTITLETRANSLIT:;
#ARTISTTRANSLIT:;
#GENRE:Hiphop;
#CREDIT:;
#BANNER:Afterlife (Aviators Remix).png;
#BACKGROUND:Afterlife (Aviators Remix)-bg.png;
#LYRICSPATH:;
#CDTITLE:;
#MUSIC:Afterlife (Aviators Remix).mp3;
#OFFSET:-0.046;
#SAMPLESTART:94.380;
#SAMPLELENGTH:15.000;
#SELECTABLE:YES;
#BPMS:0.000=110.000
;
#STOPS:
;
#BGCHANGES:-0.500=Afterlife (Aviators Remix).avi=1.000=0=0=0=StretchNoLoop====,
99999=-nosongbg-=1.000=0=0=0 // don't automatically add -songbackground-
;
#KEYSOUNDS:;
#ATTACKS:;

//---------------dance-single - Blank----------------
#NOTES:
     dance-single:
     :
     Hard:
     13:
     0.634,0.500,0.606,0.035,0.511,438.000,70.000,4.000,0.000,0.000,0.000,0.634,0.500,0.606,0.035,0.511,438.000,70.000,4.000,0.000,0.000,0.000:
1000
0100
1000
0100
1000
0100
1000
0100
0000
0000
0000
0000
0000
0000
0110
0000
,
0010
0001
0010
0001
0010
0001
0010
0001
0000
0000
0000
0000
0000
0000
0000
0000
,
1000
0010
1000
0010
1000
0010
1000
0010
0000
0000
0000
0000
0000
0000
0110
0000
,
0100
0001
0100
0001
0100
0001
0100
0001
0000
0000
0000
0000
0000
0000
0000
0000
,
0010
1000
0010
1000
0010
1000
0010
1000
0000
0000
0000
0000
0000
0000
1001
0000
,
0001
0010
0001
0010
0001
0010
0001
0010
0000
0000
0000
0000
0000
0000
0000
0000
,
0100
1000
0100
1000
0100
1000
0100
1000
0000
0000
0000
0000
0000
0000
1001
0000
,
0001
0100
0001
0100
0001
0100
0001
0100
0020
0000
0000
0000
0000
0000
0000
0000
,
1030
0010
0110
0100
0001
1000
1100
0100
,
0010
0001
0000
0001
1000
0000
1000
0010
0000
0000
0100
0000
0110
0000
1010
0000
,
1000
0000
0001
0000
0011
0000
0010
0000
0100
1000
0100
0000
0110
0000
0010
0000
,
0100
0000
1000
0001
0000
1000
0001
0000
0010
0000
0100
0010
0100
0000
0110
0000
,
0010
0000
0001
0000
0100
0001
0000
0001
0000
0000
1000
0000
1001
0000
1000
0000
,
0010
0000
1000
0000
0100
0000
0010
0100
0000
1000
0100
0000
1100
0000
1010
0000
,
0010
0000
0100
0000
0001
0000
0100
0001
0100
0000
0010
1000
0010
1000
0100
0000
,
0010
0000
0100
0000
1000
0000
0100
0010
0001
0000
1000
0001
1000
0000
0100
0000
,
0010
0000
0001
0000
1000
0001
0000
0101
0000
0000
0100
0010
0000
0010
0000
1000
,
0000
0010
0000
0100
0000
0000
0001
0000
1001
0000
1000
0000
0110
0000
0011
0000
,
1001
0000
0000
1000
0001
0000
1000
0000
0010
0000
0001
0000
1000
0000
1100
0000
,
0110
0000
0010
1000
0000
0000
0001
1000
0000
0000
0100
1000
0100
0000
0110
0000
,
1001
0000
0001
0000
0010
0001
0000
0100
0000
0000
0010
0000
0100
0000
0010
0000
,
1000
0000
0000
0100
0000
0000
0001
0000
0000
1000
0000
0010
0000
0001
0000
0100
0000
0000
0000
0000
0000
0110
0000
0000
,
1010
0000
1000
0000
0001
1000
0000
1000
0000
0000
0001
0000
1000
0010
0000
0010
,
0000
0000
0100
0010
0100
0000
0010
1000
0100
0000
0000
0010
0000
0000
0001
0000
,
1000
0000
0010
0000
0100
0000
0001
0000
1001
0000
0000
1100
0000
0000
0110
0000
,
0010
0001
0100
0010
1010
0000
1001
0101
,
0001
0100
1000
0100
0110
0000
1010
0110
,
0100
0001
0010
0001
0101
0110
0000
1010
,
1000
0001
0010
0100
0010
0010
0001
0101
,
0101
0001
1000
0100
0010
0002
0000
0000
,
1003
0000
0001
0000
1000
0010
0000
0010
0000
0000
0100
0000
0010
0000
0110
0000
,
1010
0000
1000
0000
0100
0000
0010
0100
0000
0100
0010
0000
1100
0000
0000
0000
,
1001
0000
0001
0100
0010
1000
0011
0110
,
1100
0000
1000
0100
0010
0001
1010
0110
,
0100
0000
0001
0100
0001
0000
0010
1000
0010
0000
0100
0010
0000
0001
0000
0000
,
0101
0000
0100
0010
0100
0000
0010
1000
0010
0000
1000
0001
0000
0001
0000
0000
,
1001
0000
0000
0000
1000
0000
0100
0000
0010
0000
0001
1000
0000
1010
0000
0000
,
1001
0000
0000
0000
0001
0000
0100
0000
0010
0000
1000
0001
0000
0011
0000
0000
,
0110
0000
0100
1000
0100
0000
1000
0010
1000
0000
0010
0100
0000
0001
0000
0000
,
0011
0000
0010
0100
0010
0000
0100
1000
0010
0000
0100
0001
0000
0010
0000
0000
,
0110
0000
0000
0000
0100
0000
1000
0000
0010
0000
0100
0001
0000
1100
0000
0000
,
0001
0000
0000
0000
1000
0000
0010
0000
0001
0000
1000
0100
0000
0011
0000
0000
,
0010
0000
0000
0000
1000
0000
0001
1000
0001
0000
1000
0100
0000
0010
0000
0000
,
0110
0000
0000
0000
0010
0000
0001
0100
0001
0000
0000
1000
0000
0000
0100
0000
,
0010
0000
0001
0000
0100
0000
0010
0000
1010
0000
0000
0110
0000
0000
0101
0000
,
0100
0000
0010
0100
0010
0000
1000
0000
1010
0000
0000
0000
0011
0000
0010
0100
,
0001
1000
0100
0010
0110
0000
1100
0011
,
0010
0000
0100
1000
0001
0000
0100
0000
0010
0000
1000
0000
1100
0000
0200
0000
,
0310
0010
0001
0100
0010
1000
0001
2000
,
3001
0000
1000
0000
0100
0000
0010
0000
0001
0000
0100
0000
0110
0000
0010
1000
,
0001
0000
0010
0000
0100
1000
0000
1000
0000
0000
0001
0000
1001
0000
1000
0000
,
0010
0000
0100
0000
0001
0000
0100
0001
0000
0100
0010
0000
0000
0000
0010
1000
,
0100
1000
0100
1000
0100
1000
0100
1000
0000
0000
0000
0000
0000
0000
0000
0000
;

//---------------dance-single - Blank----------------
#NOTES:
     dance-single:
     :
     Medium:
     7:
     0.408,0.360,0.095,0.095,0.030,308.000,11.000,11.000,0.000,0.000,0.000,0.408,0.360,0.095,0.095,0.030,308.000,11.000,11.000,0.000,0.000,0.000:
0010
1000
0010
1000
0000
0000
0000
0001
,
0010
0001
0010
0001
0000
0000
0000
0000
,
1000
0100
1000
0100
0000
0000
0000
1000
,
0001
0100
0001
0100
0000
0000
0000
0000
,
0001
1000
0010
1000
0000
0000
0000
0010
,
1000
0001
0010
0001
0000
0000
0000
0000
,
0001
1000
0100
1000
0000
0000
0000
0001
,
1000
0001
0100
0001
0200
0000
0000
0000
,
0310
0000
0110
0000
0010
1000
0100
0000
,
0010
0010
0001
0100
0001
1000
0100
0000
,
0010
0001
0100
0010
1010
0000
1000
0001
,
0010
0000
0000
0100
0000
0100
0000
0000
0110
0000
0000
0000
0010
0000
1001
0000
,
0100
0000
0000
0000
1000
0000
0000
0010
0000
0000
0000
0000
0100
0000
0000
0000
,
0001
0100
1000
0100
0001
0010
0100
0100
,
1000
0010
0100
0010
1000
0000
0001
0000
,
1000
0100
0010
0100
2000
0000
3001
0000
,
0011
0000
0010
0000
0100
0010
0001
1000
,
0010
0000
0100
0000
0001
1000
0010
2000
,
3001
0000
0010
0000
0100
1000
0010
0001
,
0010
0000
1000
0000
0010
1000
0001
0011
,
0110
0000
0100
0000
1000
0001
1000
0001
,
0100
0000
0010
0000
1000
0001
1000
0001
,
0010
0010
0100
0100
1000
0001
1000
0001
,
0100
0000
0100
0000
0010
0000
0010
0000
1000
0000
0000
1000
0000
0000
2000
0000
,
0000
0000
0000
0000
0000
0000
0000
0000
3001
0000
0000
0001
0000
0000
0002
0000
,
0000
0000
0000
0000
0103
0000
0100
0200
,
0000
0000
0000
0000
0310
0000
0010
0020
,
0000
0000
1030
1000
0010
1000
0001
0020
,
0000
0000
0031
0001
0010
0001
1000
0200
,
0000
0000
0310
0100
1000
0001
0000
0000
,
0101
0001
1000
0000
0100
1000
0001
1001
,
2002
0000
0000
0003
0000
3000
0110
0000
,
0010
0000
1000
0000
0001
0010
0100
0001
,
1000
0000
0010
0000
0001
0010
0100
1000
,
0010
0010
1000
0100
0001
0100
1000
0000
,
0010
0010
0001
1000
0100
1000
0001
0000
,
0010
0000
0100
0000
0010
1000
0100
1000
,
0100
0000
0010
0000
0100
1000
0100
1000
,
0100
0100
1000
0010
0001
0010
1000
0000
,
0100
0100
0001
1000
0010
1000
0001
0000
,
0100
0000
0010
0000
0001
0010
0100
1000
,
0010
0000
0100
0000
0001
0100
0010
1000
,
0001
0000
1000
0001
1000
0001
0010
0100
,
1000
0000
0000
0000
0001
0000
1000
0000
0001
0000
0000
0001
0000
0000
0001
0000
,
1000
0000
0100
0000
1000
0000
0100
0000
0010
0000
0000
0010
0000
0000
0010
0000
,
0100
1000
0010
0100
1000
0000
1000
1000
,
0100
0001
0010
0001
0100
0000
0100
0100
,
0010
1000
0001
0100
0001
0001
0010
0100
,
0010
0001
0010
1000
0010
0100
1000
0010
,
0100
0001
0010
0001
0100
0010
1000
0100
,
0010
0000
0001
0000
0010
0001
0100
0010
,
1000
0010
0001
1000
0100
0010
1000
0100
,
0001
0000
0000
0000
;

//---------------dance-single - Blank----------------
#NOTES:
     dance-single:
     :
     Easy:
     5:
     0.229,0.225,0.191,0.121,0.000,149.000,22.000,14.000,0.000,0.000,0.000,0.229,0.225,0.191,0.121,0.000,149.000,22.000,14.000,0.000,0.000,0.000:
0010
0000
0000
0000
,
0110
0000
0000
0000
,
0001
0000
0000
0000
,
1001
0000
0000
0000
,
0100
0000
0000
0000
,
0110
0000
0000
0000
,
1000
0000
0000
0000
,
1001
0000
0002
0000
,
1003
0001
1000
0010
,
0100
0100
0100
0000
,
0001
1000
0001
0010
,
0100
0100
0100
0000
,
1000
0100
0010
0001
,
1000
1000
0010
0000
,
1000
0100
0001
0100
,
1000
0010
0001
0010
,
1010
1000
0001
0000
,
0011
0001
1000
0000
,
1100
1000
0001
0000
,
0101
0001
1000
0010
,
0110
0100
0001
0000
,
0110
0100
1000
0000
,
1001
1000
0100
0001
,
1001
0001
0100
1000
,
0020
0000
0000
0000
,
0230
0000
0000
0000
,
0302
0000
0000
0000
,
2003
0000
0000
3000
,
2200
0000
0000
3300
,
0022
0000
0000
0033
,
2002
0000
0000
3003
,
0220
0000
0330
1001
,
1000
0100
1000
0002
,
1003
0001
1000
0001
,
0100
0010
1000
0100
,
0010
0001
0100
0010
,
1000
0000
0001
0001
,
0110
0000
1000
1000
,
0010
0001
1000
0100
,
0001
1000
0100
0001
,
1000
0000
0010
0010
,
1001
0000
0100
0100
,
1001
0000
0001
0001
,
0110
0000
1000
1000
,
0010
1000
0001
0100
,
0010
1000
0001
0010
,
0001
0010
0100
1000
,
0001
1000
0100
0010
,
0100
0100
1000
0010
,
0100
0100
0001
0010
,
0100
1000
0010
0100
,
0001
0010
0100
1000
,
1001
0000
0000
0000
;

//---------------dance-single - ----------------
#NOTES:
     dance-single:
     :
     Beginner:
     3:
     0.111,0.135,0.061,0.026,0.000,80.000,7.000,3.000,0.000,0.000,0.000,0.111,0.135,0.061,0.026,0.000,80.000,7.000,3.000,0.000,0.000,0.000: // measure 0
0000
0000
0000
0000
,  // measure 1
0000
0000
0000
0000
,  // measure 2
0000
0000
0000
0000
,  // measure 3
0000
0000
0000
0000
,  // measure 4
0000
0000
0000
0000
,  // measure 5
0000
0000
0000
0000
,  // measure 6
0000
0000
0000
0000
,  // measure 7
0000
0000
2000
0000
,  // measure 8
0000
3001
0000
0001
,  // measure 9
0000
0001
0000
0001
,  // measure 10
0000
1000
0000
1000
,  // measure 11
0000
1000
0000
1000
,  // measure 12
0000
0100
0000
0100
,  // measure 13
0000
0100
0000
0100
,  // measure 14
0000
0010
0000
0010
,  // measure 15
0000
0010
0000
0010
,  // measure 16
0001
0000
0000
0000
,  // measure 17
1000
0000
0000
0000
,  // measure 18
0010
0000
0000
0000
,  // measure 19
0100
0000
0000
0000
,  // measure 20
0001
0000
0000
0000
,  // measure 21
1000
0000
0000
0000
,  // measure 22
0100
0000
0000
0000
,  // measure 23
0010
0000
0000
0000
,  // measure 24
0001
0001
0000
0000
,  // measure 25
1000
1000
0000
0000
,  // measure 26
0010
0010
0000
0000
,  // measure 27
0100
0100
0000
0000
,  // measure 28
0001
0001
0000
0000
,  // measure 29
0010
0010
0000
0000
,  // measure 30
0100
0100
0000
0000
,  // measure 31
0000
0000
2000
0000
,  // measure 32
3000
0000
0000
0002
,  // measure 33
0003
0000
0000
0000
,  // measure 34
0010
0000
0010
0000
,  // measure 35
0010
0000
0010
0000
,  // measure 36
0110
0000
0000
0000
,  // measure 37
0110
0000
0000
0000
,  // measure 38
0001
0000
0001
0000
,  // measure 39
0001
0000
0001
0000
,  // measure 40
1001
0000
0000
0000
,  // measure 41
1001
0000
0000
0000
,  // measure 42
0110
0000
0000
0000
,  // measure 43
0110
0000
0000
0000
,  // measure 44
0010
0010
0010
0000
,  // measure 45
1000
1000
1000
0000
,  // measure 46
0001
0001
0001
0000
,  // measure 47
0010
0010
0010
0000
,  // measure 48
0100
0100
0100
0000
,  // measure 49
1000
1000
1000
0000
,  // measure 50
0001
0001
0001
0000
,  // measure 51
0100
0100
0100
0000
,  // measure 52
0110
0000
0000
0000
;
