#TITLE:yellow head joe;
#SUBTITLE:;
#ARTIST:S-C-U;
#TITLETRANSLIT:;
#SUBTITLETRANSLIT:;
#ARTISTTRANSLIT:;
#GENRE:Happy Hardcore;
#CREDIT:;
#BANNER:yellow head joe.png;
#BACKGROUND:yellow head joe-bg.png;
#LYRICSPATH:;
#CDTITLE:;
#MUSIC:yellow head joe.mp3;
#OFFSET:-11.252;
#SAMPLESTART:51.800;
#SAMPLELENGTH:15.000;
#SELECTABLE:YES;
#BPMS:0.000=187.000
;
#STOPS:
;
#BGCHANGES:;
#KEYSOUNDS:;
#ATTACKS:;

//---------------dance-single - ----------------
#NOTES:
     dance-single:
     :
     Challenge:
     15:
     0.760,0.712,0.203,0.061,0.451,499.000,20.000,6.000,0.000,0.000,0.000,0.760,0.712,0.203,0.061,0.451,499.000,20.000,6.000,0.000,0.000,0.000:
0010
0100
0010
0100
0001
1000
0001
1000
,
0001
0010
0100
1000
0100
0010
0001
1000
,
0010
1000
0010
1000
0001
0100
0001
0100
,
0001
0010
0100
0010
0001
0100
0010
0100
,
0001
0010
0001
0010
0100
1000
0100
1000
,
0001
0100
0010
1000
0001
0010
0100
1000
,
0010
1000
0010
1000
0001
1000
0001
1000
,
0001
0100
0001
0100
0001
0010
0100
1000
,
0001
1000
0001
1000
0001
0100
0001
0100
,
0010
0100
0010
0100
0010
1000
0001
0010
,
0100
1000
0100
1000
0001
1000
0001
1000
,
0001
0010
0001
0010
0001
0100
0010
1000
,
0001
0010
0001
0010
0100
1000
0100
1000
,
0001
0100
0001
0100
0010
1000
0001
0010
,
0200
0000
0000
0000
,
0320
0000
0000
0000
,
0031
0100
1000
0100
0001
0010
0100
0010
,
0001
1000
0010
0100
0001
0010
0100
1000
,
0010
0100
0001
0100
0000
0010
1000
0001
,
0010
0100
0000
0100
1000
0010
0100
0001
,
0010
1000
0010
0001
0100
1000
0100
0001
,
0010
0100
1000
0001
0100
0010
1000
0001
,
0010
0000
0000
0100
0000
0000
1000
0000
0001
0000
0000
0010
0000
0000
0100
0000
,
0001
0000
0000
0100
0000
0000
1000
0000
0001
0000
0100
0000
0010
0000
0000
0000
,
0100
0001
0010
0100
0001
0100
1000
0001
,
0100
1000
0100
0010
1000
0001
0010
0100
,
1000
0010
0100
0001
0000
0001
1000
0100
,
0010
0001
0000
0001
0010
0100
1000
0001
,
0100
0001
0010
0100
1000
0001
0100
0010
,
0100
0001
0010
0100
1000
0001
0100
0010
,
1010
1001
0000
0101
0000
0011
0000
1100
,
0000
1010
2002
0000
0000
0000
3003
0000
,
0010
0000
1000
0100
0000
1000
0100
0000
0010
0000
0001
0000
0100
0000
0010
0000
,
1000
0000
0001
0100
0000
0001
0100
0000
0000
0000
0010
0000
1000
0000
0100
0000
,
0010
0000
0001
0010
0000
0001
0010
0000
0100
0000
1000
0000
0010
0000
0100
0001
,
0010
0001
0100
0010
1000
0001
0010
0100
1000
0000
0010
0000
0100
0000
0001
0000
,
0010
0000
0001
0100
0000
1000
0100
0000
0001
0000
0010
0000
0100
0000
1000
0000
,
0010
0000
0100
0001
0000
0100
0001
0000
0000
0000
0100
0000
0010
0000
1000
0000
,
0001
0000
0010
0001
0000
0000
1000
0000
0100
1000
0000
0000
0010
0000
0100
0001
,
0000
0000
0010
0000
0100
1000
0000
0000
0010
0000
0100
0000
0001
0000
0010
0000
,
0100
0000
1000
0001
0000
0100
0010
0000
1000
0000
0100
0000
0010
0000
0001
0000
,
0100
0000
0010
1000
0000
0001
0010
0000
0000
0000
0100
0000
0010
0000
0001
0000
,
0100
0000
0010
1000
0000
0001
0100
0000
0010
0000
1000
0000
0100
0000
1000
0010
,
0100
0001
1000
0100
0010
0001
1000
0010
0100
0000
0001
0000
0010
0000
0100
0000
,
1000
0000
0010
0100
0000
0001
0100
0000
0010
0000
1000
0000
0100
0000
0001
0000
,
0100
0000
1000
0010
0000
0100
0001
0000
0000
0000
0010
0000
0100
0000
1000
0000
,
0010
0000
0000
0101
0000
0000
0010
0000
0000
1100
0000
0000
0001
0000
0000
0220
,
0000
0000
0000
0330
,
1000
0001
0000
0000
1000
0000
0000
0010
0000
0000
0100
0000
0000
0001
0000
0000
,
0010
0000
0000
0001
0000
0000
0100
0000
0000
1000
0000
0100
0001
0000
0010
0000
,
0100
1000
0000
0000
0010
0000
0000
0100
0000
0000
0001
0000
0000
0010
0000
0000
,
0100
0000
0000
1000
0000
0000
0010
0000
0000
0100
0000
0001
0100
0000
0010
0000
,
1000
0100
0000
1000
0100
0000
0010
0001
0000
0010
0001
0000
0100
0010
0000
0100
,
0010
0000
1000
0010
0000
1000
0010
0000
0100
0001
0000
0100
0001
0000
0100
0000
,
0010
1000
0000
0001
0100
0000
0010
0100
0000
0001
0010
0000
0100
1000
0000
0010
,
0100
0000
0001
0010
0000
0100
0010
0000
0001
0100
0000
0010
1000
0000
0100
0000
,
0010
0000
0001
1000
0001
0000
0100
0000
0010
1000
0010
0000
1000
0000
0100
0001
,
0100
0000
1000
0000
0001
1000
0001
0000
0100
0000
0010
0000
1000
0000
0001
0000
,
0010
0000
0100
0001
0100
0000
0010
0000
0001
0100
0001
0000
1000
0000
0010
0100
,
0010
0000
1000
0000
0001
0010
0001
0000
0010
0000
0100
0000
1000
0000
0001
0000
,
0100
0000
0010
0000
1000
0100
1000
0000
0010
0000
0100
0000
0001
1000
0001
0000
,
0100
0000
0010
0000
1000
0010
1000
0000
0001
0000
0010
0000
0100
0001
0100
0000
,
1000
0001
0000
0000
0101
0000
0000
1100
0000
0000
0101
0000
0000
0011
0000
0000
,
1100
0000
0000
1010
0000
0000
0110
0000
0000
0101
0000
0000
0011
0000
1001
0000
;

//---------------dance-single - ----------------
#NOTES:
     dance-single:
     :
     Hard:
     12:
     0.569,0.550,0.111,0.041,0.132,378.000,11.000,4.000,0.000,0.000,0.000,0.569,0.550,0.111,0.041,0.132,378.000,11.000,4.000,0.000,0.000,0.000:
0010
1000
0100
0000
0010
0001
0100
0000
,
0001
0010
0100
1000
0100
0010
0001
0000
,
0100
0010
0100
0000
0001
0010
0100
0000
,
1000
0001
0100
0010
0100
0001
0010
0000
,
0100
1000
0001
0000
0100
0010
0100
0000
,
0001
0010
0100
0001
0100
1000
0001
0000
,
0100
0010
0100
0000
0001
0010
0100
0000
,
1000
0010
0100
0001
0100
0010
1000
0000
,
0010
1000
0100
0000
0010
0001
0100
0000
,
0010
0100
0001
0100
0010
1000
0001
0000
,
0010
0100
1000
0000
0100
0010
0001
0000
,
0100
0010
0100
0001
1000
0100
0010
0000
,
0100
1000
0001
0000
0100
0010
1000
0000
,
0001
0010
0100
1000
0100
0010
0001
0000
,
2000
0000
0000
0000
,
3002
0000
0000
0000
,
1003
0010
0100
0001
1000
0010
0100
0001
,
1000
0100
0010
0001
1000
0100
0010
0001
,
1000
0010
0100
0001
,
0100
0000
0010
0000
1000
0001
0010
0000
,
0001
0100
0010
0100
0001
0010
0100
0010
,
0001
0100
0010
0100
0001
0010
0100
0001
,
0100
0010
0001
0000
0100
0010
0100
0000
,
0001
0010
0100
1000
,
0001
0100
1000
0000
1000
0100
0001
0000
,
0001
1000
0100
0010
0100
1000
0001
0000
,
0100
0010
0100
0000
0001
0000
0010
0000
,
0100
1000
0100
0000
0010
0001
0100
0000
,
0010
0100
0001
0000
1000
0100
0010
0000
,
0100
1000
0001
0000
0100
0010
1000
0000
,
0001
0001
0000
0100
0000
0010
0000
1000
,
0000
0001
0020
0000
0000
0000
0000
0000
,
0031
0000
0000
0100
0000
0000
1000
0000
0000
0000
0100
0000
0010
0000
1000
0000
,
0001
0000
0000
0010
0000
0000
0100
0000
0000
0000
1000
0000
0100
0000
0010
0000
,
0001
0000
0000
1000
0000
0000
0010
0000
0000
0000
0100
0000
0001
0000
0100
0000
,
0010
1000
0100
0010
0100
1000
0001
0100
,
0010
0000
0000
1000
0000
0000
0001
0000
0000
0000
0010
0000
0100
0000
1000
0000
,
0100
0000
0000
0010
0000
0000
0001
0000
0000
0000
1000
0000
0010
0000
0100
0000
,
0001
0000
0000
0100
0000
0000
0010
0000
0000
1000
0000
0000
0001
0000
0000
0010
,
0000
0000
0100
0000
0000
1000
0000
0000
0001
0000
0100
0000
0010
0000
0100
0000
,
0001
0000
0000
0100
0000
0000
0101
0000
0000
0000
0100
0000
0010
0000
1000
0000
,
0100
0000
0000
1000
0000
0000
1010
0000
0000
0000
0010
0000
0100
0000
0001
0000
,
0010
0000
0000
0001
0000
0000
0011
0000
0000
0000
0001
0000
0100
0000
0010
0000
,
1000
0000
0000
1000
0100
0000
0000
0100
0010
0000
0000
0010
0001
0000
0000
0001
,
0100
0000
0000
0010
0000
0000
0110
0000
0000
0000
0010
0000
1000
0000
0001
0000
,
0010
0000
0000
0100
0000
0000
1100
0000
0000
0000
1000
0000
0001
0000
0100
0000
,
0010
0000
0000
0100
0000
0000
0001
0000
0000
0010
0000
0000
0100
0000
0000
2000
,
0000
0000
0000
0000
,
3001
0100
0010
0100
,
0001
0010
0100
0000
1000
0001
0100
0000
,
0010
1000
0010
0100
,
0001
0010
0100
0000
0010
0001
0100
0000
,
0010
1000
0100
1000
,
0001
0000
0100
0000
0010
1000
0001
0000
,
0010
0100
1000
0100
,
0010
0000
0001
0000
1000
0010
0100
0000
,
0001
0100
0001
0100
0010
1000
0010
1000
,
0001
0010
0100
1000
0100
0010
0001
1000
,
0010
0100
0010
0100
0001
1000
0001
1000
,
0001
0100
0010
1000
0001
0010
0100
1000
,
0001
0010
0100
0001
0100
1000
0001
0100
,
1000
0100
0010
1000
0001
0010
0100
0010
,
0000
0001
0000
0000
0100
0000
0000
0010
0000
0000
1000
0000
0000
0001
0000
0000
,
0011
0000
0000
0101
0000
0000
1100
0000
0000
1010
0000
0000
0110
0000
1001
0000
;

//---------------dance-single - ----------------
#NOTES:
     dance-single:
     :
     Medium:
     8:
     0.367,0.323,0.020,0.041,0.030,248.000,2.000,4.000,0.000,0.000,0.000,0.367,0.323,0.020,0.041,0.030,248.000,2.000,4.000,0.000,0.000,0.000:
1000
0010
0100
0001
,
0100
0000
0010
0000
1000
0001
0010
0000
,
0100
0010
0001
1000
,
0010
0000
0100
0000
0001
1000
0100
0000
,
0010
0100
1000
0000
,
0001
0000
0100
0000
0010
0100
0001
0000
,
0010
0100
1000
0000
,
0001
0000
0100
0000
0010
1000
0001
0000
,
0010
0010
0100
0100
,
1000
1000
0001
0001
,
0100
0010
0100
0001
,
0010
0000
0100
0000
1000
0001
0100
0000
,
0010
1000
0100
1000
,
0010
0100
0001
0100
,
0020
0000
0000
0000
,
0230
0000
0000
0000
,
0301
0000
0000
0001
0010
0000
0000
0010
,
0100
1000
0001
0100
,
0010
1000
0100
0100
,
1000
0010
0100
0001
,
1000
0000
0000
1000
0100
0000
0000
0100
,
0010
0001
0100
0010
,
0100
0001
0010
0100
,
1000
0001
0100
0010
,
1000
0000
0000
1000
0001
0000
0000
0001
,
0010
0000
0000
0001
0010
0000
0100
0000
,
1000
0001
0100
0010
,
1000
0100
0010
0100
,
1000
0000
0000
1000
0001
0000
0000
0001
,
0100
0100
0010
1000
,
0001
0000
0000
0010
0000
0001
0000
0100
,
0000
1000
1000
0000
0000
0000
0000
0000
,
0100
0000
0010
0000
1000
0001
0010
0000
,
0100
0000
1000
0000
0100
0010
0001
0000
,
1000
0000
0010
0000
0100
0001
0100
0000
,
0010
0010
0010
0010
,
0010
0000
1000
0000
0100
1000
0001
0000
,
0100
0000
0010
0000
1000
0001
0010
0000
,
0100
0000
1000
0000
0100
0010
0001
0000
,
1000
0000
0001
0000
,
1000
0000
0010
0000
0100
0001
0100
0000
,
0010
0000
1000
0000
0001
0010
0100
0000
,
1000
0000
0010
0000
0100
0001
1000
0000
,
0100
0100
0100
0100
,
1000
0000
0010
0000
0100
0001
0010
0000
,
0100
0000
0010
0000
0001
1000
0010
0000
,
0200
0000
0000
0000
0000
0000
0000
0000
0000
0000
0000
0000
0000
0000
0000
0020
,
0000
0000
0000
0330
,
0010
0000
1000
0000
,
0100
1000
0001
0001
,
0100
0000
0010
0000
,
1000
0001
0010
0010
,
0100
0000
0001
0000
,
0100
0100
1000
1000
,
0010
0000
0100
0000
,
0001
0010
0100
1000
,
0001
0000
0100
0000
0010
1000
0100
0000
,
1000
0010
0100
0100
,
0001
0000
0010
0100
0000
0001
0100
0000
,
0010
0001
1000
1000
,
0010
0000
0100
0000
0001
1000
0100
0000
,
1000
0000
0010
0000
0100
0001
0010
0000
,
0000
0001
0000
0000
0000
0000
0000
0100
0000
0000
0000
0000
0000
0010
0000
0000
,
0000
0000
0000
1000
0000
0000
0000
0000
0000
1001
0000
0000
0000
0000
1001
0000
;

//---------------dance-single - ----------------
#NOTES:
     dance-single:
     :
     Easy:
     6:
     0.294,0.259,0.000,0.030,0.000,200.000,0.000,3.000,0.000,0.000,0.000,0.294,0.259,0.000,0.030,0.000,200.000,0.000,3.000,0.000,0.000,0.000:
1000
0000
1000
0000
,
0010
0010
0100
0100
,
0001
0000
0001
0000
,
0010
0010
0100
0100
,
1000
0000
1000
0000
,
0001
0001
0100
0100
,
0010
0000
0010
0000
,
1000
1000
0100
0100
,
1000
0010
0100
0000
,
0001
0000
0010
0000
,
0100
0010
0001
0000
,
1000
0000
0010
0000
,
0100
0001
1000
0000
,
0100
0000
1000
0000
,
0010
0000
0000
0000
,
0100
0000
0000
0000
,
0001
0100
0001
0100
,
0001
0010
0100
0001
,
0100
1000
0010
0100
,
0001
0010
0100
1000
,
0010
1000
0010
1000
,
0010
0100
0001
0010
,
0100
1000
0001
0100
,
1000
0100
0001
0010
,
0100
0010
0100
0010
,
0100
0010
0001
1000
,
0010
0100
0001
1000
,
0100
0010
0001
1000
,
0001
1000
0001
1000
,
0001
0100
0010
1000
,
0001
0000
0000
0010
0000
0000
0100
0000
,
0000
1000
0000
0000
,
0001
0100
0001
0100
,
0010
1000
0010
1000
,
0001
1000
0001
1000
,
0001
0010
1000
0100
,
0001
0100
0001
0100
,
0010
1000
0010
1000
,
0001
0010
0100
1000
,
0001
0100
0010
1000
,
0001
1000
0001
1000
,
0010
0100
0010
0100
,
0001
1000
0001
1000
,
0010
0100
0001
0010
,
0100
1000
0100
1000
,
0001
0010
0001
0010
,
0200
0000
0000
0000
,
0320
0000
0000
0000
,
0031
0000
0100
0000
,
0010
0000
1000
0000
,
0001
0000
0010
0000
,
0100
0000
1000
0000
,
0001
0000
0100
0000
,
0010
0000
1000
0000
,
0100
0000
1000
0000
,
0010
0000
0100
0000
,
0001
0001
0100
0100
,
0010
0010
1000
1000
,
0001
0001
0010
0010
,
0100
0100
1000
1000
,
0001
0100
1000
0100
,
0001
0010
1000
0010
,
0002
0000
0000
0000
,
0000
0000
0000
0000
0000
0000
0000
0003
;

//---------------dance-single - ----------------
#NOTES:
     dance-single:
     :
     Beginner:
     3:
     0.136,0.160,0.020,0.030,0.000,89.000,2.000,3.000,0.000,0.000,0.000,0.136,0.160,0.020,0.030,0.000,89.000,2.000,3.000,0.000,0.000,0.000:
1000
0000
1000
0000
,
1000
0000
0000
0000
,
0001
0000
0001
0000
,
0001
0000
0000
0000
,
0100
0000
0100
0000
,
0100
0000
0000
0000
,
0010
0000
0010
0000
,
0010
0000
0000
0000
,
1000
0000
0001
0000
,
1000
0000
0000
0000
,
0100
0000
0010
0000
,
0100
0000
0000
0000
,
0001
0000
0000
0000
,
0010
0000
0000
0000
,
0100
0000
0000
0000
,
0000
0000
0000
0000
,
1000
0000
1000
0000
,
1000
0000
0000
0000
,
0010
0000
0000
0000
,
0010
0000
0000
0000
,
0100
0000
0100
0000
,
0100
0000
0000
0000
,
0001
0000
0000
0000
,
0001
0000
0000
0000
,
0010
0000
0010
0000
,
0010
0000
0000
0000
,
0100
0000
0000
0000
,
0100
0000
0000
0000
,
1000
0000
1000
0000
,
1000
0000
0000
0000
,
0001
0000
0000
0000
,
0000
0000
0000
0000
,
0001
0000
0001
0000
,
0001
0001
0001
0000
,
1000
0000
1000
0000
,
2000
0000
3000
0000
,
0010
0000
0010
0000
,
0010
0010
0010
0000
,
0100
0000
0000
0100
,
0000
0000
0100
0000
,
0001
0000
0001
0000
,
0001
0001
0001
0000
,
0010
0000
0010
0000
,
0020
0000
0030
0000
,
0100
0000
0100
0000
,
0100
0100
0100
0000
,
2000
0000
0000
0000
,
3000
0000
0000
0000
,
1000
0000
0000
0000
,
0010
0000
0000
0000
,
0100
0000
0000
0000
,
0001
0000
0000
0000
,
0010
0000
0000
0000
,
0100
0000
0000
0000
,
0001
0000
0000
0000
,
0100
0000
0000
0000
,
1000
0000
1000
0000
,
1000
0000
0000
0000
,
0010
0000
0010
0000
,
0010
0000
0000
0000
,
0100
0000
0100
0000
,
0100
0000
0000
0000
,
1001
0000
0000
0000
,
1001
0000
0000
0000
;

//---------------dance-double - ----------------
#NOTES:
     dance-double:
     :
     Easy:
     7:
     0.353,0.356,0.051,0.122,0.025,227.000,5.000,12.000,0.000,3.000,0.000,0.353,0.356,0.051,0.122,0.025,227.000,5.000,12.000,0.000,3.000,0.000: // measure 0
00100000
00100000
01000000
01000000
,  // measure 1
10000000
00010000
01000000
00001000
,  // measure 2
00010000
00010000
00000100
00000100
,  // measure 3
00000010
00000001
00000100
00001000
,  // measure 4
00010000
00010000
01000000
01000000
,  // measure 5
10000000
00010000
01000000
00010000
,  // measure 6
00100000
00001000
00010000
00000100
,  // measure 7
00010000
00001000
00000100
00000001
,  // measure 8
00000100
00000100
00000010
00000010
,  // measure 9
00000001
00001000
00000010
00010000
,  // measure 10
00001000
00001000
00100000
00100000
,  // measure 11
01000000
10000000
00100000
00010000
,  // measure 12
00001000
00001000
00000010
00000010
,  // measure 13
00000001
00001000
00000010
00001000
,  // measure 14
00000200
00000000
00000000
00000000
,  // measure 15
00020300
00000000
00000000
00030000
,  // measure 16
00101000
00100000
00000000
01000000
,  // measure 17
00000000
00100000
10000000
00010000
,  // measure 18
00100000
00001000
00000000
00010000
,  // measure 19
00000100
00000000
00000010
00000001
,  // measure 20
00001000
00000100
00000000
00010000
,  // measure 21
00000000
01000000
10000000
00010000
,  // measure 22
00100000
00100000
00001000
00001000
,  // measure 23
00000100
00000001
00001000
00000100
,  // measure 24
00010010
00000100
00000000
00000010
,  // measure 25
00000000
00000100
00000001
00001000
,  // measure 26
00000100
00010000
00000000
00001000
,  // measure 27
00100000
00000000
01000000
10000000
,  // measure 28
00010000
00100000
00000000
00001000
,  // measure 29
00000000
00000010
00000001
00001000
,  // measure 30
00000100
00010000
00000000
00001000
00000000
00010000
00000000
01000000
,  // measure 31
00000000
10000000
00010000
00000000
00000000
00000000
00000000
00000000
,  // measure 32
01000000
01000000
01000000
00010000
,  // measure 33
00100000
00100000
00100000
00001000
,  // measure 34
00000100
00000100
00000001
00000001
,  // measure 35
00001000
00000100
00001000
01000000
,  // measure 36
10000000
10000000
10000000
00100000
,  // measure 37
01000000
01000000
01000000
00001000
,  // measure 38
00010000
00010000
00000100
00000100
,  // measure 39
00000010
00000001
00000000
00001000
,  // measure 40
00000010
00000010
00000010
00001000
,  // measure 41
00000100
00000100
00000100
00010000
,  // measure 42
00100000
00100000
10000000
10000000
,  // measure 43
00010000
00100000
00010000
00000010
,  // measure 44
00000001
00000001
00000001
00000100
,  // measure 45
00000010
00000010
00000010
00010000
,  // measure 46
00001000
00001000
00001000
00010000
,  // measure 47
02000000
00000000
00000000
00000000
,  // measure 48
03120000
00000000
00000000
00000000
,  // measure 49
00030200
00000000
00000000
00000001
,  // measure 50
00000312
00000000
00000000
00001000
,  // measure 51
00002103
00000000
00000000
01003000
,  // measure 52
10000000
00010000
01000000
00100000
,  // measure 53
01000000
01000000
00001000
00001000
,  // measure 54
00010000
00000100
00000010
00000001
,  // measure 55
00001000
00000100
00010000
00001000
,  // measure 56
00000020
00000001
00000001
00000031
,  // measure 57
00002000
00000100
00000100
00003100
,  // measure 58
00200000
10000000
10000000
10300000
,  // measure 59
02000000
00010000
00010000
00010000
,  // measure 60
03002000
00010000
00000100
00013000
,  // measure 61
01000000
10000000
01000000
00100000
,  // measure 62
00000000
00001000
00000000
00000000
00010000
00000000
00000000
00001000
00000000
00000000
00001000
00000000
00000000
00100000
00000000
00000000
,  // measure 63
00001000
00000000
00000000
00010000
00000000
00000000
00001000
00000000
00000000
00000100
00000000
00000000
00000001
00000000
00001000
00000000
;

//---------------dance-double - ----------------
#NOTES:
     dance-double:
     :
     Medium:
     10:
     0.490,0.453,0.051,0.020,0.299,332.000,5.000,2.000,0.000,0.000,0.000,0.490,0.453,0.051,0.020,0.299,332.000,5.000,2.000,0.000,0.000,0.000: // measure 0
10000000
00010000
01000000
00000000
00100000
00000000
00100000
00000000
,  // measure 1
01000000
00001000
00000010
00000001
,  // measure 2
00001000
00000001
00000100
00000000
00000010
00000000
00000010
00000000
,  // measure 3
00000100
00000000
00001000
00000000
00010000
00000000
00010000
01000000
,  // measure 4
10000000
00010000
01000000
00001000
,  // measure 5
00010000
00000000
00000100
00000000
00000010
00000000
00000001
00000100
,  // measure 6
00001000
00000000
00010000
00000000
00001000
00010000
01000000
00000000
,  // measure 7
00100000
00000000
00000000
00001000
00000000
00000000
00001000
00000000
00000000
00010000
00000000
00000000
00000100
00000000
00000010
00000000
,  // measure 8
00000001
00001000
00000010
00000000
00000100
00000000
00000010
00000000
,  // measure 9
00000010
00010000
01000000
10000000
,  // measure 10
00010000
10000000
00100000
00000000
01000000
00000000
01000000
00000000
,  // measure 11
00100000
00000000
00010000
00000000
00001000
00000000
00001000
00000010
,  // measure 12
00000001
00001000
00000010
00010000
,  // measure 13
00001000
00000000
00100000
00000000
01000000
00000000
10000000
00100000
,  // measure 14
00010000
00000000
00001000
00000000
00010000
00001000
00000010
00000000
,  // measure 15
00000100
00000000
00000000
00000100
00000000
00000000
00010000
00000000
00000000
00001000
00000000
00000000
00100000
00000000
01000000
00000000
,  // measure 16
10000000
01000000
00010000
00000000
00001000
00000000
00010000
00100000
,  // measure 17
10000000
00000000
00010000
00000000
01000000
00010000
01000000
00001000
,  // measure 18
00010000
00001000
00010000
00000100
00000000
00010000
00001000
00010000
,  // measure 19
00001000
00100000
00000000
00010000
00001000
00010000
00001000
00000100
,  // measure 20
00000001
00000010
00001000
00000000
00010000
00000000
00001000
00000100
,  // measure 21
00000001
00000000
00001000
00000000
00000010
00001000
00000100
00010000
,  // measure 22
00001000
00000000
00000000
00001000
00000000
00000000
00001000
00000000
00100000
00000000
00000000
00100000
00000000
00000000
00100000
00000000
,  // measure 23
01000000
00000000
00000000
10000000
00000000
00000000
00010000
00000000
10000000
00000000
00010000
00000000
01000000
00000000
00000000
00000000
,  // measure 24
00010000
00100000
00001000
00000000
00000100
00000000
00001000
00010000
,  // measure 25
01000000
00000000
00100000
00000000
00001000
00010000
00001000
00010000
,  // measure 26
00000100
00001000
00000100
00000010
00000000
00000010
00000100
00010000
,  // measure 27
00001000
00010000
00000000
00010000
00001000
01000000
00100000
01000000
,  // measure 28
00001000
00010000
00000100
00000000
00000010
00000000
00000100
00001000
,  // measure 29
00000100
00010000
00001000
00010000
00000100
00010000
00000010
00000000
,  // measure 30
00000100
00000010
00000000
00001010
00000000
00001100
00000000
00011000
,  // measure 31
00000000
00010000
00001000
00000000
00000000
00000000
00000000
00000000
,  // measure 32
01000000
00000000
00000000
01000000
00000000
00000000
01000000
00000000
00000000
00000000
00000000
00000000
00000000
00000000
00000000
00000000
,  // measure 33
00010000
00000000
00000000
00010000
00000000
00000000
00010000
00000000
00000000
00000000
00000000
00000000
00000000
00000000
00000000
00000000
,  // measure 34
00001000
00000000
00000000
00001000
00000000
00000000
00000001
00000000
00000000
00000000
00000001
00000000
00000100
00000000
00001000
00000000
,  // measure 35
00010000
00001000
00010000
00001000
00010000
00000000
00000000
00000000
,  // measure 36
00000010
00000000
00000000
00000010
00000000
00000000
00000010
00000000
00000000
00000000
00000000
00000000
00000000
00000000
00000000
00000000
,  // measure 37
00001000
00000000
00000000
00001000
00000000
00000000
00001000
00000000
00000000
00000000
00000000
00000000
00000000
00000000
00000000
00000000
,  // measure 38
00010000
00000000
00000000
00010000
00000000
00000000
10000000
00000000
00000000
10000000
00000000
00000000
01000000
00000000
00000000
01000000
,  // measure 39
00000000
00000000
00010000
00000000
00000000
00010000
00000000
00000000
00000000
00000000
00010000
00000000
00001000
00000000
00000100
00000000
,  // measure 40
00000001
00000000
00000000
00000001
00000000
00000000
00000001
00000000
00000000
00000000
00001000
00000000
00000100
00000000
00001000
00000000
,  // measure 41
00000010
00000000
00000000
00000010
00000000
00000000
00000010
00000000
00000000
00000000
00010000
00000000
00001000
00000000
00010000
00000000
,  // measure 42
00001000
00000000
00000000
00001000
00000000
00000000
00100000
00000000
00000000
00000000
00100000
00000000
01000000
00000000
10000000
00000000
,  // measure 43
00020000
00000000
01000000
00000000
00130000
00001000
00010000
00100000
,  // measure 44
10000000
00000000
00000000
10000000
00000000
00000000
10000000
00000000
00000000
00000000
00010000
00000000
00100000
00000000
00010000
00000000
,  // measure 45
01000000
00000000
00000000
01000000
00000000
00000000
01000000
00000000
00000000
00000000
00001000
00000000
00010000
00000000
00001000
00000000
,  // measure 46
00010000
00000000
00000000
00010000
00000000
00000000
00010000
00000000
00000000
00001000
00000000
00000000
00000100
00000000
00000000
00000002
,  // measure 47
00000000
00000000
00000003
00000000
,  // measure 48
00001000
00000000
00000000
00000100
00000000
00000000
00010000
00000000
00000000
00001000
00000000
00000000
00010000
00000000
00000000
00000000
,  // measure 49
00001000
00000000
00000000
00100000
00000000
00000000
00010000
00000000
00000000
01000000
00000000
00000000
01000000
00000000
00000000
00000000
,  // measure 50
00100000
00000000
00000000
01000000
00000000
00000000
00001000
00000000
00000000
00010000
00000000
00000000
00001000
00000000
00000000
00000000
,  // measure 51
00010000
00000000
00000000
00000010
00000000
00000000
00001000
00000000
00000000
00000100
00000000
00000000
00000100
00000000
00000000
00000000
,  // measure 52
00000010
00000000
00000000
00000100
00000000
00000000
00001000
00000000
00000000
01000000
00000000
00000000
10000000
00000000
00000000
00000000
,  // measure 53
10000000
00000000
00000000
00100000
00000000
00000000
00010000
00000000
00000000
00001000
00000000
00000000
00000010
00000000
00000000
00000000
,  // measure 54
00000001
00000000
00000000
00000100
00000000
00000000
00001000
00000000
00000000
00000010
00000000
00000000
00000001
00000000
00000000
00001000
,  // measure 55
00000000
00000000
00000100
00000000
00000000
00010000
00000000
00000000
00001000
00000000
00000000
00010000
00000000
00001000
00000000
00000000
,  // measure 56
00010000
00000000
00000000
00100000
00000000
00000000
00010000
00000000
00000000
00001000
00000000
00000000
00010000
00000000
00000000
00000000
,  // measure 57
00010000
00000000
00000000
00000100
00000000
00000000
00001000
00000000
00000000
00000010
00000000
00000000
00000010
00000000
00000000
00000000
,  // measure 58
00000100
00000000
00000000
00000010
00000000
00000000
00010000
00000000
00000000
00001000
00000000
00000000
00010000
00000000
00000000
00000000
,  // measure 59
00001000
00000000
00000000
01000000
00000000
00000000
00010000
00000000
00000000
00100000
00000000
00000000
00100000
00000000
00000000
00000000
,  // measure 60
01000000
00000000
00000000
00100000
00000000
00000000
00010000
00000000
00000000
00000010
00000000
00000000
00000001
00000000
00000000
00000000
,  // measure 61
00000001
00000000
00000000
00000100
00000000
00000000
00001000
00000000
00000000
00010000
00000000
00000000
01000000
00000000
00000000
00000000
,  // measure 62
00000000
10010000
00000000
00000000
00010000
00000000
00000000
01000000
00000000
00000000
00001000
00000000
00000000
00011000
00000000
00000000
,  // measure 63
00010000
00000000
00000000
00000100
00000000
00000000
00000010
00000000
00000000
00000001
00000000
00000000
00001000
00000000
01000000
00000000
;

//---------------dance-double - ----------------
#NOTES:
     dance-double:
     :
     Hard:
     14:
     0.650,0.647,0.223,0.010,0.324,426.000,22.000,1.000,0.000,0.000,0.000,0.650,0.647,0.223,0.010,0.324,426.000,22.000,1.000,0.000,0.000,0.000: // measure 0
10000000
00100000
10000000
00100000
01000000
00010000
01000000
00010000
,  // measure 1
00100000
00001000
00010000
00000100
00001000
00000010
00000100
00000001
,  // measure 2
00001000
00000100
00001000
00000100
00000010
00000001
00000010
00000001
,  // measure 3
00001000
00000100
00010000
00001000
01000000
00100000
10000000
01000000
,  // measure 4
00100000
00001000
00010000
00100000
00010000
00001000
00000010
00000001
,  // measure 5
00001000
00000100
00001000
00000001
00000100
00000001
00001000
00000100
,  // measure 6
00010000
00001000
00000100
00001000
00010000
00100000
10000000
00010000
,  // measure 7
01000000
00001000
00000100
00000001
00000010
00000100
00001000
00001000
,  // measure 8
00000001
00000100
00000001
00000100
00000010
00001000
00000010
00001000
,  // measure 9
00000100
00010000
00001000
00100000
00010000
01000000
00100000
10000000
,  // measure 10
00010000
00100000
00010000
00100000
01000000
10000000
01000000
10000000
,  // measure 11
00010000
00100000
00001000
00010000
00000010
00000100
00000001
00000010
,  // measure 12
00000100
00010000
00001000
00000100
00001000
00010000
01000000
10000000
,  // measure 13
00010000
00100000
00010000
10000000
00100000
10000000
00010000
00100000
,  // measure 14
00001000
00010000
00100000
00010000
00001000
00000100
00000010
00001000
,  // measure 15
00000010
00001000
00000001
00000010
00000001
00001000
00000100
00010000
,  // measure 16
00001000
00010000
00100000
00000000
10100000
00000000
10000000
00010000
,  // measure 17
00100000
00001000
00010000
01000000
00010000
00001000
00000100
00000001
,  // measure 18
00000010
00001000
00000010
00000001
00000000
00001000
00000010
00000001
,  // measure 19
00000010
00001000
00000000
00001000
00100000
10000000
01000000
00100000
,  // measure 20
00001000
00010000
00000100
00000000
00000101
00000000
00000001
00001000
,  // measure 21
00000100
00010000
00001000
00000010
00001000
00010000
00100000
10000000
,  // measure 22
00100000
00000000
00000000
01000000
00000000
00000000
01000000
00000000
00010000
00000000
00000000
10000000
00000000
00000000
10000000
00000000
,  // measure 23
00100000
00000000
00000000
01000000
00000000
00000000
00001000
00000000
00010000
00000000
00001000
00000000
00000100
00000000
00000000
00000000
,  // measure 24
00001001
00000100
00000010
00000000
00000110
00000000
00000010
00000100
,  // measure 25
00001000
00000010
00010000
00001000
01000000
00010000
00100000
10000000
,  // measure 26
00100000
00010000
01000000
00100000
00000000
00010000
00001000
00000010
,  // measure 27
00001000
00010000
00000000
00000100
00001000
00000100
00000001
00000100
,  // measure 28
00001000
00000010
00000100
00000000
00000101
00000000
00001100
00001000
,  // measure 29
00000010
00010000
00001000
00100000
01000000
10000000
00010000
01000000
,  // measure 30
01100000
10010000
00000000
00101000
00000000
00011000
00000000
00001010
,  // measure 31
00000000
00000011
00001100
00000000
00000000
00010000
00001000
00010000
,  // measure 32
00000100
00000000
00000000
00000100
00000000
00000000
00000100
00000000
00000000
00000000
00010000
00000000
00001000
00000000
00010000
00000000
,  // measure 33
01000000
00000000
00000000
01000000
00000000
00000000
01000000
00000000
00000000
00000000
10000000
00000000
00010000
00000000
10000000
00000000
,  // measure 34
00100000
00000000
00000000
00100000
00000000
00000000
00010000
00000000
00000000
00000000
00001000
00000000
00000010
00000000
00000001
00000000
,  // measure 35
00001000
00000100
00010000
01000000
00100000
00001000
00010000
00001000
,  // measure 36
00100000
00000000
00000000
00100000
00000000
00000000
00100000
00000000
00000000
00000000
00001000
00000000
00010000
00000000
00001000
00000000
,  // measure 37
00000010
00000000
00000000
00000010
00000000
00000000
00000010
00000000
00000000
00000000
00000001
00000000
00001000
00000000
00000010
00000000
,  // measure 38
00000100
00000000
00000000
00000100
00000000
00000000
00001000
00000000
00000000
00001000
00000000
00000000
00100000
00000000
00000000
00100000
,  // measure 39
00000000
00000000
10000000
00000000
00000000
10000000
00000000
00000000
00100000
00000000
00000000
00010000
01000000
00000000
00100000
00000000
,  // measure 40
10000000
00000000
00000000
10000000
00000000
00000000
10000000
00000000
00000000
00000000
00010000
00000000
00100000
00000000
00001000
00000000
,  // measure 41
00000010
00000000
00000000
00000010
00000000
00000000
00000010
00000000
00000000
00000000
00000100
00000000
00010000
00000000
00001000
00000000
,  // measure 42
01000000
00000000
00000000
01000000
00000000
00000000
00010000
00000000
00000000
00000000
10000000
00000000
00010000
00000000
01000000
00000000
,  // measure 43
00001000
00010000
00001000
00000100
00000001
00000010
00000100
00001000
,  // measure 44
00000001
00000000
00000000
00000001
00000000
00000000
00000001
00000000
00000000
00000000
00001000
00000000
00000100
00000000
00010000
00000000
,  // measure 45
01000000
00000000
00000000
01000000
00000000
00000000
01000000
00000000
00000000
00000000
00100000
00000000
00001000
00000000
00010000
00000000
,  // measure 46
00000010
00000000
00000000
00000010
00000000
00000000
00000010
00000000
00000000
00000100
00000000
00000000
00000001
00000000
00000000
00002000
,  // measure 47
00000000
00000000
00000000
00003000
,  // measure 48
00000100
00000000
00000000
00000100
00000000
00000000
00010000
00000000
00000000
00010000
00000000
00000000
00010000
00000000
00000000
01000000
,  // measure 49
00000000
00000000
01000000
00000000
00000000
10000000
00000000
00000000
10000000
00000000
00010000
01000000
00010000
00000000
10000000
00000000
,  // measure 50
00100000
00000000
00000000
00100000
00000000
00000000
00010000
00000000
00000000
00010000
00000000
00000000
00010000
00000000
00000000
00000100
,  // measure 51
00000000
00000000
00000100
00000000
00000000
00000001
00000000
00000000
00000001
00000000
00000000
00000100
00000000
00000000
00001000
00000100
,  // measure 52
00000010
00000000
00000000
00000010
00000000
00000000
00001000
00000000
00000000
00001000
00000000
00000000
00001000
00000000
00000000
00000000
,  // measure 53
00000100
00000000
00000000
00000100
00000000
00000000
00010000
00000000
00000000
00010000
00000000
00100000
10000000
00000000
10000000
00000000
,  // measure 54
00010000
00000000
00000000
01000000
00000000
00000000
00001000
00000000
00000000
00010000
00000000
00000000
01000000
00000000
00000000
10000000
,  // measure 55
00000000
00000000
00100000
00000000
00000000
00010000
00000000
00000000
00001000
00010000
00000000
00010000
00001000
00000000
00001000
00000000
,  // measure 56
00100000
00000000
00000000
00100000
00000000
00000000
00001000
00000000
00000000
00001000
00000000
00000000
00001000
00000000
00000000
00000010
,  // measure 57
00000000
00000000
00000010
00000000
00000000
00000001
00000000
00000000
00000001
00000000
00001000
00000010
00001000
00000000
00000001
00000000
,  // measure 58
00000100
00000000
00000000
00000100
00000000
00000000
00001000
00000000
00000000
00001000
00000000
00000000
00001000
00000000
00000000
00100000
,  // measure 59
00000000
00000000
00100000
00000000
00000000
10000000
00000000
00000000
10000000
00000000
00000000
00100000
00000000
00000000
00010000
00100000
,  // measure 60
01000000
00000000
00000000
01000000
00000000
00000000
00010000
00000000
00000000
00010000
00000000
00000000
00010000
00000000
00000000
00000000
,  // measure 61
00100000
00000000
00000000
00100000
00000000
00000000
00001000
00000000
00000000
00001000
00000000
00000100
00000001
00000000
00000001
00000000
,  // measure 62
00000000
00001100
00000000
00000000
00001010
00000000
00000000
00000110
00000000
00000000
00011000
00000000
00000000
00101000
00000000
00000000
,  // measure 63
00010100
00000000
00000000
00110000
00000000
00000000
10010000
00000000
00000000
01100000
00000000
00000000
00010000
00000000
10000000
00000000
;

//---------------dance-double - ----------------
#NOTES:
     dance-double:
     :
     Challenge:
     16:
     0.817,0.776,0.294,0.051,0.633,531.000,29.000,5.000,0.000,0.000,0.000,0.817,0.776,0.294,0.051,0.633,531.000,29.000,5.000,0.000,0.000,0.000:
10000000
00100000
01000000
00010000
01000000
00100000
00010000
00100000
,
10000000
01000000
00010000
01000000
00100000
00010000
01000000
00100000
,
01000000
00010000
10000000
01000000
00100000
00010000
01000000
00100000
,
01000000
00010000
00100000
00001000
00010000
00000100
00000010
00001000
,
00000010
00000100
00010000
00000010
00001000
00000001
00000010
00000100
,
00001000
00000010
00000100
00000001
00000100
00001000
00000100
00000010
,
00001000
00000100
00000010
00000001
00000010
00000100
00001000
00000001
,
00000010
00000100
00000001
00000100
00001000
00010000
01000000
10000000
,
01000000
00100000
10000000
01000000
00100000
00010000
01000000
00100000
,
10000000
01000000
00010000
01000000
10000000
00100000
01000000
00010000
,
00100000
01000000
10000000
00100000
01000000
00010000
00100000
00001000
,
00010000
00000100
00010000
00000010
00001000
00000100
00000010
00000100
,
00000001
00000100
00001000
00000100
00000010
00000100
00001000
00000010
,
00000001
00000010
00000100
00000001
00000010
00000100
00001000
00000010
,
00000000
00001000
00000000
00000000
00000100
00000000
00000000
00000010
00000000
00000000
00000100
00000000
00000000
00001000
00000000
00000000
,
00100000
00000000
00000000
01000000
00000000
00000000
00010000
00000000
00000000
00100000
00000000
00000000
01000000
00000000
10000000
00000000
,
00100000
01000000
00010000
01000000
00100000
10000000
01000000
10000000
,
00010000
01000000
00100000
10000000
00010000
00100000
01000000
10000000
,
00100000
01000000
00010000
00100000
00000000
00100000
00001000
00010000
,
00000100
00001000
00000000
00001000
00010100
00001000
00100000
00010000
,
00100000
00001000
00010000
00000100
00010000
00000100
00001000
00000010
,
00000100
00000001
00000010
00000100
00001000
00000010
00000100
00000001
,
00000010
00000000
00000000
00000100
00000000
00000000
00001100
00000000
00000010
00000000
00000000
00010000
00000000
00000000
00010100
00000000
,
00001000
00000000
00000000
00000100
00000000
00000000
00101000
00000000
00010000
00000000
01000000
00000000
20000000
00000000
00000000
00000000
,
31000000
00010000
00100000
01000000
10000000
00100000
00010000
00100000
,
10000000
01000000
00100000
00010000
01000000
00100000
01000000
00010000
,
00100000
01000000
10000000
00010000
00000000
00010000
01000000
00001000
,
00010000
00000100
00000000
00000100
00010000
00001000
00010000
00000100
,
00000001
00000100
00000010
00000001
00001000
00000010
00000100
00000001
,
00000100
00000010
00001000
00000100
00000001
00000100
00001000
00000010
,
00001010
00010010
00000000
00010100
00000000
00000011
00000000
00001100
,
00000000
00010100
00022000
00000000
00000000
00000000
00033000
00010000
,
00001000
00000000
01000000
00010000
00000000
01000000
00010000
00000000
01000000
00000000
00100000
00000000
00010000
00000000
00100000
00000000
,
10000000
00000000
01000000
00100000
00000000
01000000
00100000
00000000
00010000
00000000
01000000
00000000
00100000
00000000
10000000
00000000
,
01000000
00000000
00100000
00001000
00000000
00100000
00001000
00000000
00100000
00000000
00010000
00000000
01000000
00000000
00001000
00000000
,
00010000
00001000
00100000
00010000
01000000
00001000
00010000
00000100
00001000
00000010
00000100
00000001
00000010
00000000
00000100
00000000
,
00001000
00000000
00000100
00000010
00000000
00000100
00000010
00000000
00000001
00000000
00000100
00000000
00000010
00000000
00000100
00000000
,
00000001
00000000
00001000
00000100
00000000
00001000
00000100
00000000
00000010
00000000
00000001
00000000
00000100
00000000
00000010
00000000
,
00001000
00000000
00000000
00001100
00000000
00000000
00000010
00000000
00000000
00010010
00000000
00000000
00010000
00000000
00000000
00011000
,
00000000
00000000
01000000
00000000
00000000
01100000
00000000
00000000
00100000
00000000
00000000
10000000
01000000
00000000
10000000
00000000
,
00100000
00000000
01000000
00010000
00000000
10000000
01000000
00000000
00100000
00000000
00010000
00000000
01000000
00000000
00100000
00000000
,
10000000
00000000
01000000
00100000
00000000
01000000
00100000
00000000
00010000
00000000
00100000
00000000
01000000
00000000
10000000
00000000
,
00010000
00000000
01000000
00001000
00000000
00100000
00010000
00000000
00001000
00000000
00000100
00000000
00010000
00000000
00000010
00000000
,
00000100
00000001
00000100
00000010
00010000
00000010
00010000
00001000
00100000
00010000
01000000
00100000
10000000
00010000
00100000
00000000
,
01000000
00000000
10000000
00100000
00000000
00010000
00100000
00000000
01000000
00000000
00010000
00000000
00100000
00000000
01000000
00000000
,
10000000
00000000
00100000
01000000
00000000
00010000
10000000
00000000
01000000
00000000
00100000
00000000
00010000
00000000
01000000
00000000
,
00100000
00000000
00000000
00101000
00000000
00000000
00010000
00000000
00000000
00010100
00000000
00000000
00000100
00000000
00000000
00000022
,
00000000
00000000
00000000
00000033
,
00000010
00000001
00000000
00000010
00000001
00000000
00000100
00000010
00000000
00000100
00000010
00000000
00001000
00000100
00000000
00001000
,
00000100
00000000
00000010
00000001
00000000
00000010
00000001
00000000
00000100
00000010
00000000
00000100
00000010
00000000
00001000
00000000
,
00000100
00010000
00000000
00001000
00100000
00000000
00010000
01000000
00000000
00100000
10000000
00000000
01000000
00100000
00000000
00010000
,
01000000
00000000
00001000
00010000
00000000
00000100
00001000
00000000
00000010
00000100
00000000
00000010
00000100
00000000
00000001
00000000
,
00000010
00000100
00000000
00000001
00000100
00000000
00010000
00000010
00000000
00000100
00001000
00000000
00000100
00000010
00000000
00010000
,
00001000
00000000
00100000
00010000
00000000
01000000
00100000
00000000
10000000
01000000
00000000
00100000
00010000
00000000
01000000
00000000
,
00100000
10000000
00000000
00010000
00100000
00000000
01000000
10000000
00000000
00100000
01000000
00000000
00010000
00100000
00000000
01000000
,
10000000
00000000
00100000
01000000
00000000
00010000
00100000
00000000
00001000
00010000
00000000
00000100
00001000
00000000
00000010
00000000
,
00000100
00000001
00000000
00000100
00000001
00000000
00000010
00000001
00000000
00000010
00000001
00000000
00000100
00000010
00000000
00000100
,
00000010
00000000
00001000
00000100
00000000
00001000
00000100
00000000
00001000
00000010
00000000
00000100
00000001
00000000
00001000
00000000
,
00000100
00010000
00000000
00001000
01000000
00000000
00010000
00100000
00000000
01000000
00001000
00000000
01000000
00010000
00000000
01000000
,
00100000
00000000
00010000
01000000
00000000
00100000
10000000
00000000
00010000
00100000
00000000
01000000
10000000
00000000
00100000
00000000
,
01000000
00001000
00000000
00010000
00000100
00000000
00001000
00000010
00000000
00000100
00000001
00000000
00000010
00000100
00000000
00001000
,
00010000
00000000
00100000
10000000
00000000
00100000
00010000
00000000
01000000
10000000
00000000
01000000
00010000
00000000
00100000
01000000
,
00000000
11000000
00000000
00000000
00110000
00000000
00000000
00101000
00000000
00000000
00010100
00000000
00000000
00001010
00000000
00000000
,
00101000
00000000
00000000
00010100
00000000
00000000
01001000
00000000
00000000
00101000
00000000
00000000
00010010
00000000
00011000
00000000
;
