#TITLE:Yellow;
#SUBTITLE:;
#ARTIST:Coldplay;
#TITLETRANSLIT:;
#SUBTITLETRANSLIT:;
#ARTISTTRANSLIT:;
#GENRE:Alternative;
#CREDIT:;
#BANNER:Yellow.png;
#BACKGROUND:Yellow-bg.png;
#LYRICSPATH:;
#CDTITLE:;
#MUSIC:Yellow.mp3;
#OFFSET:-0.023;
#SAMPLESTART:77.460;
#SAMPLELENGTH:15.000;
#SELECTABLE:YES;
#BPMS:0.000=77.655
,1.000=92.871
,2.000=84.003
,3.000=87.272
,4.000=87.146
,5.000=89.383
,6.000=87.200
,7.000=85.215
,8.000=84.721
,9.000=85.717
,10.000=89.304
,11.000=85.215
,12.000=87.260
,13.000=89.286
,14.000=87.180
,15.000=89.196
,16.000=81.574
,17.000=89.368
,18.000=87.203
,19.000=87.160
,20.000=88.569
,21.000=87.965
,22.000=85.228
,23.000=85.220
,24.000=87.272
,25.000=89.175
,26.000=83.362
,27.000=87.275
,28.000=85.162
,29.000=91.491
,30.000=85.212
,31.000=87.255
,32.000=81.506
,33.000=87.151
,34.000=91.560
,35.000=81.488
,36.000=89.295
,37.000=91.437
,38.000=87.269
,39.000=83.257
,40.000=83.365
,41.000=89.304
,42.000=87.255
,43.000=89.289
,44.000=81.513
,45.000=89.304
,46.000=89.277
,47.000=87.171
,48.000=83.365
,49.000=85.215
,50.000=89.301
,51.000=85.171
,52.000=89.356
,53.000=85.215
,54.000=87.148
,55.000=87.278
,57.000=88.115
,58.000=84.313
,59.000=89.301
,60.000=85.215
,62.000=91.719
,63.000=83.127
,64.000=87.269
,65.000=88.309
,66.000=88.124
,67.000=83.365
,68.000=89.295
,69.000=85.223
,70.000=87.148
,71.000=89.298
,72.000=87.782
,73.000=82.900
,74.000=87.100
,75.000=89.368
,76.000=85.267
,77.000=83.318
,78.000=92.871
,79.000=83.995
,80.000=87.269
,81.000=83.260
,82.000=89.304
,84.000=85.215
,85.000=87.275
,86.000=89.250
,87.000=83.365
,88.000=88.165
,89.000=84.313
,90.000=87.272
,91.000=85.217
,92.000=93.763
,93.000=82.256
,94.000=84.421
,95.000=89.304
,96.000=87.143
,97.000=87.275
,98.000=87.151
,99.000=85.270
,100.000=85.248
,101.000=91.605
,102.000=85.097
,103.000=87.151
,104.000=83.362
,105.000=90.326
,106.000=86.307
,107.000=85.226
,108.000=87.148
,109.000=87.272
,110.000=89.250
,111.000=83.349
,112.000=85.264
,113.000=89.199
,114.000=87.272
,115.000=85.206
,116.000=87.157
,117.000=89.307
,118.000=85.316
,119.000=89.184
,120.000=85.319
,121.000=87.120
,122.000=87.243
,123.000=83.326
,124.000=89.304
,125.000=91.548
,126.000=87.103
,127.000=87.263
,128.000=85.267
,129.000=87.258
,130.000=83.270
,131.000=87.272
,132.000=85.100
,133.000=89.428
,134.000=87.151
,135.000=87.275
,136.000=85.215
,138.000=84.900
,139.000=89.595
,140.000=85.264
,141.000=87.269
,142.000=84.621
,143.000=89.969
,144.000=83.368
,145.000=89.172
,146.000=89.304
,147.000=83.365
,148.000=89.304
,149.000=87.148
,150.000=89.247
,151.000=83.368
,152.000=87.249
,153.000=89.253
,154.000=83.365
,155.000=88.121
,156.000=86.315
,157.000=89.655
,158.000=88.771
,159.000=87.787
,160.000=79.414
,161.000=91.560
,162.000=89.298
,163.000=85.174
,164.000=85.264
,165.000=89.307
,166.000=87.148
,167.000=83.365
,168.000=85.212
,169.000=87.258
,170.000=87.169
,171.000=89.304
,172.000=83.360
,173.000=88.309
,174.000=86.144
,175.000=90.682
,176.000=85.929
,177.000=83.318
,178.000=89.298
,179.000=80.917
,180.000=94.426
,181.000=81.594
,182.000=83.056
,183.000=83.840
,184.000=88.977
,185.000=83.368
,186.000=85.487
,187.000=82.504
,188.000=89.004
,189.000=90.326
,190.000=89.301
,191.000=83.349
,192.000=85.223
,193.000=87.148
,194.000=87.275
,195.000=85.226
,196.000=89.295
,197.000=92.163
,198.000=82.755
;
#STOPS:
;
#BGCHANGES:-0.375=Yellow.avi=1.000=0=0=0=StretchNoLoop====,
99999=-nosongbg-=1.000=0=0=0 // don't automatically add -songbackground-
;
#KEYSOUNDS:;
#ATTACKS:;

//---------------dance-single - Blank----------------
#NOTES:
     dance-single:
     :
     Hard:
     11:
     0.408,0.356,0.250,0.043,0.150,358.000,35.000,6.000,0.000,0.000,0.000,0.408,0.356,0.250,0.043,0.150,358.000,35.000,6.000,0.000,0.000,0.000:
1000
1000
0001
0001
1000
1000
0001
0001
,
0100
0001
0100
0000
0001
0000
0001
0000
0100
0000
0100
0000
0001
0000
0001
0010
,
0001
0001
0010
0010
0001
0001
0010
0010
,
0100
1000
0100
0000
1000
0000
1000
0000
0100
0000
0100
0000
1000
0000
1000
0000
,
0010
0010
0100
0100
0010
0010
0100
0100
,
0001
0100
0001
0000
0100
0000
0100
0000
0001
0000
0001
0000
0100
0000
0100
0010
,
1000
1000
0001
0001
1000
1000
0001
0001
,
0100
0010
0100
0000
0010
0000
0010
0000
0100
0000
0100
0000
0010
0000
0010
0000
,
0100
0001
0010
0100
1000
0000
1001
0000
,
1000
0100
0010
0100
1000
0000
1001
0000
,
1001
0100
0010
0000
1000
1000
0001
0000
,
0001
0000
0010
0000
0001
0000
0100
0000
0010
0000
0000
1000
0000
0010
0000
0000
,
1010
0000
1001
0000
1000
0001
1000
0000
,
0001
0000
0000
0010
0100
1000
0001
0000
0000
0000
1000
0001
1000
0000
0000
0000
,
1001
0000
1000
0000
0100
0000
0010
0000
0001
0000
0000
0000
0101
0000
0000
0100
,
0010
0000
1000
0000
0100
0000
0010
0000
0001
0000
0000
0001
1000
0000
0000
0000
,
0010
1010
1000
0000
0001
1001
1000
0000
,
0100
0000
1000
0000
0010
0000
0100
0000
0001
0000
0000
1000
0000
1000
0100
0010
,
0001
0000
0000
0010
0100
0000
0000
0010
0100
0000
0000
0100
1000
0000
0000
1000
,
0010
0000
0000
0100
0001
0010
0100
0000
0000
0000
0010
0100
1000
0000
0000
0000
,
1100
0100
0110
0000
0110
0100
0101
0000
,
0001
0000
0100
0000
1000
0000
0010
0000
0001
0000
0010
1000
0000
0000
0000
0000
,
0001
1001
1000
0000
1000
1100
0100
0000
,
0010
0000
0100
0000
0010
0000
0001
0000
1000
0000
0000
0010
0000
0100
0000
0001
,
0100
0000
0000
0100
0010
0000
0000
0010
0100
0000
0000
0100
0001
0000
0000
0001
,
1000
0000
0000
1000
0100
0010
0100
0000
0000
0000
0010
0001
0100
0000
0000
0000
,
0010
0010
0110
0010
1000
1000
1010
1000
,
0001
0001
1001
0001
0100
0100
0101
0100
,
0010
1000
1010
0000
1002
0000
0103
0001
,
0010
0001
0010
0100
1000
1000
1001
0000
,
1000
1000
1010
1001
1002
0000
0103
0001
,
0010
0100
1000
0001
0010
0010
0110
0000
,
0100
0000
1000
0100
0010
0000
0100
0000
0220
0000
0000
0000
0330
0000
0010
0000
,
0100
1000
0001
0100
0010
1000
0001
0000
,
1001
0000
0000
1000
,
0000
0001
1000
0001
0100
0010
0100
0000
,
0100
0100
0010
0010
0100
0100
0010
0010
,
1000
0010
1000
0000
0010
0000
0010
0000
1000
0000
1000
0000
0010
0000
0010
0100
,
0010
0010
0100
0100
0010
0010
0100
0100
,
0001
0100
0001
0000
0100
0000
0100
0000
0001
0000
0001
0000
0100
0000
0100
0010
,
0100
0100
0010
0010
0100
0100
0010
0010
,
1000
0010
1000
0000
0001
0000
0001
0000
1000
0000
1000
0000
0001
0000
0001
0000
,
0100
0100
0010
0010
0100
0100
0010
0010
,
1000
0001
1000
0000
0001
0000
0001
0000
1000
0000
1000
0000
0001
0000
0001
0000
,
1001
1000
0100
0010
0001
0000
0011
0000
,
0010
0000
0100
0000
1000
0000
0010
0000
0100
0000
0000
0000
0010
0100
0000
0000
,
0110
0101
0001
0000
1001
1100
1000
0000
,
0100
0010
0001
0010
0100
1000
0010
0000
,
0220
0000
0000
0000
,
0000
0000
0000
0330
;

//---------------dance-single - Blank----------------
#NOTES:
     dance-single:
     :
     Medium:
     7:
     0.259,0.210,0.057,0.043,0.004,239.000,8.000,6.000,0.000,0.000,0.000,0.259,0.210,0.057,0.043,0.004,239.000,8.000,6.000,0.000,0.000,0.000:
1000
1000
0100
0100
,
1000
0100
1000
0000
0100
1000
0100
0000
,
0010
0010
0001
0001
,
0001
0100
0001
0000
0100
0001
0100
0000
,
0001
1000
1000
0001
,
1000
0100
0001
0000
0001
0100
1000
0000
,
0010
1000
0001
0100
,
0010
1000
0001
0100
,
0000
0001
1000
0100
0010
0000
0000
0000
,
0000
0010
0100
1000
0001
0000
0101
0000
,
0000
0100
0010
0000
1000
0000
0010
0000
,
0100
0001
0100
0001
0010
0000
0100
0000
,
1000
1000
0001
0001
,
1000
0001
1000
0001
0100
0000
0100
0000
,
0000
0010
0100
0001
1000
0000
0000
0000
,
0000
1000
0100
0010
0001
0000
1001
0000
,
1000
0000
0001
0000
0010
0001
0010
0000
,
0000
0000
0100
0000
1000
0000
0100
0000
1000
0000
0000
0010
0000
0000
0000
0000
,
0100
0100
0001
0010
,
0100
1000
0100
1000
0010
0000
0010
0000
,
1000
0010
0001
0000
0001
0010
1000
0000
,
1000
0100
0001
0000
0001
0100
1000
0000
,
1001
0000
1000
0000
0001
0001
1000
0000
,
1001
0000
0001
0000
1000
1000
0001
0000
,
0100
0000
0100
0000
0010
0010
1000
0000
,
0100
1000
0100
1000
0010
0000
0010
0000
,
1000
0010
1000
0000
0001
1000
0001
0000
,
1000
0001
1000
0000
0001
0100
0001
0000
,
0000
0100
0020
1030
,
0000
1000
0001
0100
0001
1000
0100
0000
,
0000
0010
0200
1300
,
0100
0001
0100
0010
0001
1000
0001
0000
,
1000
0002
0203
0000
,
0310
0100
0010
0100
0001
1000
0001
0000
,
1000
0000
0000
0001
,
1000
0000
0001
0000
1000
0100
0010
0000
,
0011
0001
0100
0001
,
1000
0010
1000
0000
0100
0000
1000
0000
,
1100
0100
0010
0100
,
0001
0100
0100
0000
0010
0000
0100
0000
,
1000
0100
0010
0000
0010
0001
0100
0000
,
0001
0100
0010
0000
0010
1000
0100
0000
,
1000
0001
0100
0000
0001
1000
0100
0000
,
1000
0001
0010
0000
0001
1000
0010
0000
,
0000
0001
1000
0100
0010
0000
0000
0000
,
0000
0010
0100
1000
0001
0000
0100
0000
,
0000
0010
1000
0000
0001
0000
1001
0000
,
0000
1000
0100
0010
0001
1000
0001
0000
,
2002
0000
0000
0000
,
3003
0000
0000
0000
;

//---------------dance-single - Blank----------------
#NOTES:
     dance-single:
     :
     Easy:
     3:
     0.095,0.089,0.086,0.079,0.000,70.000,12.000,11.000,0.000,0.000,0.000,0.095,0.089,0.086,0.079,0.000,70.000,12.000,11.000,0.000,0.000,0.000:
1000
0000
0000
0000
,
1010
0000
0000
0000
,
0001
0000
0000
0000
,
0011
0000
0000
0000
,
0010
0000
0000
0000
,
0110
0000
0000
0000
,
0100
0000
0000
0000
,
0110
0000
0000
0000
,
0000
0000
1000
0000
,
0000
0000
0001
0001
,
0000
1000
0000
0010
,
0000
0010
0010
0000
,
0000
0100
0000
0100
,
0000
0001
1000
0001
,
0000
1000
1000
0000
,
0000
0000
0001
0001
,
0000
1000
0000
1000
,
0000
0100
0000
0100
,
0100
0010
0000
0010
,
0000
0100
0000
0100
,
0100
0000
1000
1000
,
0000
0000
0001
0001
,
0000
0000
0010
0010
,
0000
0000
0100
0100
,
0000
0000
1000
0001
,
0000
0000
0100
0010
,
1000
0000
1000
0000
,
1000
0000
1000
0000
,
2002
0000
0000
0000
,
0000
0000
0000
3003
,
0220
0000
0000
0000
,
0000
0000
0000
0330
,
2002
0000
0000
0000
,
0000
0000
0000
3003
,
0110
0000
0000
0000
,
0000
0010
1000
0100
,
0001
0000
0000
0000
,
0101
0000
0000
0000
,
1000
0000
0000
0000
,
1100
0000
0000
0000
,
0100
0000
0000
0000
,
0110
0000
0000
0000
,
0010
0000
0000
0000
,
0110
0000
0000
0000
,
0200
0000
0000
0000
,
2300
0000
0000
0000
,
3020
0000
0000
0000
,
0032
0000
0000
0000
,
0023
0000
0000
0000
,
0000
0000
0000
0030
;

//---------------dance-single - Blank----------------
#NOTES:
     dance-single:
     :
     Beginner:
     1:
     0.054,0.072,0.072,0.043,0.000,37.000,10.000,6.000,0.000,0.000,0.000,0.054,0.072,0.072,0.043,0.000,37.000,10.000,6.000,0.000,0.000,0.000:
1000
0000
0000
0000
,
0000
0000
0000
0000
,
0001
0000
0000
0000
,
0000
0000
0000
0000
,
0100
0000
0000
0000
,
0000
0000
0000
0000
,
0010
0000
0000
0000
,
0000
0000
0000
0000
,
0000
0000
1001
0000
,
0000
0000
1001
0000
,
0001
0000
0000
0000
,
1000
0000
0000
0000
,
0100
0000
0000
0000
,
0010
0000
0000
0000
,
0000
0000
0110
0000
,
0000
0000
0110
0000
,
0010
0000
0000
0000
,
0100
0000
0000
0000
,
1000
0000
0000
0000
,
0001
0000
0000
0000
,
1001
0000
0000
0000
,
0000
0000
0110
0000
,
0010
0000
0000
0000
,
0100
0000
0000
0000
,
1000
0000
0000
0000
,
0001
0000
0000
0000
,
0100
0000
0100
0000
,
0100
0000
0100
0000
,
0020
0000
0000
0000
,
0000
0000
0000
0000
,
2030
0000
0000
0000
,
0000
0000
0000
0000
,
3002
0000
0000
0000
,
0000
0000
0000
0000
,
0103
0000
0000
0000
,
0000
0000
0000
0000
,
1001
0000
0000
0000
,
0000
0000
0000
0000
,
0110
0000
0000
0000
,
0000
0000
0000
0000
,
1001
0000
0000
0000
,
0000
0000
0000
0000
,
0110
0000
0000
0000
,
0000
0000
0000
0000
,
0020
0000
0000
0000
,
0000
0000
0000
0000
,
0230
0000
0000
0000
,
0000
0000
0000
0000
,
2300
0000
0000
0000
,
0000
0000
0000
0000
,
3000
0000
0000
0000
;

//---------------pump-double - Blank----------------
#NOTES:
     pump-double:
     :
     Hard:
     11:
     0.476,0.447,0.436,0.057,0.233,388.000,61.000,8.000,0.000,9.000,0.000,0.476,0.447,0.436,0.057,0.233,388.000,61.000,8.000,0.000,9.000,0.000: // measure 0
0100000000
0100000000
0000100000
0001000000
0000010000
0000010000
0000100000
0000001000
,  // measure 1
0000100000
0000000100
0000100000
0000000000
0000000100
0000000000
0000010000
0000000000
0000000001
0000000000
0000010000
0000000000
0000000100
0000000000
0000100000
0000001000
,  // measure 2
0001000000
0000100000
0010000000
0001000000
0100000000
0010000000
0001000000
0000001000
,  // measure 3
0000010000
0000001000
0001000000
0000000000
0000100000
0000000000
0001000000
0000000000
0010000000
0000000000
0100000000
0000000000
1000000000
0000000000
0100000000
0001000000
,  // measure 4
0010000000
0001000000
0000100000
0100000000
1000000000
0001000000
0000010000
0000000010
,  // measure 5
0000000001
0000000010
0000001000
0000000000
0000000100
0000000000
0000001000
0000000000
0000000010
0000000000
0000000100
0000000000
0000000010
0000000000
0000001000
0000010000
,  // measure 6
0000100000
0000001000
0001000000
0010000000
0001000000
0000001000
0000000100
0000001000
,  // measure 7
0000010000
0000000100
0000001000
0000000000
0000010000
0000000000
0000100000
0000000000
0000001000
0000000000
0001000000
0000000000
0000100000
0000000000
0001000000
0000000000
,  // measure 8
0010000000
0100000000
0001000000
0010000000
0011000000
0000000000
0000110000
0000000000
,  // measure 9
0000010000
0000001000
0000000100
0000001000
0000000010
0000000000
0000000110
0000000000
,  // measure 10
0000001000
0000010000
0000110000
0000000000
0001000000
0000100000
0000110000
0000000000
,  // measure 11
0000010000
0000000000
0010000000
0000000000
0000010000
0000000000
0000100000
0000000000
0001000000
0000000000
0000000000
0100000000
0000000000
0100000000
0000000000
0010000000
,  // measure 12
0100000000
0000000000
0101000000
0000000000
0001000000
0010000000
0010100000
0000000000
,  // measure 13
0001100000
0000000000
0000000000
0000000000
0000000000
0000000000
0001000000
0000000000
0000001000
0000000000
0000000100
0000000000
0000000010
0000000000
0000000000
0000000000
0000000000
0000000000
0000000000
0000000000
0000001000
0000000000
0000010000
0000000000
0000100000
0000000000
0000000000
0000000000
0000000000
0000000000
0000001000
0000100000
,  // measure 14
0000001000
0001000000
0000010000
0010000000
0001000000
0000000000
0011000000
0000000000
,  // measure 15
0001000000
0000000000
0000000000
0000000000
0100000000
0000000000
0000000000
0000000000
0010000000
0000000000
0000000000
0000000000
1000000000
0000000000
0000000000
0000000000
0001000000
0000000000
0000000000
0000000000
0000000000
0000000000
1000000000
0000000000
0001000000
0000000000
0000000000
0000000000
0000000000
0000000000
0001000000
0000100000
,  // measure 16
0001000000
0000100000
0000010000
0000001000
0000100000
0010000000
1000000000
0100000000
,  // measure 17
0010000000
0000000000
0000000000
0000000000
0100000000
0000000000
0000000000
0000000000
0001000000
0000000000
0000000000
0000000000
0010000000
0000000000
0000000000
0000000000
0000100000
0000000000
0000000000
0000000000
0000000000
0000000000
0001000000
0000000000
0000000000
0000000000
0000001000
0000000000
0000000000
0000000000
0000010000
0000000100
,  // measure 18
0000010000
0000000000
0000000000
0000000000
0000000000
0000000000
0000000100
0000100000
0000001000
0000000000
0000000000
0000000000
0000000000
0000000000
0000000000
0000000000
0000100000
0000000000
0000000000
0000000000
0001000000
0000000000
0000000000
0000000000
0011000000
0000000000
0000000000
0000000000
0001000000
0000000000
0000000000
0000000000
,  // measure 19
0100000000
0000000000
0000000000
0000000000
0000000000
0000000000
0010000000
0000000000
0001000000
0000000000
0010000000
0000000000
0001000000
0000000000
0000000000
0000000000
0000000000
0000000000
0000000000
0000000000
0000100000
0000000000
0001000000
0000000000
0000001000
0000000000
0000000000
0000000000
0000000000
0000000000
0001000000
0000001000
,  // measure 20
0001000000
0000000000
0000000000
0000000000
0000000000
0000000000
0000001000
0000100000
0000001000
0000000000
0000000000
0000000000
0000000000
0000000000
0000100000
0000000100
0000100000
0000000000
0000000000
0000000000
0000000000
0000000000
0000000100
0000010000
0000000100
0000000000
0000000000
0000000000
0000000000
0000000000
0000010000
0000000001
,  // measure 21
0000010000
0000000000
0000000000
0000000000
0000001000
0000000000
0000000000
0000000000
0000000100
0000000000
0000000000
0000000000
0000001000
0000000000
0000000000
0000000000
0000010000
0000000000
0000000000
0000000000
0000000010
0000000000
0000020000
0000000000
0000000000
0000000000
0000000000
0000000000
0000000000
0000000000
0000030001
0000010000
,  // measure 22
0000000001
0000010100
0000010000
0000000000
0000001000
0001000000
0001001000
0000000000
,  // measure 23
0001000000
0000000000
0000000000
0000000000
0000100000
0000000000
0000000000
0000000000
0010000000
0000000000
0000000000
0000000000
0001000000
0000000000
0000000000
0000000000
0100000000
0000000000
0000000000
0000000000
0000000000
0000000000
0010000000
0000000000
0000000000
0000000000
0010000000
0000000000
0000000000
0000000000
0100000000
0001000000
,  // measure 24
0010000000
0000000000
0000000000
0000000000
0000000000
0000000000
0001000000
0010000000
0000100000
0000000000
0000000000
0000000000
0000000000
0000000000
0000100000
0001000000
0000001000
0000000000
0000000000
0000000000
0000010000
0000000000
0000000000
0000000000
0000010100
0000000000
0000000000
0000000000
0000000100
0000000000
0000000000
0000000000
,  // measure 25
0000010001
0000000000
0000000000
0000010000
0000000100
0000100000
0000020000
0000000000
0000000000
0000000000
0010030000
0000010000
0010000000
0000000000
0000000000
0000000000
,  // measure 26
0001000000
0001000000
0011100000
0001000000
0001000000
0001000000
0001110000
0001000000
,  // measure 27
0000010000
0000010000
0000011100
0000010000
0000010000
0000010000
0001110000
0000010000
,  // measure 28
0000110000
0000100000
0000000100
0000000000
0000002100
0000000000
0000000010
0000000000
,  // measure 29
0000003100
0000000000
0000001000
0000000000
0000010000
0000000000
0000100000
0000000000
0000001000
0000100000
0000001000
0000000000
0000010000
0000000000
0000000100
0000010000
,  // measure 30
0000000001
0000000010
0000000012
0000001003
0000002001
0000000000
0000003100
0000000000
,  // measure 31
0000001000
0000000000
0000010000
0000000000
0000100000
0000000000
0010000000
0000000000
1000000000
0010000000
0000100000
0000000000
0000100000
0000000000
0001000000
0010000000
,  // measure 32
0001000000
0000000000
0100000000
0001000000
0100000000
0000000000
0010000000
0000000000
0012000000
0000000000
0000000000
0000000000
0003100000
0000000000
0000000000
0000000000
,  // measure 33
0001010000
0000000000
0000101000
0000000000
0000010100
0000000000
0000000100
0000000000
0000010000
0000000000
0000000001
0000000000
0000000010
0000000000
0000000000
0000000010
,  // measure 34
0000000100
0000000000
0010110000
0000000000
0000100000
0000100000
0000110100
0000000000
,  // measure 35
0000100000
0001000000
0010000000
0100000000
1000000000
0010000000
0000100000
0000000000
,  // measure 36
0000110000
0000010000
0001010000
0001000000
0001001000
0000001000
0000101000
0000100000
,  // measure 37
0000000100
0000100000
0000000100
0000000000
0000010100
0000000000
0000010000
0000000000
0000010001
0000000000
0000000001
0000000000
0000000011
0000000000
0000000010
0000000100
,  // measure 38
0000001000
0000001000
0000001010
0000000010
0000000110
0000000100
0000000101
0000000001
,  // measure 39
0000010000
0000001000
0001000000
0000000000
0001100000
0000000000
0000100000
0000000000
0100100000
0000000000
0001100000
0000000000
1001000000
0000000000
1000000000
0100000000
,  // measure 40
1000000000
0100000000
0110000000
0010000000
0011000000
0001000000
0001100000
0000100000
,  // measure 41
0010000000
0000100000
1000000000
0000000000
1000100000
0000000000
0000100000
0000000000
0000010000
0000000000
0000100000
0000000000
0000110000
0000000000
0000100000
0000000001
,  // measure 42
0000010000
0000000001
0000010001
0000010000
0000000010
0000010000
0000010010
0000000010
,  // measure 43
0000001000
0000000010
0000001000
0000000000
0000001100
0000000000
0000000100
0000000000
0000010100
0000000000
0000011000
0000000000
0000000011
0000000000
0000000110
0000000000
,  // measure 44
0000001010
0000001000
0000000100
0000001000
0000000100
0000000000
0000001110
0000000000
,  // measure 45
0000001000
0000000000
0000000100
0000000000
0001000000
0000000000
0000001000
0000000000
0010000000
0000000000
0000000000
0000000000
0000001000
0010000000
0000000000
0000000000
,  // measure 46
0010001000
0010000000
0010001100
0000000000
0001000100
0000000100
0011000100
0000000000
,  // measure 47
0010000000
0001000000
0000100000
0000010000
0000001000
0000000100
0000000010
0000000000
,  // measure 48
0000000022
0000000000
0000000000
0000000000
,  // measure 49
0000000000
0000000000
0000000000
0000000000
,  // measure 50
0000000033
0000000000
0000000000
0000000000
;
