#TITLE:Want It Need It (Hold Me);
#SUBTITLE:;
#ARTIST:Delta Heavy;
#TITLETRANSLIT:Hold Me;
#SUBTITLETRANSLIT:;
#ARTISTTRANSLIT:;
#GENRE:Modern Dubstep;
#CREDIT:;
#BANNER:Want It Need It (Hold Me).png;
#BACKGROUND:Want It Need It (Hold Me)-bg.png;
#LYRICSPATH:;
#CDTITLE:;
#MUSIC:Want It Need It (Hold Me).mp3;
#OFFSET:0.006;
#SAMPLESTART:68.560;
#SAMPLELENGTH:15.000;
#SELECTABLE:YES;
#BPMS:0.000=140.000
;
#STOPS:
;
#BGCHANGES:-0.500=Want It Need It (Hold Me).avi=1.000=0=0=0=StretchNoLoop====,
99999=-nosongbg-=1.000=0=0=0 // don't automatically add -songbackground-
;
#KEYSOUNDS:;
#ATTACKS:;

//---------------dance-single - ----------------
#NOTES:
     dance-single:
     :
     Challenge:
     17:
     0.767,0.661,0.314,0.071,0.957,635.000,40.000,9.000,0.000,0.000,22.000,0.767,0.661,0.314,0.071,0.957,635.000,40.000,9.000,0.000,0.000,22.000: // measure 0
0110
0000
0000
0000
0110
0000
0000
0000
0010
0000
0001
0100
0000
0001
0100
0000
,  // measure 1
0020
0000
0000
1000
0000
0000
0130
0000
,  // measure 2
0010
0000
0000
1010
0000
0000
0100
0000
0000
0101
0000
0000
0000
0000
0000
0000
,  // measure 3
0010
0000
0000
0011
0000
0000
0100
0000
0000
1100
0000
0000
1001
0000
0000
0000
,  // measure 4
0110
0000
0000
0000
0110
0000
0000
0000
0010
0000
1000
0100
0000
1000
0100
0000
,  // measure 5
0020
0000
0000
0001
0000
0000
0430
0000
,  // measure 6
0010
0010
0010
0010
,  // measure 7
0010
0010
0010
0010
,  // measure 8
1300
0000
0100
0010
0001
0000
0100
0000
0001
0100
0010
0000
1000
0000
0001
0000
,  // measure 9
1000
0000
0100
0010
0001
0000
1000
0000
0001
0100
0010
0000
1000
0000
0001
0000
,  // measure 10
0100
0000
0010
1000
0001
0000
0100
0000
0001
1000
0010
0000
0100
0000
0001
0000
,  // measure 11
0010
0000
0100
1000
0001
0000
0100
0000
0001
1000
0100
0000
0010
0000
0001
0000
,  // measure 12
1000
0000
0010
1000
0010
0000
1000
0000
0001
1000
0001
0000
0010
0000
0001
0000
,  // measure 13
0100
0000
0010
1000
0010
0000
0100
0000
0001
0010
0001
0000
0010
0000
0100
0000
,  // measure 14
1000
0000
0001
0100
0001
0000
1000
0000
0001
0100
0001
0000
0010
0000
0100
0000
,  // measure 15
1000
0000
0001
0010
0001
0000
1000
0000
0001
0010
0001
0000
1000
0000
0100
0000
,  // measure 16
0010
0000
0100
1000
0100
1000
0100
0000
1000
0001
1000
0000
0100
0000
0010
0000
,  // measure 17
0001
0000
0010
0100
0010
0100
0010
0000
0100
1000
0100
0000
1000
0000
0001
0000
,  // measure 18
1000
0000
0100
0010
0100
0010
0100
0000
1000
0001
1000
0000
0001
0000
0100
0000
,  // measure 19
0010
0000
1000
0001
1000
0001
1000
0000
0010
0000
0100
0000
0110
0000
0000
0000
,  // measure 20
0010
0000
1000
0010
1000
0010
1000
0000
0001
1000
0001
0000
1000
0000
0100
0000
,  // measure 21
0010
0000
0001
0010
0001
0010
0001
0000
0100
0000
0010
0000
0110
0000
0000
0000
,  // measure 22
0010
1000
0010
1000
0001
1000
0001
1000
0001
0010
0001
0010
0100
0010
0100
0010
,  // measure 23
0004
0000
0000
0000
0000
0000
0000
0003
,  // measure 24
0440
0000
0000
0330
0000
0000
1000
0100
0100
0010
0001
0001
,  // measure 25
0100
0010
0010
1000
0001
0001
0010
0100
0100
1000
0010
0010
,  // measure 26
0440
0000
0000
0330
0000
0000
0100
0001
0001
1000
0010
0010
,  // measure 27
0100
0001
0001
1000
0001
0001
0010
0001
0001
0010
0100
0100
,  // measure 28
0440
0000
0000
0330
0000
0000
0010
0100
0100
1000
0100
0100
,  // measure 29
0010
0100
0100
0001
0100
0100
1000
0100
0010
0001
0100
0010
,  // measure 30
1000
0000
0001
1000
0001
0000
1000
0000
0010
0000
0001
1000
0001
0000
0010
0000
,  // measure 31
1000
0000
0100
0010
0001
0000
0100
0000
0010
0000
1000
0010
0000
1000
0010
0000
,  // measure 32
0440
0000
0000
0330
0000
0000
0010
1000
1000
0001
1000
1000
,  // measure 33
0100
0010
0010
0001
1000
1000
0010
0100
0100
0001
0010
0010
,  // measure 34
0440
0000
0000
0330
0000
0000
0010
0001
0001
0010
1000
1000
,  // measure 35
0010
0100
0100
1000
0010
0010
0100
0001
0001
1000
0010
0010
,  // measure 36
0440
0000
0000
0330
0000
0000
0010
1000
1000
0010
0100
0100
,  // measure 37
0010
0001
0001
0010
0100
0100
0010
1000
0100
0010
0001
0100
,  // measure 38
0010
0000
1000
0010
0000
1000
0001
0000
1001
0000
0001
0010
0000
0010
0100
0000
,  // measure 39
1000
0000
0010
1000
0000
0010
2000
0000
0000
0000
3001
1000
0000
0001
1000
0000
,  // measure 40
0200
0000
0000
0000
0310
0000
0000
0000
0110
0000
0010
0001
0000
0001
0100
0000
,  // measure 41
0010
0000
1000
0010
0000
0010
0100
0000
0001
0000
1000
0001
0000
0001
0100
0000
,  // measure 42
0020
0000
0000
0000
1030
0000
0000
0000
1010
0000
1000
0001
0000
0001
0010
0000
,  // measure 43
0100
0000
1000
0100
0000
0100
0010
0000
0001
0000
0100
0001
0000
0001
1000
0000
,  // measure 44
0020
0000
0000
0000
0130
0000
0000
0000
0110
0000
0100
0001
0000
0001
0010
0000
,  // measure 45
0100
0000
1000
0001
0000
0001
0100
0000
0010
0000
1000
0010
0000
0010
0100
0000
,  // measure 46
0020
0000
0000
0000
1030
0000
0000
0000
1010
0000
1000
0001
0000
0001
0010
0000
,  // measure 47
0400
0000
0310
0000
,  // measure 48
4004
0000
0000
3003
0000
0000
1000
0010
0010
0100
0001
0001
,  // measure 49
0010
0100
0100
1000
0001
0001
0100
0010
0010
1000
0001
0001
,  // measure 50
4004
0000
0000
3003
0000
0000
1100
0000
1100
0000
0110
0000
,  // measure 51
0011
0000
0011
0000
0101
0000
1010
0000
0101
0000
0011
0000
,  // measure 52
4004
0000
0000
3003
0000
0000
1000
0001
0001
0100
0010
0010
,  // measure 53
1000
0100
0100
0010
0001
0001
0100
0010
0010
1000
0001
0001
,  // measure 54
1000
0000
0100
1000
0000
1000
0010
0000
0110
0000
0100
0001
0000
0001
1000
0000
,  // measure 55
0100
0000
0010
0001
0000
0010
0002
0000
0000
0000
1003
0001
0000
1000
0001
0000
,  // measure 56
1001
0000
1000
0100
1000
0100
1000
0000
0010
0000
0100
0001
0100
0001
0100
0000
,  // measure 57
0010
0000
1000
0100
0010
0000
0001
0000
0100
0000
0001
0100
0000
0001
0100
0000
,  // measure 58
0010
0000
1000
0001
1000
0001
1000
0000
0010
0000
0100
0001
0100
0001
0100
0000
,  // measure 59
0010
0000
1000
0100
0000
1000
0100
0000
0010
0000
0001
1000
0001
0000
1000
0000
,  // measure 60
0010
0000
0100
0001
0100
0001
0100
0000
0010
0000
1000
0001
1000
0001
1000
0000
,  // measure 61
0100
0000
0010
0001
0000
0001
0100
0000
0010
0000
1000
0100
0000
0100
0010
0000
,  // measure 62
0001
0000
1000
0001
1000
0001
1000
0000
0010
0000
0100
0010
0100
0010
0100
0000
,  // measure 63
0010
1000
0000
0010
1000
0000
0100
0000
0110
0000
0000
0000
0110
0000
0000
0000
,  // measure 64
0010
0000
0001
0010
0001
0010
0001
0000
1000
0000
0010
1000
0010
1000
0010
0000
,  // measure 65
0100
0000
0001
1000
0000
1000
0100
0000
0010
0000
0001
1000
0000
1000
0010
0000
,  // measure 66
0100
0000
0001
0100
0001
0100
0001
0000
0010
0000
0100
1000
0100
1000
0100
0000
,  // measure 67
1000
0000
0010
1000
0000
1000
0001
0000
0010
0000
0100
1000
0000
1000
0001
0000
,  // measure 68
0100
0000
0001
0100
0010
1000
0001
0000
0010
0000
0001
0010
0100
1000
0001
0000
,  // measure 69
1000
0000
0010
1000
0000
0010
1000
0000
0001
0000
0010
0100
0000
0100
1000
0000
,  // measure 70
0010
1100
0010
0101
,  // measure 71
0001
0000
0000
1000
0000
0000
0020
0000
0000
0000
0000
0000
0430
0000
0000
0000
,  // measure 72
0000
0000
0000
0000
,  // measure 73
0000
0300
0000
0000
;

//---------------dance-single - ----------------
#NOTES:
     dance-single:
     :
     Easy:
     7:
     0.321,0.338,0.196,0.188,0.027,237.000,25.000,24.000,0.000,0.000,0.000,0.321,0.338,0.196,0.188,0.027,237.000,25.000,24.000,0.000,0.000,0.000:
0000
0000
0000
0000
,
0000
0000
0000
0000
,
0000
0000
0000
0000
,
0000
0000
0000
0000
,
0000
0000
0000
0000
,
0000
0000
0000
0000
,
0000
0000
0000
0000
,
0000
0000
0000
0000
,
0010
0010
1000
1000
,
0001
0001
0010
0010
,
0100
0100
1000
1000
,
0001
0001
0100
0100
,
0010
0010
1000
1000
,
0100
0100
0010
0010
,
0001
0001
0100
0100
,
0010
0010
1000
1000
,
0100
0100
0010
0010
,
0001
0001
1000
1000
,
0010
0010
0100
0100
,
0001
0001
1000
1000
,
0100
0010
0001
0010
,
0100
1000
0010
1000
,
0001
1000
0010
0100
,
0220
0000
0000
0330
,
0020
0000
1030
0010
,
0100
0001
0100
0010
,
2000
0000
3001
1000
,
0010
0001
1000
0100
,
0002
0000
1003
0001
,
0010
1000
0001
0100
,
2000
3010
2000
3010
,
0200
0301
0200
0301
,
2002
3003
0001
0010
,
1000
0010
0001
0100
,
2000
3000
1000
0100
,
0001
0010
1000
0010
,
0002
0000
1003
0001
,
1000
0010
0100
0010
,
2000
3100
2000
3100
,
0020
0031
0020
0031
,
0100
0001
0101
0000
,
0010
1000
1010
0000
,
0100
0010
0110
0000
,
0010
1000
1001
0000
,
0001
0010
0011
0000
,
0010
0100
0110
0000
,
0100
1000
1100
0000
,
2002
3003
0110
0000
,
2020
3030
1000
0010
,
0100
0001
0010
0100
,
2000
0000
0000
0000
0000
0000
3001
0000
0001
0000
0001
0000
,
0001
0000
0001
0000
0001
0000
0001
0000
0001
0000
0001
0000
,
0002
0000
1003
0001
,
0010
0100
1000
0010
,
0100
0010
0110
0000
,
0010
1000
0001
0010
,
0100
1000
1100
1000
,
0010
0100
0110
0100
,
0001
0010
0011
0010
,
0100
1000
1100
1000
,
0001
1000
1001
1000
,
0010
0100
0110
0100
,
0010
1000
0100
0001
,
0100
0010
0110
1001
,
0110
0010
1000
0010
,
0100
0001
0101
0001
,
0010
0001
0010
0100
,
1000
0010
1010
1000
,
0001
0010
0100
0010
,
0001
1000
1010
0010
,
0100
0100
0010
0010
,
1000
0000
0000
1000
0000
0000
2000
0000
0000
0000
3000
0000
1000
0000
0000
0000
;

//---------------dance-single - ----------------
#NOTES:
     dance-single:
     :
     Beginner:
     2:
     0.123,0.113,0.024,0.024,0.000,104.000,3.000,3.000,0.000,0.000,0.000,0.123,0.113,0.024,0.024,0.000,104.000,3.000,3.000,0.000,0.000,0.000:
0000
0000
0000
0000
,
0000
0000
0000
0000
,
0000
0000
0000
0000
,
0000
0000
0000
0000
,
0000
0000
0000
0000
,
0000
0000
0000
0000
,
0000
0000
0000
0000
,
0000
0000
0000
0000
,
0100
0000
0010
0000
,
1000
0000
0001
0000
,
0010
0000
0100
0000
,
1000
0000
0001
0000
,
1000
0000
0010
0000
,
0100
0000
1000
0000
,
0100
0000
0001
0000
,
0020
0000
0030
0000
,
0010
0000
0010
0000
,
0100
0000
0100
0000
,
1000
0000
1000
0000
,
0001
0000
0001
0000
,
0100
0000
0100
0000
,
0010
0000
0010
0000
,
1000
0000
0001
0000
,
1001
0000
0000
0000
,
1000
0000
0010
0000
,
0100
0000
0000
0000
,
0001
0000
0100
0000
,
0010
0000
0000
0000
,
0100
0000
0001
0000
,
1000
0000
0000
0000
,
0100
0000
0010
0000
,
0001
0000
1000
0000
,
0010
0000
0000
0000
,
0100
0000
0001
0000
,
0200
0000
0300
0000
,
0010
0000
1000
0000
,
0020
0000
0030
0000
,
1000
0000
0001
0000
,
1000
0000
0100
0000
,
0010
0000
0001
0000
,
0100
0000
0100
0000
,
0010
0000
0010
0000
,
1000
0000
1000
0000
,
0001
0000
0001
0000
,
0010
0000
0100
0000
,
1000
0000
0001
0000
,
0100
0000
0010
0000
,
1000
0000
0001
0000
,
1001
0000
0000
0000
,
0100
0000
0000
0000
,
0010
0000
0000
0000
,
1000
0000
0000
0000
,
0001
0000
0000
0000
,
0010
0000
0000
0000
,
0100
0000
0000
0000
,
1000
0000
0000
0000
,
0001
0000
0000
0000
,
0100
0000
0100
0000
,
0010
0000
0000
0000
,
0010
0000
0010
0000
,
1000
0000
0000
0000
,
1000
0000
1000
0000
,
0001
0000
0000
0000
,
0010
0000
0010
0000
,
0100
0000
0000
0000
,
1000
0000
0001
0000
,
0100
0000
0000
0000
,
0010
0000
1000
0000
,
0001
0000
0000
0000
,
0010
0000
0100
0000
,
1000
0000
0000
0000
,
0001
0000
0000
1001
;

//---------------dance-single - ----------------
#NOTES:
     dance-single:
     :
     Hard:
     12:
     0.518,0.544,0.126,0.228,0.436,417.000,16.000,29.000,0.000,0.000,0.000,0.518,0.544,0.126,0.228,0.436,417.000,16.000,29.000,0.000,0.000,0.000:
0000
0000
0000
0000
,
0000
0000
0000
0000
,
0000
0000
0000
0000
,
0000
0000
0000
0000
,
0000
0000
0000
0000
,
0000
0000
0000
0000
,
0000
0000
0000
0000
,
0000
0000
0000
0000
,
0010
0000
0000
1000
0000
0000
0100
0000
0000
0010
0000
0000
0100
0000
1000
0000
,
0001
0000
0000
0100
0000
0000
0010
0000
0000
0100
0000
0000
0002
0000
0000
0000
,
1003
0000
0000
0100
0000
0000
0010
0000
0000
0100
0000
0000
1000
0000
0010
0000
,
0100
0000
0000
0001
0000
0000
0200
0000
0000
0000
0000
0000
0310
0000
0000
0000
,
1000
0000
0000
0100
0000
0000
0010
0000
0000
0100
0000
0000
1000
0000
0001
0000
,
0100
0000
0000
0010
0000
0000
0100
0000
0000
0001
0000
0000
2000
0000
0000
0000
,
3100
0000
0000
0010
0000
0000
0100
0000
0000
1000
0000
0000
0001
0000
0000
0000
,
0100
0000
0000
0010
0000
0000
0200
0000
0000
0000
0000
0000
0301
0000
0000
0000
,
1000
0000
0000
0100
0000
1000
0100
0000
0010
0000
0001
0000
0100
0000
0000
0000
,
0010
0000
0000
0100
0000
0001
1000
0000
0100
0000
0010
0000
0200
0000
0000
0000
,
1300
0000
0000
0001
0000
0100
0010
0000
0100
0000
0001
0000
1000
0000
0000
0000
,
0100
0000
0010
0100
0000
0000
1000
0000
0001
0100
0000
0000
0020
0000
0000
0000
,
1030
0100
1000
0100
0010
0001
0010
0001
,
0100
0010
0100
0010
1000
0001
1000
0001
,
0010
0001
0100
0010
1000
0001
0010
0100
,
2000
0000
0000
0000
,
3002
0000
0000
0000
0000
0000
0103
0000
0100
0010
1000
0010
,
1000
0000
0000
0100
0010
0100
0010
0000
0010
0001
0000
0000
,
0200
0000
0000
0000
0000
0000
0310
0000
0010
1000
0100
1000
,
0100
0000
0000
0010
0001
0010
0001
0000
0001
0100
0000
0000
,
0120
0000
0000
0000
0000
0000
1030
0000
1000
0100
0001
0100
,
1000
0000
0000
0001
0010
1000
0010
0000
0001
0100
0010
0100
,
0001
0000
1000
0100
2000
0000
0000
0000
3010
0000
0100
0001
0200
0000
0000
0000
,
0310
0000
1000
0001
2000
0000
0000
0000
3010
0000
0000
0100
0000
0001
1000
0000
,
0200
0000
0000
0000
0000
0000
0310
0000
0010
0001
0010
0001
,
0010
0000
0000
0100
1000
0100
1000
0000
1000
0010
0000
0000
,
0210
0000
0000
0000
0000
0000
0301
0000
0010
0001
0100
0010
,
1000
0000
0000
0010
0100
0001
1000
0000
1000
0100
0000
0100
,
0002
0000
0000
0000
0000
0000
0103
0000
0100
1000
0010
1000
,
0010
0000
0000
0100
0001
0100
0001
0000
0001
0010
0001
0010
,
0001
0100
1000
0100
0001
1000
0010
0001
,
0010
0000
0000
1000
0000
0000
0100
0000
0010
0000
0001
0100
0000
0010
1000
0000
,
0001
0000
0100
0000
0010
0000
0000
0000
0110
0000
0000
0010
0000
1000
0100
0000
,
0010
0000
0000
0100
0000
0000
1000
0000
0002
0000
0000
0103
0000
0010
1000
0000
,
0001
0000
0010
0000
0100
0000
0000
0000
1100
0000
0000
1000
0000
0001
0100
0000
,
0010
0000
0000
0100
0000
0000
0001
0000
2000
0000
0000
3100
0000
1000
0001
0000
,
0100
0000
1000
0000
0100
0000
0000
0000
0101
0000
0000
0001
0000
0010
0100
0000
,
1000
0000
0000
0010
0000
0000
0100
0000
0002
0000
0000
0013
0000
0100
1000
0000
,
0010
0000
0100
0000
0001
0000
0000
0000
0101
0000
0000
0001
1000
0000
0100
0000
,
0001
0000
0000
1000
0000
0000
0010
0000
0002
0000
0000
0000
0000
0000
0000
0000
,
0203
0000
0000
0000
0000
0000
0310
0000
0010
1000
0001
1000
,
0001
0000
0000
0010
0100
0010
0100
0000
1000
0001
0000
0100
,
0020
0000
0000
0000
0000
0000
1030
0000
0100
0000
0001
0000
,
1000
0000
0010
0000
0001
0000
0100
0000
1000
0000
0100
0000
,
0002
0000
0000
0000
0000
0000
0013
0000
0010
0100
1000
0100
,
1000
0000
0000
0010
0100
0010
0100
0000
0100
0001
0000
0001
,
1000
0010
0100
0001
1000
0100
0001
1000
,
0010
0000
0000
0001
0000
0000
0200
0000
0000
0000
0000
0000
1300
0000
0000
0000
,
0001
0010
0100
0001
0010
0100
1000
0001
,
0100
0010
1000
0001
0010
0100
1100
0000
,
1000
0010
0100
0001
0100
0010
1000
0100
,
0001
0100
0010
0001
0100
0010
0110
0000
,
0010
1000
0100
0001
0100
1000
0001
0100
,
0010
1000
0001
0010
0001
0100
0110
0000
,
0010
1000
0100
0010
0001
0100
0010
0100
,
0001
0000
0000
1000
0000
0000
0100
0000
0020
0000
0000
0000
0032
0000
0000
0000
,
1003
0010
0100
0000
0100
0010
1000
0100
,
0010
0100
1000
0000
1001
0000
1001
0000
,
0001
0100
0010
0000
0010
0100
0001
0010
,
0100
0010
0001
0000
0011
0000
0011
0000
,
0001
0100
0010
0000
0100
0001
1000
0100
,
0010
0100
1000
0000
1010
0000
0110
0000
,
0100
0001
0010
0100
0010
0000
0001
0000
,
1000
0000
0000
0010
0000
0000
0200
0000
0000
0000
0000
0000
0301
0000
0000
0000
,
2002
0000
0000
0000
,
3003
0000
0000
0000
;

//---------------dance-single - Blank----------------
#NOTES:
     dance-single:
     :
     Medium:
     11:
     0.520,0.619,0.298,0.275,0.310,391.000,38.000,35.000,0.000,0.000,0.000,0.520,0.619,0.298,0.275,0.310,391.000,38.000,35.000,0.000,0.000,0.000:
1000
0000
0000
0000
1000
0000
0000
0000
0000
0000
0000
0001
0000
0000
0001
0000
,
2000
0000
0000
3200
0000
0000
0010
0000
,
0010
0000
0000
0310
0000
0000
0000
0000
,
0110
0000
0000
0110
0000
0000
1001
0000
,
0001
0000
0001
0000
1000
1000
1000
0000
,
0020
0000
0000
0230
0000
0000
0302
0000
,
1000
1000
1000
1000
,
1000
1000
1000
1003
,
1000
0000
0000
0010
0000
0000
1000
0000
0000
0010
0000
0000
0000
0000
0000
0000
,
0100
0000
0000
0001
0000
0000
0100
0000
0000
0001
0000
0000
0010
0000
0000
0000
,
0100
0000
0000
0010
0000
0000
0100
0000
0000
0010
0000
0000
0000
0000
0000
0000
,
0001
0000
0000
0010
0000
0000
0002
0000
0000
0000
0000
0000
1003
0000
0000
0000
,
0100
0000
0000
0001
0000
0000
0100
0000
0000
0001
0000
0000
0000
0000
0000
0000
,
1000
0000
0000
0001
0000
0000
0010
0000
0000
0100
0000
0000
1000
0000
0000
0000
,
0010
0000
0000
1000
0000
0000
0010
0000
0000
1000
0000
0000
0000
0000
0000
0000
,
0001
0000
0000
1000
0000
0000
0020
0000
0000
0000
0000
0000
0130
0000
0000
0000
,
0010
1000
0010
1000
0010
0000
0100
0000
,
0001
1000
0001
1000
0001
0000
0010
0000
,
0100
1000
0100
1000
0100
0000
0010
0000
,
0001
1000
0010
0100
0020
0000
0130
0000
,
0100
0001
0100
0001
1000
0001
1000
0001
,
1000
0010
1000
0010
0100
0010
0100
0010
,
1000
0010
0001
1000
0100
0001
1000
0100
,
0020
0000
0000
0000
0230
0000
0000
0300
,
0110
0000
0000
0000
0000
0000
0100
0000
1000
0100
0000
1000
,
0100
0000
1000
0010
0000
1000
0010
0000
1000
0010
0000
0000
,
0220
0000
0000
0330
0000
0000
0100
0000
0001
0100
0000
0001
,
0100
0000
0001
0010
0000
0001
0010
0000
0001
0010
0000
0000
,
0220
0000
0000
0330
0000
0000
0100
0000
1000
0001
0000
0100
,
0001
0000
1000
0001
0000
0100
0001
0000
1000
0001
0000
0000
,
0000
1000
0200
0000
0000
0301
0200
0000
,
0000
0000
1300
0000
0200
0000
0000
0000
0010
0000
0000
0010
0000
0000
0310
0000
,
0220
0000
0000
0330
0000
0000
0010
0000
0001
0100
0000
0001
,
0100
0000
0010
1000
0000
0010
1000
0000
0010
1000
0000
0000
,
2200
0000
0000
3300
0000
0000
0100
0000
0010
0100
0000
1000
,
0100
0000
0010
0100
0000
1000
0100
0000
0010
0100
0000
0000
,
0220
0000
0000
0330
0000
0000
0010
0000
0001
0100
0000
0010
,
1000
0000
0100
0010
0000
0001
0100
0000
0010
1000
0000
0000
,
0001
0000
1000
0001
1000
0000
0010
0000
,
1000
0000
0000
0001
0000
0000
1000
0000
0010
0000
0000
0100
0000
0000
0010
0000
,
0110
0000
0000
0000
0100
0000
0000
0000
0001
0000
0000
1000
0000
0000
1000
0000
,
0100
0000
0000
0100
0000
0000
0010
0000
0001
0000
0000
0001
0000
0000
1000
0000
,
0010
0000
0000
0000
0100
0000
0000
0000
0101
0000
0000
0001
0000
0000
0001
0000
,
1000
0000
0000
0100
0000
0000
0010
0000
0001
0000
0000
0100
0000
0000
1000
0000
,
1001
0000
0000
0000
0001
0000
0000
0000
0010
0000
0000
1000
0000
0000
1000
0000
,
0100
0000
0000
0010
0000
0000
0001
0000
0100
0000
0000
1000
0000
0000
0100
0000
,
0010
0000
1000
0000
1001
0000
0001
0001
,
0020
0000
0130
0000
,
2002
0000
0000
3003
0000
0000
1000
0000
0010
1000
0000
0001
,
1000
0000
0001
0010
0000
0001
0100
0000
0010
1000
0000
0000
,
2002
0000
0000
3003
0000
0000
0011
0000
0011
0000
0011
0000
,
0110
0000
0110
0000
0110
0000
1100
0000
1100
0000
1100
0000
,
2002
0000
0000
3003
0000
0000
1000
0000
0010
1000
0000
0100
,
1000
0000
0010
0001
0000
0010
1000
0000
0100
0010
0000
0000
,
0100
0000
1000
0001
1000
0000
0001
0000
,
0100
0000
0000
0010
0000
0000
2000
0000
0000
0000
0000
0000
3001
0000
0000
0000
,
0011
0000
0110
0000
1100
0000
1000
0001
,
1000
0000
0000
0010
0000
0000
0100
0000
0001
0000
0000
0000
1000
0000
0000
0000
,
1100
0000
0110
0000
0011
0000
0001
0100
,
0001
0000
0000
1000
0000
0000
0001
0000
0010
0000
0100
0000
1000
0000
0010
0000
,
0011
0000
1010
0000
0110
0000
0100
0001
,
1000
0000
0000
1000
0000
0000
0100
0000
0010
0000
0010
0000
0001
0000
0001
0000
,
0100
0000
0010
0000
1010
0000
1000
0001
,
1000
0000
0000
0001
0000
0000
0010
0000
0220
0330
0000
0000
0220
0330
0000
0000
,
0100
1000
0100
1000
0001
1000
0001
1000
,
0001
0100
0001
0100
0010
0100
0010
0100
,
0010
1000
0010
1000
0001
1000
0001
1000
,
0001
0010
0001
0010
0100
0010
0100
0010
,
0100
1000
0100
1000
0001
1000
0001
1000
,
0001
0100
0001
0100
0010
1000
0010
1000
,
0100
0001
1000
0010
0001
0100
0010
1000
,
0100
0000
0000
0100
0000
0000
0010
0000
0000
0000
0000
0000
0110
0000
0000
0000
;
