#TITLE:Vinyl Takes Flight [Let's Get This Started];
#SUBTITLE:;
#ARTIST:Derpy Hooves;
#TITLETRANSLIT:;
#SUBTITLETRANSLIT:;
#ARTISTTRANSLIT:;
#GENRE:Drum 'n Bass;
#CREDIT:;
#BANNER:Vinyl Takes Flight [Let's Get This Started].png;
#BACKGROUND:Vinyl Takes Flight [Let's Get This Started]-bg.png;
#LYRICSPATH:;
#CDTITLE:;
#MUSIC:Vinyl Takes Flight [Let's Get This Started].ogg;
#OFFSET:-14.180;
#SAMPLESTART:14.200;
#SAMPLELENGTH:15.000;
#SELECTABLE:YES;
#BPMS:0.000=135.000
;
#STOPS:
;
#BGCHANGES:;
#KEYSOUNDS:;
#ATTACKS:;

//---------------dance-single - ----------------
#NOTES:
     dance-single:
     :
     Hard:
     10:
     0.386,0.341,0.000,0.026,0.087,306.000,0.000,3.000,0.000,0.000,0.000,0.386,0.341,0.000,0.026,0.087,306.000,0.000,3.000,0.000,0.000,0.000: // measure 0
1000
0000
0000
0100
0000
0000
1000
0000
0000
0000
0000
0010
0000
0000
0100
0000
,  // measure 1
0001
0000
0000
0010
0000
0000
0100
0000
0000
0000
0000
0010
0000
0000
0001
0000
,  // measure 2
1000
0000
0000
0010
0000
0000
0100
0000
0000
0000
0000
0001
0000
0000
0100
0000
,  // measure 3
0010
0000
0000
1000
0000
0000
0100
0000
0000
0000
0000
0001
0000
0000
0100
0000
,  // measure 4
1000
0000
0000
0010
0000
0000
0100
0000
0000
0000
0000
0001
0000
0000
0010
0000
,  // measure 5
0100
0000
0000
0001
0000
0000
0100
0000
0000
0000
0000
1000
0000
0000
0001
0000
,  // measure 6
0100
0000
0000
0010
0000
0000
0100
0000
0000
0000
0000
0001
0000
0000
0010
0000
,  // measure 7
0200
0000
0300
0000
,  // measure 8
1000
0010
0100
0001
0000
0001
0100
0010
,  // measure 9
1000
0001
0010
0100
0000
0100
0010
0001
,  // measure 10
0100
1000
0100
0001
0000
0010
0100
0001
,  // measure 11
0100
1000
0001
0100
0000
1000
0100
0010
,  // measure 12
1000
0001
0010
0000
0100
0000
1000
0000
,  // measure 13
0010
0100
1000
0100
,  // measure 14
0010
1000
0001
0010
,  // measure 15
0100
0001
0100
1000
,  // measure 16
0010
1000
0100
0001
0000
0001
0100
1000
,  // measure 17
0010
0100
0001
0010
0000
0010
0001
0100
,  // measure 18
0010
1000
0100
0010
0000
0010
0100
1000
,  // measure 19
0001
0100
0010
1000
0000
0001
0010
0100
,  // measure 20
0001
0100
1000
0000
0001
0000
0100
0000
,  // measure 21
1000
0100
0010
0000
1000
0000
0001
0000
,  // measure 22
0010
0100
1000
0000
0001
0000
0100
0000
,  // measure 23
0010
0100
0001
0000
0010
0000
0100
0000
,  // measure 24
1000
0000
0010
0100
0000
0100
0010
1000
,  // measure 25
0001
0000
0010
0100
0000
0100
0010
0001
,  // measure 26
1000
0000
0010
0100
0000
0100
0010
1000
,  // measure 27
0001
0000
0010
0100
0000
0010
0001
0100
,  // measure 28
0010
0000
1000
0000
0100
1000
0001
0000
,  // measure 29
0100
0000
0010
0000
1000
0001
0010
0000
,  // measure 30
0100
0000
1000
0000
0001
0100
0010
0000
,  // measure 31
0100
0000
0001
0000
0010
0100
1000
0000
,  // measure 32
0001
0000
0010
0000
0100
1000
0001
0000
,  // measure 33
0100
0000
0010
0000
1000
0001
0010
0000
,  // measure 34
0100
0000
1000
0000
0100
0010
0100
0000
,  // measure 35
1000
0001
0100
0010
,  // measure 36
0100
0000
0001
0000
0010
0100
1000
0000
,  // measure 37
0001
0100
0010
0000
1000
0001
0010
0000
,  // measure 38
0100
1000
0001
0000
0100
0010
0100
0000
,  // measure 39
0001
0010
0100
0000
0001
0100
1000
0000
,  // measure 40
0001
0100
1000
0000
0100
0010
1000
0000
,  // measure 41
0001
0010
0100
0000
1000
0010
0100
0000
,  // measure 42
1000
0100
0010
0000
1000
0100
0010
0000
,  // measure 43
0001
0100
0010
0000
1000
0001
0010
0000
,  // measure 44
0100
1000
0010
0000
0001
0010
1000
0000
,  // measure 45
0001
0010
1000
0000
0010
0001
1000
0000
,  // measure 46
0010
0100
0001
0000
0100
0010
1000
0000
,  // measure 47
0001
0010
0100
0000
2000
0000
3002
0000
,  // measure 48
1003
0000
0000
0000
0010
0000
0000
0100
0001
0000
0010
0000
0100
0000
0000
0000
,  // measure 49
0010
0000
0000
0000
0001
0000
0000
0100
0010
0000
1000
0000
0001
0000
0000
0000
,  // measure 50
0010
0000
0000
0000
0100
0000
0000
1000
0001
0000
0100
0000
0010
0000
0000
0000
,  // measure 51
0100
0000
0000
0000
0001
0000
0000
0010
0100
0000
0001
0000
0100
0000
0000
0000
,  // measure 52
1000
0000
0000
0000
0001
0000
0000
0100
1000
0000
0100
0000
0010
0000
0000
0000
,  // measure 53
1000
0000
0000
0000
0001
0000
0000
0010
0100
0000
1000
0000
0001
0000
0000
0000
,  // measure 54
0100
0010
1000
0001
,  // measure 55
0010
0100
1000
0001
;

//---------------dance-single - ----------------
#NOTES:
     dance-single:
     :
     Beginner:
     2:
     0.089,0.096,0.000,0.000,0.000,71.000,0.000,0.000,0.000,0.000,0.000,0.089,0.096,0.000,0.000,0.000,71.000,0.000,0.000,0.000,0.000,0.000:
1000
0000
0000
0000
,
0010
0000
0000
0000
,
0100
0000
0000
0000
,
0001
0000
0000
0000
,
0010
0000
0000
0000
,
0100
0000
0000
0000
,
0001
0000
0000
0000
,
0100
0000
0000
0000
,
1000
0000
0010
0000
,
1000
0000
0000
0000
,
0001
0000
0100
0000
,
0001
0000
0000
0000
,
0010
0000
0100
0000
,
0010
0000
0000
0000
,
0001
0000
1000
0000
,
0001
0000
0000
0000
,
1000
0000
0010
0000
,
1000
0000
0000
0000
,
0001
0000
0100
0000
,
0001
0000
0000
0000
,
0010
0000
0100
0000
,
0010
0000
0000
0000
,
0001
0000
1000
0000
,
0001
0000
0000
0000
,
1000
0000
0000
0000
,
0010
0000
0000
0000
,
0100
0000
0001
0000
,
0100
0000
0000
0000
,
0001
0000
0000
0000
,
0010
0000
0000
0000
,
0100
0000
1000
0000
,
0100
0000
0000
0000
,
1000
0000
0000
0000
,
0010
0000
0000
0000
,
0100
0000
0001
0000
,
0100
0000
0001
0000
,
0100
0000
0000
0000
,
0010
0000
0000
0000
,
1000
0000
0010
0000
,
1000
0000
0010
0000
,
1000
0000
0000
0000
,
0001
0000
0000
0000
,
0010
0000
0100
0000
,
1000
0000
0000
0000
,
0010
0000
0000
0000
,
0100
0000
0000
0000
,
0001
0000
0000
0000
,
1000
0000
0000
0000
,
0001
0000
0000
0000
,
1000
0000
0000
0000
,
0001
0000
0000
0000
,
1000
0000
0000
0000
,
0010
0000
0000
0000
,
0100
0000
0000
0000
,
0010
0000
0000
0000
,
0100
0000
0000
0000
;
